osu file format v6

[General]
AudioFilename: Nobuo Uematsu - Fight Against Culex.mp3
AudioLeadIn: 500
PreviewTime: 64816
Countdown: 1
SampleSet: Normal
StackLeniency: 1
Mode: 0
LetterboxInBreaks: 1

[Editor]
Bookmarks: 1198,3968,8122,14527,17817,20586,24741,31146,34435,37205,39975,42744,48284,53823,62133,64903,70442,78751,81521,87061,95370,98140,100909,109219,114758,120298,123068
DistanceSpacing: 0
BeatDivisor: 4
GridSize: 8

[Metadata]
Title:Fight Against Culex
Artist:Nobuo Uematsu
Creator:Gens
Version:Easy
Source:Super Mario RPG, Final Fantasy II/IV
Tags:Boss Bros SMRPG Square Square-Enix

[Difficulty]
HPDrainRate:3
CircleSize:4
OverallDifficulty:2
SliderMultiplier:1
SliderTickRate:2

[Events]
//Background and Video events
0,0,"FightAgainstCulexBG.png"
//Break Periods
//Storyboard Layer 0 (Background)
//Storyboard Layer 1 (Fail)
//Storyboard Layer 2 (Pass)
//Storyboard Layer 3 (Foreground)
//Storyboard Sound Samples
//Background Colour Transformations
3,100,62,123,103

[TimingPoints]
1285,346.220427005193,4,1,0,60,1,0
3973,-100,4,1,0,75,0,0
37210,-100,4,1,1,75,0,0
39975,-100,4,1,0,75,0,0
64989,-100,4,1,0,75,0,1
65032,-100,4,1,0,75,0,0
98140,-100,4,1,1,75,0,0
100909,-100,4,1,0,75,0,0
125924,-100,4,1,0,75,0,1
125967,-100,4,1,0,75,0,0

[Colours]
Combo1 : 60,0,140
Combo2 : 5,240,5
Combo3 : 5,5,240
Combo4 : 240,5,5
Combo5 : 255,249,0

[HitObjects]
216,40,4054,5,4
96,64,4747,2,2,B|176:248|328:32|432:224,1,400,6|2
296,232,6824,1,4
336,360,8209,5,6
176,360,8901,1,6
139,221,9594,6,2,B|139:157|139:157|139:125|171:125|171:125|347:125|347:125|379:125|379:93|379:93|379:29,3,400
256,304,15133,1,4
200,232,17903,5,12
312,232,18596,1,8
312,120,19288,1,12
200,120,19981,1,8
296,40,20673,5,4
416,64,21366,2,2,B|336:248|184:32|80:224,1,400,6|2
216,232,23443,1,4
176,360,24828,5,6
336,360,25520,1,6
373,221,26213,6,2,B|373:157|373:157|373:125|341:125|341:125|165:125|165:125|133:125|133:93|133:93|133:29,3,400
256,304,31752,1,4
160,192,34522,6,4,B|256:208|368:192,3,200,12|8|12|8
192,40,37291,5,6
320,120,37984,1,2
256,248,38676,1,4
256,248,39023,1,8
256,248,39369,1,0
256,248,39715,1,8
208,312,40061,6,0,B|104:312|104:144,1,200,4|0
152,32,41447,2,2,B|256:32|256:200,1,200
304,312,42831,6,0,B|408:312|408:144,1,200,4|0
360,32,44217,2,2,B|256:32|256:200,1,200
64,264,45601,6,4,B|256:312|464:264,1,400,4|6
192,48,48370,5,2
320,48,49063,1,2
256,144,49755,1,4
192,336,51140,5,2
320,336,51833,1,2
256,240,52525,1,4
344,152,53910,6,0,B|344:8|176:8|176:160,2,300,4|8|8
344,232,56680,6,0,B|344:376|176:376|176:224,2,300,4|8|8
256,168,59450,6,4,B|336:208|368:40|200:16|96:104|152:248|256:248,1,400
256,368,61527,1,2
256,368,61873,1,2
256,192,62219,12,4,64297
220,192,64989,5,4
128,128,65681,2,2,B|32:8|488:8|392:128,1,400,6|2
292,192,67759,1,4
176,288,69144,5,6
336,288,69836,1,6
456,192,70529,2,2,B|48:192,4,400,2|2|2|2|4
344,104,76761,5,0
168,104,77453,1,0
256,280,78145,1,0
160,352,78838,6,0,B|376:352,3,200,12|8|12|8
292,192,81608,5,4
384,128,82300,2,2,B|480:8|24:8|120:128,1,400,6|2
220,192,84378,1,4
336,288,85763,5,6
176,288,86455,1,6
56,192,87148,2,2,B|464:192,4,400,2|2|2|2|4
168,120,93380,5,0
344,120,94072,1,0
256,264,94764,1,0
344,336,95457,6,0,B|128:336,1,200,12|8
184,192,96841,2,0,B|400:192,1,200,12|8
312,104,98226,5,2
184,56,98919,1,2
152,184,99611,1,4
152,184,99957,1,8
152,184,100304,1,0
152,184,100650,1,8
72,168,100996,6,0,B|72:328|288:328,1,300,4|0
368,320,102381,2,2,B|368:160|152:160,1,300
80,112,103766,6,4,B|176:16|336:16|448:120,1,400,4|6
256,192,106536,1,4
256,192,107920,1,2
112,216,109305,5,2
112,360,109998,1,2
256,360,110690,1,4
400,216,112075,5,2
400,360,112768,1,2
256,360,113460,1,4
328,240,114845,6,6,B|328:136|328:136|360:136|432:136|488:192|488:296|432:352|280:352|256:328|256:256|256:256|256:192,1,600,6|2
256,193,117615,2,6,B|256:131|256:131|256:59|232:35|80:35|24:91|24:195|80:251|152:251|184:251|184:251|184:147,1,600,6|2
184,153,120384,1,4
256,192,120471,12,4,122462
296,192,123154,6,0,B|368:240|368:144|440:192,2,150,4|8|8
216,192,124539,2,0,B|144:144|144:240|72:192,2,150,4|8|8
256,112,125924,1,4
