osu file format v9

[General]
AudioFilename: Final Fantasy VII OST - Fiddle de Chocobo.mp3
AudioLeadIn: 0
PreviewTime: 3873
Countdown: 1
SampleSet: Soft
StackLeniency: 0.7
Mode: 0
LetterboxInBreaks: 1

[Editor]
Bookmarks: 3885,59122,74965
DistanceSpacing: 0.9
BeatDivisor: 4
GridSize: 8

[Metadata]
Title:Fiddle de Chocobo
Artist:Nobuo Uematsu
Creator:pekolove
Version:Insane
Source:Final Fantasy VII
Tags:FF7

[Difficulty]
HPDrainRate:6
CircleSize:5
OverallDifficulty:8
ApproachRate:8
SliderMultiplier:2
SliderTickRate:1

[Events]
//Background and Video events
0,0,"newyear04_s.jpg"
//Break Periods
//Storyboard Layer 0 (Background)
//Storyboard Layer 1 (Fail)
//Storyboard Layer 2 (Pass)
//Storyboard Layer 3 (Foreground)
//Storyboard Sound Samples
//Background Colour Transformations
3,100,163,162,255

[TimingPoints]
2246,406.2288422478,4,2,0,65,1,0

[Colours]
Combo1 : 240,5,5
Combo2 : 5,240,5
Combo3 : 5,5,240

[HitObjects]
128,80,3870,2,0,B|70:77|54:21,1,100
136,152,4276,2,0,B|99:196|44:175,1,100
40,280,4683,1,0
80,376,4886,1,0
120,280,5089,1,0
160,376,5292,1,0
200,280,5495,6,0,B|224:200|272:200,1,100
280,200,5800,1,0
312,200,5901,2,0,B|368:168|368:104,1,100
368,96,6206,1,0
368,64,6308,6,0,B|424:72,1,50
416,104,6511,2,0,B|472:128,1,50
464,152,6714,1,0
464,152,6917,1,0
384,264,7120,6,0,B|384:328|456:360,2,100
288,264,7729,1,0
184,264,7933,1,0
96,304,8136,1,0
152,216,8339,1,0
184,208,8440,1,0
216,200,8542,1,0
248,192,8643,1,0
272,216,8745,6,0,B|168:248,2,100
368,192,9354,1,0
464,192,9557,5,0
376,48,9761,1,0
288,192,9964,1,0
376,335,10168,1,0
288,384,10370,5,0
216,320,10573,2,0,B|168:272,1,50
144,320,10776,1,0
72,256,10979,2,0,B|24:208,1,50
36,193,11182,6,0,B|40:128|112:64|212:73,1,200
192,72,11690,1,0
208,72,11792,1,0
224,72,11893,1,0
240,72,11995,6,0,B|352:72,1,100
408,144,12401,2,0,B|288:144,1,100
208,40,12807,6,0,B|320:40,1,100
440,176,13213,2,0,B|320:176,1,100
296,256,13620,5,0
216,304,13823,1,0
128,304,14026,1,0
48,256,14229,1,0
328,224,14432,5,0
232,336,14635,1,0
112,336,14838,1,0
16,224,15042,1,0
112,104,15245,6,0,B|56:88|56:32,1,100
144,32,15651,2,0,B|208:40|208:144,1,100
296,104,16057,2,0,B|304:184|384:176,1,100
440,176,16463,2,0,B|432:112|376:96,1,100
304,56,16870,5,0
304,56,17073,1,0
216,56,17276,2,0,B|168:56,2,50
216,144,17682,2,0,B|120:184,1,100
88,264,18088,1,0
88,264,18190,1,0
88,264,18291,1,0
152,328,18494,5,0
216,264,18698,1,0
296,344,18901,1,0
376,232,19104,1,0
480,368,19307,2,0,B|504:368,8,25
480,368,19916,1,0
480,280,20119,6,0,B|400:200,1,100
320,208,20526,2,0,B|408:296,1,100
392,368,20932,1,0
304,336,21135,1,0
256,256,21338,1,0
256,168,21541,1,0
256,80,21744,5,0
224,88,21846,1,0
200,104,21947,1,0
176,128,22049,1,0
168,152,22151,2,0,B|152:168|168:200,3,50
176,224,22557,1,0
192,248,22658,1,0
200,280,22760,1,0
192,312,22861,1,0
176,328,22963,2,0,B|160:352|128:360,3,50
136,357,23369,5,0
136,357,23572,1,0
72,296,23775,2,0,B|24:248,2,50
136,232,24182,1,0
136,232,24385,1,0
72,168,24588,1,0
56,152,24689,1,0
40,136,24791,1,0
136,32,24994,6,0,B|48:80,1,100
376,32,25400,2,0,B|464:80,1,100
184,192,25807,2,0,B|128:280,1,100
328,192,26213,2,0,B|384:280,1,100
195,279,26619,5,0
140,155,26822,1,0
264,99,27025,1,0
320,224,27228,1,0
142,221,27432,5,0
229,62,27635,1,0
388,150,27838,1,0
300,308,28041,1,0
256,192,28244,12,0,29463
448,40,29869,6,0,B|392:40|344:80,1,100
336,96,30174,1,0
352,128,30275,2,0,B|408:128|456:168,1,100
464,184,30580,1,0
448,216,30681,2,0,B|448:264|520:312,3,100
408,296,31494,5,0
336,240,31697,1,0
320,240,31798,1,0
304,240,31900,1,0
216,168,32103,1,0
192,168,32205,1,0
168,168,32306,1,0
64,80,32509,1,0
32,80,32611,1,0
0,80,32712,1,0
64,80,32916,5,0
152,80,33119,2,0,B|192:128|184:176|144:216|88:240,1,200
93,237,33728,1,0
16,192,33931,2,0,B|-16:240|24:320,1,100
72,352,34337,1,0
160,352,34541,1,0
224,288,34744,2,0,B|264:232|200:160,1,100
288,128,35150,5,0
376,128,35353,1,0
224,192,35556,5,0
376,192,35759,1,0
160,256,35962,5,0
376,256,36165,1,0
96,320,36369,6,0,B|32:320|16:256,1,100
16,176,36775,1,0
16,176,36978,1,0
16,88,37181,2,0,B|48:32|112:32,1,100
112,32,37486,1,0
128,32,37587,1,0
144,32,37689,1,0
160,32,37790,1,0
176,32,37892,1,0
192,32,37993,6,0,B|296:32,1,100
320,32,38298,1,0
352,32,38400,2,0,B|416:48|424:120,1,100
424,128,38704,1,0
424,160,38806,2,0,B|392:200,1,50
408,224,39009,2,0,B|376:264,1,50
392,296,39212,1,0
392,296,39415,1,0
320,352,39618,6,0,B|240:312|416:184|280:160,1,200
316,172,40228,1,0
320,80,40431,1,0
288,72,40532,1,0
256,64,40634,1,0
224,72,40736,1,0
192,80,40837,2,0,B|144:96,3,50
144,120,41243,6,0,B|224:160|48:288|184:312,1,200
147,299,41853,1,0
240,296,42056,5,0
280,136,42259,1,0
360,232,42462,1,0
400,72,42665,1,0
480,168,42868,5,0
480,256,43071,1,0
400,216,43274,1,0
400,312,43478,1,0
320,360,43681,2,0,B|216:360,1,100
160,296,44087,2,0,B|272:296,1,100
296,216,44493,5,0
248,144,44696,1,0
216,144,44798,1,0
184,144,44899,1,0
328,64,45102,1,0
360,64,45204,1,0
392,64,45306,2,0,B|416:64,8,25
328,64,45915,5,0
240,64,46118,1,0
240,64,46321,1,0
152,96,46524,1,0
152,96,46727,1,0
96,168,46931,2,0,B|64:224|104:264,1,100
152,336,47337,1,0
240,352,47540,1,0
328,336,47743,6,0,B|368:344|376:296,3,50
385,297,48149,1,0
396,274,48251,1,0
392,249,48352,1,0
378,227,48454,1,0
366,204,48555,2,0,B|362:178|381:156,3,50
395,137,48962,1,0
407,115,49063,1,0
409,90,49165,1,0
405,65,49266,1,0
396,41,49368,6,0,B|304:134,1,100
232,120,49774,2,0,B|320:32,1,100
216,48,50180,1,0
160,120,50383,1,0
120,40,50587,1,0
216,48,50790,1,0
264,128,50993,2,0,B|296:208|208:240,1,100
320,96,51399,2,0,B|288:16|376:-16,1,100
424,16,51805,5,0
424,48,51907,1,0
424,80,52008,1,0
424,112,52110,1,0
424,144,52211,1,0
424,144,52415,1,0
424,280,52618,6,0,B|472:280,3,50
474,280,53024,1,0
216,280,53227,1,0
168,200,53430,5,0
136,200,53532,1,0
104,200,53633,1,0
72,200,53735,1,0
40,200,53836,1,0
296,200,54040,1,0
256,56,54243,6,0,B|304:72,1,50
256,104,54446,2,0,B|312:128,1,50
256,152,54649,2,0,B|192:184,1,50
256,200,54852,2,0,B|200:232,1,50
256,250,55055,1,0
256,384,55461,5,0
256,0,55868,5,0
256,0,56071,1,0
200,72,56274,2,0,B|144:72|120:128,1,100
144,208,56680,1,0
224,248,56883,1,0
256,160,57086,2,0,B|320:160|344:224,1,100
392,280,57493,5,0
120,280,57763,1,0
256,280,58508,6,0,B|256:352,2,50
248,64,59118,6,0,B|368:64,1,100
256,144,59524,2,0,B|136:144,1,100
72,64,59930,1,0
24,176,60133,1,0
56,288,60336,1,0
168,240,60539,1,0
256,208,60742,5,0
240,296,60946,1,0
328,272,61149,2,0,B|376:280|416:328,1,100
256,208,61555,2,0,B|264:160|312:120,1,100
240,296,61961,2,0,B|209:333|147:344,1,100
152,328,62266,1,0
152,304,62367,1,0
48,208,62570,6,0,B|16:168,2,50
88,72,62977,1,0
120,72,63078,1,0
152,72,63180,1,0
280,24,63383,2,0,B|344:40,2,50
360,136,63789,1,0
328,136,63891,1,0
296,136,63992,5,0
168,184,64195,1,0
88,304,64399,1,0
216,248,64602,1,0
352,272,64805,1,0
440,40,65617,6,0,B|488:80|440:128,1,100
368,176,66023,1,0
440,232,66227,1,0
360,280,66430,2,0,B|304:240|240:296,1,100
192,320,66836,2,0,B|144:352,2,50
264,280,67242,2,0,B|288:232|264:184,1,100
264,168,67547,1,0
264,152,67648,1,0
192,96,67851,5,0
177,75,67953,1,0
155,64,68055,2,0,B|130:50|109:64,3,50
89,82,68461,2,0,B|55:116,1,50
71,135,68664,2,0,B|22:184,1,50
32,192,68867,5,0
32,280,69070,1,0
32,312,69172,1,0
32,344,69273,1,0
112,296,69476,1,0
136,320,69578,1,0
160,344,69679,2,0,B|208:344,4,50
210,344,70289,5,0
296,344,70492,1,0
319,336,70594,1,0
340,323,70695,1,0
358,306,70797,1,0
374,286,70898,1,0
408,160,71101,1,0
472,344,71304,6,0,B|496:344,8,25
256,48,72117,5,0
200,112,72320,2,0,B|152:160,2,50
312,112,72726,2,0,B|360:160,2,50
256,184,73132,5,0
128,336,73336,1,0
384,336,73539,1,0
256,384,73742,5,0
256,288,73945,1,0
256,256,74046,1,0
256,224,74148,1,0
256,184,74250,1,0
256,152,74351,1,0
256,120,74453,1,0
256,88,74554,1,0
256,0,74960,5,0
