osu file format v14

[General]
AudioFilename: FFX Main Battle Theme.mp3
AudioLeadIn: 0
PreviewTime: -1
Countdown: 0
SampleSet: Normal
StackLeniency: 0.7
Mode: 0
LetterboxInBreaks: 1
WidescreenStoryboard: 1

[Editor]
DistanceSpacing: 1
BeatDivisor: 4
GridSize: 4
TimelineZoom: 1

[Metadata]
Title:FFX Main Battle Theme
TitleUnicode:FFX Main Battle Theme
Artist:Nobuo Uematsu
ArtistUnicode:Nobuo Uematsu
Creator:PotatoJet
Version:Ultima
Source:FFX
Tags:FFX Nobuo Uemtasu Music Battle theme jrpg
BeatmapID:1300084
BeatmapSetID:616450

[Difficulty]
HPDrainRate:4
CircleSize:4
OverallDifficulty:5
ApproachRate:5
SliderMultiplier:1.4
SliderTickRate:1

[Events]
//Background and Video events
0,0,"final-fantasy-x-hd-luca.jpg",0,0
//Break Periods
2,37979,42249
//Storyboard Layer 0 (Background)
//Storyboard Layer 1 (Fail)
//Storyboard Layer 2 (Pass)
//Storyboard Layer 3 (Foreground)
//Storyboard Sound Samples

[TimingPoints]
457.072038054301,472.44094488189,4,1,0,100,1,0

[HitObjects]
256,200,220,5,0,0:0:0:0:
256,200,929,1,0,0:0:0:0:
256,200,1401,1,0,0:0:0:0:
184,208,2346,2,0,P|68:128|248:104,1,420
256,128,4354,5,0,0:0:0:0:
256,176,4709,1,0,0:0:0:0:
256,216,5063,1,0,0:0:0:0:
287,323,6126,2,0,P|440:286|328:176,1,385
256,192,8016,5,0,0:0:0:0:
256,192,8252,1,0,0:0:0:0:
256,192,8488,1,0,0:0:0:0:
216,276,8961,5,0,0:0:0:0:
168,276,9197,1,0,0:0:0:0:
124,276,9433,1,0,0:0:0:0:
272,272,9905,5,0,0:0:0:0:
316,272,10141,1,0,0:0:0:0:
364,272,10377,1,0,0:0:0:0:
432,216,10850,5,0,0:0:0:0:
384,216,11086,1,0,0:0:0:0:
336,216,11322,1,0,0:0:0:0:
264,216,11677,2,0,L|48:216,1,210
140,152,12740,5,0,0:0:0:0:
132,72,12976,1,0,0:0:0:0:
68,116,13212,1,0,0:0:0:0:
176,236,13685,5,0,0:0:0:0:
140,308,13921,1,0,0:0:0:0:
96,244,14157,1,0,0:0:0:0:
100,192,14630,2,0,L|100:24,1,140
100,52,15575,5,0,0:0:0:0:
100,156,15811,1,0,0:0:0:0:
104,56,16047,1,0,0:0:0:0:
104,56,16520,2,0,L|256:56,1,140
184,208,17464,6,0,L|44:208,2,140
256,156,19118,5,0,0:0:0:0:
268,76,19354,1,0,0:0:0:0:
332,128,19590,1,0,0:0:0:0:
260,200,20299,2,0,P|260:336|256:340,1,140
176,332,21244,5,0,0:0:0:0:
148,324,21480,1,0,0:0:0:0:
92,268,21716,2,0,P|72:188|98:139,1,140
316,44,23134,2,0,P|364:40|304:252,1,420
256,256,25024,5,0,0:0:0:0:
256,256,25378,1,0,0:0:0:0:
156,244,25614,2,0,P|12:224|208:108,1,560
240,216,27976,5,0,0:0:0:0:
308,320,28331,2,0,P|404:336|272:80,2,665
204,320,33291,6,0,P|108:336|240:80,2,665
376,268,43449,5,0,0:0:0:0:
316,232,43685,1,0,0:0:0:0:
260,280,43921,1,0,0:0:0:0:
188,252,44157,5,0,0:0:0:0:
132,300,44393,1,0,0:0:0:0:
72,252,44630,1,0,0:0:0:0:
48,312,45811,2,0,P|32:116|144:212,1,455
212,288,47701,5,0,0:0:0:0:
212,288,47937,1,0,0:0:0:0:
324,320,48409,2,0,P|528:236|344:116,1,525
264,204,50535,5,0,0:0:0:0:
168,204,50772,1,0,0:0:0:0:
88,208,51008,2,0,P|96:296|400:192,1,560
404,213,53252,6,0,P|243:398|88:208,1,560
72,164,55378,1,0,0:0:0:0:
72,164,55614,1,0,0:0:0:0:
64,68,56086,2,0,P|132:0|276:12,1,245
328,84,57268,6,0,L|432:168,2,105
232,88,58212,2,0,L|128:172,2,105
316,92,59275,5,0,0:0:0:0:
348,92,59512,1,0,0:0:0:0:
380,92,59748,1,0,0:0:0:0:
380,176,60102,5,0,0:0:0:0:
348,176,60338,1,0,0:0:0:0:
316,176,60575,1,0,0:0:0:0:
240,172,61165,2,0,P|312:64|392:324,1,595
256,192,63646,12,0,65772,0:0:0:0:
