osu file format v5

[General]
AudioFilename: f9b.mp3
AudioLeadIn: 0
PreviewTime: -1
Countdown: 1
SampleSet: Soft
StackLeniency: 0.7
Mode: 0
LetterboxInBreaks: 1
EditorBookmarks: 17296,18608,20295,21607,24981,27605,47474,48599,50473,51598,59470,60595,62282,63594,66968,69030,71092

[Metadata]
Title:FFIX Battle Theme
Artist:Nobuo Uematsu
Creator:Mifune24
Version:Easy
Source:
Tags:

[Difficulty]
HPDrainRate:2
CircleSize:3
OverallDifficulty:4
SliderMultiplier:1.4
SliderTickRate:2

[Events]
//Background and Video events
0,0,"ff9battle.jpg"
//Break Periods
//Storyboard Layer 0 (Background)
//Storyboard Layer 1 (Failing)
//Storyboard Layer 2 (Passing)
//Storyboard Layer 3 (Foreground)
//Storyboard Sound Samples
//Background Colour Transformations
3,100,163,162,255

[TimingPoints]
1340,374.882849109653,4,2,0,100,1

[Colours]
Combo1 : 255,128,0
Combo2 : 5,240,5
Combo3 : 5,5,240
Combo4 : 240,5,5

[HitObjects]
160,96,1339,1,0
352,96,2089,1,0
352,288,2839,1,0
160,288,3589,1,0
256,64,4339,6,0,B|352:64|384:128|384:192|288:224|224:192,1,280
32,192,5838,1,2
32,288,6213,1,2
128,288,6588,1,2
128,192,6963,1,2
224,192,7338,6,0,B|224:288|288:320|384:320|384:224|384:192,1,280
384,32,8837,1,2
384,128,9212,1,2
288,128,9587,1,2
288,32,9962,1,2
192,32,10337,6,0,B|128:128|192:256,2,210
96,288,12961,5,0
96,128,13523,1,0
256,128,14086,1,0
256,288,14648,1,0
416,288,15210,1,0
416,288,15585,1,0
416,160,15960,6,0,B|416:64|352:32|288:96|288:128|256:160|192:96,1,280
64,32,17459,2,2,B|0:96|64:192,3,140
32,256,18959,6,0,B|32:320|128:352|128:224|192:160|256:224,1,280
416,192,20459,2,2,B|480:256|416:352,3,140
256,320,21958,5,0
256,160,22520,1,0
64,160,23458,5,0
64,320,24020,1,0
160,64,24957,6,0,B|256:128|448:64,1,280
416,288,26457,2,0,B|256:224|128:288,1,280
128,96,27956,5,0
288,96,28519,1,0
288,320,29456,5,0
128,320,30018,1,0
320,128,30955,6,0,B|448:128|512:224|384:320,1,280
192,320,32455,2,0,B|72:321|8:225|114:146,1,245
352,128,33954,5,2
192,64,34517,1,2
192,352,35454,1,2
352,288,36016,1,4
186,62,36953,6,0,B|272:20|346:84,3,140
324,177,38453,2,0,B|244:212|171:167,3,140
128,288,39952,5,0
288,288,40515,1,0
448,288,41077,1,0
448,288,41452,1,0
96,160,42951,6,2,B|96:96|160:64|192:64,1,140
288,64,43701,2,2,B|384:64|384:160,1,140
384,256,44451,2,2,B|384:352|288:352,1,140
192,352,45201,2,4,B|128:352|96:288|96:256,1,140
96,160,45951,5,0
96,64,46325,1,0
96,64,46513,1,0
192,64,46888,1,0
192,64,47075,1,0
288,64,47450,2,2,B|416:64|448:128|448:192|448:288|384:352|288:320,1,420
192,320,48950,5,0
96,320,49325,1,0
96,320,49512,1,0
96,224,49887,1,0
96,224,50074,1,0
96,128,50449,2,2,B|96:32|224:0|320:0|416:64|416:128,1,420
416,224,51949,5,2
320,288,52511,1,4
160,224,53073,5,2
64,288,53448,1,2
224,352,54011,1,4
320,288,54573,5,2
416,224,54948,1,2
256,192,55510,1,2
256,192,55885,12,0,57572
96,64,57947,5,0
256,64,58509,1,0
416,64,59071,1,0
416,64,59446,2,0,B|416:160|288:224|192:128|96:160|64:256,1,420
64,352,60946,5,0
160,352,61321,1,0
256,352,61696,1,0
352,352,62071,1,0
352,352,62258,2,0,B|480:352|512:192|512:96|448:0|320:32,1,490
256,96,63945,5,2
96,160,64507,1,2
160,256,64882,1,2
160,256,65070,1,2
256,320,65444,1,2
416,256,66007,1,2
416,128,66382,1,2
416,128,66569,1,2
320,96,66944,2,4,B|320:32|256:0|160:0|96:96|128:192|224:224|320:160|320:160|320:352|224:352|160:352|128:256,2,770
256,192,71443,12,0,72942
