osu file format v7

[General]
AudioFilename: 14 - Dancing Mad.mp3
AudioLeadIn: 0
PreviewTime: -1
Countdown: 1
SampleSet: Soft
StackLeniency: 0.7
Mode: 0
LetterboxInBreaks: 1

[Editor]
Bookmarks: 6466,9987,13283,19833,30275,43718,49141,54535,60852,63824,70314,76083,82199,87160,89756,93275,98612,103747,111160,121025,129160,132910,138189,145199,151920,158727,166458
DistanceSpacing: 0.800000011920929
BeatDivisor: 8
GridSize: 8

[Metadata]
Title:Dancing Mad
Artist:Nobuo Uematsu
Creator:Corrderio
Version:Normal
Source:Final Fantasy VI
Tags:

[Difficulty]
HPDrainRate:5
CircleSize:4
OverallDifficulty:5
SliderMultiplier:0.6
SliderTickRate:0.5

[Events]
//Background and Video events
0,0,"Kefka_Desends_by_Animus_Krimson.jpg"
//Break Periods
2,18331,20220
2,42764,44595
2,61456,63749
2,150187,159056
//Storyboard Layer 0 (Background)
//Storyboard Layer 1 (Fail)
//Storyboard Layer 2 (Pass)
//Storyboard Layer 3 (Foreground)
//Storyboard Sound Samples
//Background Colour Transformations
3,100,128,0,0

[TimingPoints]
7862.51676288876,230.769230769231,4,2,0,100,1,0

[Colours]
Combo1 : 255,150,0
Combo2 : 5,240,5
Combo3 : 5,5,240
Combo4 : 240,5,5

[HitObjects]
160,96,7602,5,0
352,96,8670,1,0
256,192,10429,1,0
256,192,10660,1,0
256,288,11122,1,0
352,288,14641,5,0
160,288,15679,1,0
256,192,17439,1,0
256,192,17670,1,0
256,96,18131,1,0
152,128,21420,5,0
344,128,22343,1,0
400,216,23266,2,0,B|256:272|96:216,1,307.5
160,264,26266,5,0
352,264,27189,1,0
400,144,28112,2,0,B|256:88|96:144,1,307.5
128,192,32035,5,0
224,192,33074,1,0
352,192,34833,1,0
352,192,35064,1,0
248,192,35554,1,0
384,192,39045,5,0
288,192,40083,1,0
160,192,41872,1,0
160,192,42074,1,0
264,192,42564,1,0
352,112,45795,5,0
152,112,46747,1,0
104,232,47670,2,0,B|248:288|408:232,1,307.5
152,264,50670,5,0
344,264,51593,1,0
400,152,52516,2,0,B|256:96|96:152,1,307.5
64,152,56208,6,0,B|192:56|320:56|456:152,2,420
256,192,61256,1,0
88,176,64949,6,0,B|192:40|320:40|416:176,2,397.5
88,208,68410,2,0,B|192:344|320:344|416:208,2,397.5
160,120,71843,5,0
360,120,72795,1,0
256,280,73718,1,0
344,256,77381,5,0
144,256,78333,1,0
256,96,79256,1,0
256,248,80006,1,0
256,112,81131,1,0
256,112,81824,1,0
24,136,83497,6,0,B|64:376|136:320|192:352|256:0|320:352|376:320|448:376|496:144,1,690
256,192,88487,1,0
256,192,88660,1,0
256,192,88804,1,0
344,152,91458,6,0,B|304:384|256:176|208:384|160:144,2,345
304,96,95439,5,0
208,96,96679,1,0
256,208,98122,1,0
256,192,99420,5,0
208,144,100747,1,0
304,144,102074,1,0
256,96,103429,1,0
176,128,104727,5,0
336,128,106054,1,0
512,160,107381,2,0,C|400:320|112:320|0:160,3,690
256,192,117420,12,0,120708
256,112,123045,5,0
96,192,126016,2,0,B|256:328|416:192,2,345
256,112,129997,5,0
224,192,131352,1,0
256,192,132016,1,0
288,192,132708,1,0
432,176,134006,6,0,B|256:384|56:176,1,435
176,192,136660,1,0
336,192,138016,1,0
408,192,139343,2,0,B|256:32|104:192,1,345
160,192,142025,1,0
352,192,144679,1,0
256,192,146352,12,2,149987
128,320,160256,5,0
192,256,161295,1,0
288,160,163083,1,0
288,160,163314,1,0
352,88,163775,1,0
384,320,167295,5,0
320,256,168333,1,0
224,160,170093,1,0
224,160,170324,1,0
152,96,170785,1,0
208,144,174074,5,0
256,192,174997,1,0
304,144,175920,1,0
