osu file format v7

[General]
AudioFilename: 14 - Dancing Mad.mp3
AudioLeadIn: 0
PreviewTime: -1
Countdown: 1
SampleSet: Soft
StackLeniency: 0.7
Mode: 0
LetterboxInBreaks: 1

[Editor]
Bookmarks: 6477,8179,9679,13170,15275,17150,20814,25400,30708,37054,39622,40920,44295,49920,55227,64631,71497,75997,79170,80670,82689,90045,94833,99939,103920,106747,120939,129275,141622,159564,166516
DistanceSpacing: 0.800000011920929
BeatDivisor: 8
GridSize: 8

[Metadata]
Title:Dancing Mad
Artist:Nobuo Uematsu
Creator:Corrderio
Version:Hard
Source:Final Fantasy VI
Tags:

[Difficulty]
HPDrainRate:6
CircleSize:4
OverallDifficulty:6
SliderMultiplier:0.6
SliderTickRate:1

[Events]
//Background and Video events
0,0,"Kefka_Desends_by_Animus_Krimson.jpg"
//Break Periods
2,18331,20370
2,42764,44774
2,61485,63899
2,150216,159206
//Storyboard Layer 0 (Background)
//Storyboard Layer 1 (Fail)
//Storyboard Layer 2 (Pass)
//Storyboard Layer 3 (Foreground)
//Storyboard Sound Samples
//Background Colour Transformations
3,100,128,0,0

[TimingPoints]
7862.51676288876,230.769230769231,4,2,0,100,1,0

[Colours]
Combo1 : 255,150,0
Combo2 : 5,240,5
Combo3 : 5,5,240
Combo4 : 240,5,5

[HitObjects]
48,80,7631,5,0
88,112,7862,1,0
200,232,8641,1,0
232,264,8872,1,0
256,288,9016,1,0
376,288,10400,1,0
408,320,10631,1,0
304,328,11150,1,0
256,344,14612,5,0
232,304,14843,1,0
168,144,15679,1,0
200,112,15881,1,0
224,96,16025,1,0
320,88,17410,1,0
352,120,17641,1,0
360,216,18131,1,0
128,64,21420,5,0
216,64,21852,1,0
320,64,22343,1,0
352,96,22574,1,0
352,144,22804,1,0
352,192,23035,1,0
384,224,23266,2,0,B|232:280|64:224,1,322.5
160,312,26266,5,0
256,312,26727,1,0
344,312,27160,1,0
368,272,27390,1,0
376,224,27621,1,0
376,176,27852,1,0
408,144,28083,2,0,B|256:88|88:144,1,322.5
96,192,32006,5,0
152,192,32266,1,0
320,192,33074,1,0
360,216,33304,1,0
384,240,33449,1,0
288,304,34804,1,0
240,304,35035,1,0
168,232,35554,1,0
160,304,39044,5,0
144,264,39275,1,0
144,104,40054,1,0
184,136,40285,1,0
216,128,40429,1,0
336,88,41843,1,0
368,120,42074,1,0
368,224,42564,1,0
160,72,45824,5,0
256,72,46285,1,0
352,72,46747,1,0
384,112,46977,1,0
384,160,47208,1,0
384,208,47439,1,0
408,248,47670,2,0,B|256:304|88:248,1,322.5
152,304,50670,5,0
248,304,51131,1,0
344,304,51593,1,0
376,272,51823,1,0
376,224,52054,1,0
376,176,52285,1,0
408,136,52516,2,0,B|256:80|88:136,1,322.5
120,152,56208,6,0,B|192:56|320:56|384:152,1,307.5
384,232,57824,2,0,B|312:328|184:328|112:232,1,315
120,152,59439,2,0,B|192:56|320:56|384:152,1,307.5
256,192,61285,1,0
128,152,64949,6,0,B|192:16|320:16|376:152,1,337.5
384,232,66564,2,0,B|320:368|192:368|136:232,1,337.5
128,152,68410,2,0,B|192:16|320:16|376:152,1,337.5
384,232,69997,2,0,B|320:368|192:368|136:232,1,337.5
160,96,71872,5,0
256,96,72333,1,0
352,96,72795,1,0
376,136,73025,1,0
376,184,73256,1,0
376,232,73487,1,0
400,272,73718,2,0,B|248:328|80:272,1,322.5
112,280,77410,5,0
208,280,77872,1,0
304,280,78333,1,0
376,216,78795,1,0
376,216,79025,1,0
376,216,79256,1,0
408,176,79487,1,0
408,176,79602,1,0
384,136,79833,1,0
384,136,79949,1,0
248,88,81102,1,0
216,120,81333,1,0
216,120,81477,1,0
184,152,81708,1,0
184,152,81824,1,0
64,192,83497,6,0,C|112:152|144:184|176:152|208:184|240:152|272:184|304:152|336:184|368:152|400:184|432:160,2,517.5
256,192,88487,1,0
256,192,88660,1,0
256,192,88804,1,0
112,192,91458,6,0,C|256:96|400:192,2,345
312,96,95439,5,0
256,96,95756,1,0
200,96,96102,1,0
192,200,96766,1,0
328,200,97429,1,0
432,224,98122,2,0,C|240:264|80:224,1,360
256,144,100747,5,0
392,144,102131,2,0,C|256:248|112:144,1,352.5
96,144,104727,6,0,C|256:80|416:144,1,345
448,208,107410,2,0,C|352:336|160:336|64:208,1,517.5
64,176,110064,2,0,C|160:48|352:48|448:176,1,517.5
448,208,112689,2,0,C|352:336|160:336|64:208,1,517.5
48,112,115372,1,0
256,192,117420,12,0,120708
256,96,122035,5,0
256,192,123016,1,0
256,192,123189,1,0
256,192,123362,1,0
96,192,126016,2,0,B|256:336|416:192,2,352.5
352,96,130025,5,0
296,96,130689,1,0
256,96,131381,1,0
208,96,132016,1,0
96,224,132708,2,0,C|256:264|416:224,2,330
72,192,136660,2,0,C|432:192,1,360
416,192,139372,2,0,B|256:32|96:192,1,360
40,192,142054,6,0,C|112:144|144:192|176:144|208:192|240:144|272:192|304:144|336:192|368:144|400:192|464:144,1,705
256,192,146324,12,0,150016
160,96,160256,5,0
192,128,160487,1,0
304,264,161324,1,0
336,240,161526,1,0
344,208,161670,1,0
400,112,163054,1,0
360,88,163285,1,0
264,80,163747,1,0
384,320,167295,5,0
336,320,167526,1,0
176,312,168305,1,0
200,272,168535,1,0
216,248,168679,1,0
328,200,170093,1,0
296,168,170324,1,0
192,160,170814,1,0
160,88,174074,5,0
248,88,174506,1,0
352,88,174997,1,0
384,120,175227,1,0
384,168,175458,1,0
384,216,175689,1,0
416,256,175920,2,0,B|272:312|112:256,1,307.5
