osu file format v9

[General]
AudioFilename: 52 - Crystal Tower.mp3
AudioLeadIn: 3000
PreviewTime: -1
Countdown: 1
SampleSet: Normal
StackLeniency: 1
Mode: 0
LetterboxInBreaks: 1

[Editor]
DistanceSpacing: 0.8
BeatDivisor: 2
GridSize: 8

[Metadata]
Title:Crystal Tower (Syrcus Tower)
Artist:Nobuo Uematsu
Creator:Yoichi Sturmhimmel
Version:Hobgoblin
Source:
Tags:

[Difficulty]
HPDrainRate:5
CircleSize:5
OverallDifficulty:5
ApproachRate:5
SliderMultiplier:1.4
SliderTickRate:1

[Events]
//Background and Video events
0,0,"300px-Crystal_Tower_Artwork.jpg"
//Break Periods
//Storyboard Layer 0 (Background)
//Storyboard Layer 1 (Fail)
//Storyboard Layer 2 (Pass)
//Storyboard Layer 3 (Foreground)
//Storyboard Sound Samples
//Background Colour Transformations
3,100,163,162,255

[TimingPoints]
750,392.156862745098,4,1,0,100,1,0

[HitObjects]
176,184,750,1,0
272,232,1142,1,0
368,96,1730,1,4
200,104,2318,1,4
384,232,3102,1,0
192,120,3887,1,4
200,232,4279,1,0
408,144,5063,1,0
312,96,5455,1,8
112,200,6240,5,8
312,96,7024,1,8
336,144,7220,1,0
360,192,7416,1,8
136,192,8200,1,8
240,152,8593,1,0
296,160,8789,1,8
352,144,8985,1,8
440,80,9377,1,8
384,80,9573,1,4
216,80,10161,5,4
304,288,10946,1,4
336,248,11142,1,8
392,152,11534,1,8
344,120,11730,1,4
16,192,12906,1,4
128,200,13299,1,4
240,200,13691,1,0
336,120,14083,5,4
224,112,14475,1,4
256,176,15259,5,0
328,96,15651,1,0
256,176,16044,1,8
216,208,16240,1,8
56,312,16828,1,0
200,224,17416,1,8
248,192,17612,1,0
424,48,18397,1,0
384,88,18593,1,8
336,120,18789,1,0
248,192,19181,1,8
64,312,19965,5,0
160,256,20357,1,8
256,184,20749,1,0
104,192,21534,2,0,B|400:192,1,280
320,104,22710,1,4
256,72,23102,2,0,B|256:368,1,280
248,240,24279,1,8
256,128,24671,1,0
336,208,25063,1,0
256,288,25455,1,0
176,208,25848,1,4
256,128,26240,1,4
472,192,27024,1,4
360,192,27416,1,4
256,80,27808,5,0
368,80,28200,1,0
368,304,28985,1,4
280,232,29377,1,8
240,192,29573,1,8
256,192,30553,1,4
88,192,31142,1,8
200,192,31730,1,0
304,192,32122,1,4
200,192,32514,1,8
80,192,32906,1,4
256,56,33691,1,4
296,96,33887,1,8
336,200,34279,5,8
256,280,34671,1,8
112,192,35259,1,4
336,192,36044,1,4
328,80,36436,1,4
224,128,36828,1,4
232,184,37024,1,8
400,192,37612,1,8
344,192,37808,1,4
256,184,38593,5,0
328,96,38985,1,0
160,96,39573,1,8
104,96,39769,1,0
184,168,40161,1,0
352,192,40750,1,0
240,192,41142,1,8
128,192,41534,1,4
352,192,42318,5,4
256,136,42710,1,0
120,168,43495,1,4
184,128,43691,1,0
288,168,44083,1,0
232,168,44279,1,8
64,184,44867,1,8
8,184,45063,5,4
64,184,45259,1,0
232,192,45848,1,0
416,64,46632,1,4
360,64,46828,1,0
264,120,47220,1,8
160,168,47612,1,8
112,192,47808,5,4
336,192,48593,1,4
304,232,48789,1,8
112,192,49377,1,2
160,296,49769,1,2
352,184,50553,1,4
304,152,50750,1,8
256,128,50946,5,4
256,352,51730,1,4
72,224,52514,1,4
408,192,53691,1,0
296,192,54083,5,4
184,192,54475,1,0
328,104,55063,1,0
328,160,55259,1,0
328,272,55651,1,4
104,272,56436,1,4
256,192,57024,1,0
296,152,57220,1,4
256,112,57416,1,8
72,184,58004,5,4
184,192,58397,1,0
296,192,58789,1,0
408,192,59181,1,4
184,192,59965,1,4
256,104,60357,1,4
256,192,60749,12,8,62710
