osu file format v12

[General]
AudioFilename: Final Fantasy - IX Main Battle Theme Remix.mp3
AudioLeadIn: 0
PreviewTime: 52966
Countdown: 0
SampleSet: Normal
StackLeniency: 0.7
Mode: 0
LetterboxInBreaks: 0
WidescreenStoryboard: 0

[Editor]
DistanceSpacing: 0.9
BeatDivisor: 4
GridSize: 4
TimelineZoom: 1

[Metadata]
Title:Battle 1 (Fredrik Miller Remix)
TitleUnicode:Battle 1 (Fredrik Miller Remix)
Artist:Nobuo Uematsu
ArtistUnicode:植松伸夫
Creator:AnimeStyle
Version:Normal
Source:Final Fantasy IX
Tags:Zidane Vivi Lili Dagger Steiner Freia Quina Eiko Mahagon Kuja Trance BounceBabe Square Soft PS1 Playstation PSX
BeatmapID:261810
BeatmapSetID:98073

[Difficulty]
HPDrainRate:4
CircleSize:4
OverallDifficulty:4
ApproachRate:5
SliderMultiplier:1
SliderTickRate:2

[Events]
//Background and Video events
0,0,"BG.png",0,0
//Break Periods
2,41166,48766
2,92166,99766
//Storyboard Layer 0 (Background)
//Storyboard Layer 1 (Fail)
//Storyboard Layer 2 (Pass)
//Storyboard Layer 3 (Foreground)
//Storyboard Sound Samples
//Background Colour Transformations
3,100,163,162,255

[TimingPoints]
1966,375,4,1,1,55,1,0
4966,-100,4,1,1,60,0,0
10966,-100,4,1,1,65,0,0
13966,-100,4,1,1,70,0,0
16966,-100,4,1,1,75,0,0
22966,-100,4,1,1,80,0,0
28966,-100,4,1,1,70,0,0
34966,-100,4,1,1,40,0,0
37966,-100,4,1,1,45,0,0
40216,-100,4,1,1,30,0,0
52966,-100,4,1,1,70,0,1
61966,-100,4,1,1,50,0,1
62341,-100,4,1,1,54,0,1
62716,-100,4,1,1,58,0,1
63091,-100,4,1,1,62,0,1
63466,-100,4,1,1,66,0,1
63841,-100,4,1,1,70,0,1
64216,-100,4,1,1,80,0,1
64591,-100,4,1,1,90,0,1
64966,-100,4,2,2,50,0,0
70966,-100,4,2,2,60,0,0
78466,-100,4,2,2,60,0,0
79966,-100,4,2,2,60,0,0
81466,-100,4,2,2,60,0,0
82966,-100,4,2,2,60,0,0
85966,-100,4,2,1,70,0,0
86341,-100,4,2,1,72,0,0
86716,-100,4,2,1,74,0,0
87091,-100,4,2,1,76,0,0
87466,-100,4,2,1,78,0,0
87841,-100,4,2,1,80,0,0
88216,-100,4,2,1,82,0,0
88591,-100,4,2,1,84,0,0
88966,-100,4,2,1,86,0,0
89153,-100,4,2,1,87,0,0
89341,-100,4,2,1,88,0,0
89528,-100,4,2,1,89,0,0
89716,-100,4,2,1,90,0,0
89903,-100,4,2,1,91,0,0
90091,-100,4,2,1,92,0,0
90278,-100,4,2,1,93,0,0
90466,-100,4,2,1,94,0,0
90653,-100,4,2,1,95,0,0
90841,-100,4,2,1,96,0,0
91028,-100,4,2,1,97,0,0
91216,-100,4,2,1,98,0,0
91966,-100,4,1,1,100,0,0
100966,-100,4,1,1,35,0,0
103966,-100,4,1,1,70,0,1
112966,-100,4,1,1,50,0,1
113341,-100,4,1,1,54,0,1
113716,-100,4,1,1,58,0,1
114091,-100,4,1,1,62,0,1
114466,-100,4,1,1,66,0,1
114841,-100,4,1,1,70,0,1
115216,-100,4,1,1,80,0,1
115591,-100,4,1,1,90,0,1
115966,-100,4,1,1,60,0,0
127966,-100,4,2,2,70,0,0
130966,-100,4,2,2,50,0,0
133966,-100,4,2,2,30,0,0
136966,-100,4,2,2,10,0,0
139591,-100,4,2,1,5,0,0

[Colours]
Combo1 : 255,128,0
Combo2 : 128,64,0
Combo3 : 255,255,157
Combo4 : 0,0,64

[HitObjects]
332,328,1966,5,4,0:0:0:0:
408,276,2341,1,0,0:0:0:0:
440,192,2716,2,0,L|404:96,1,100,8|0,0:0|0:0,0:0:0:0:
316,76,3466,1,4,0:0:0:0:
256,144,3841,1,0,0:0:0:0:
196,76,4216,2,0,L|92:100,1,100,8|0,0:0|0:0,0:0:0:0:
158,166,4966,6,0,L|256:144,1,100,4|0,0:0|0:0,0:0:0:0:
344,124,5716,2,8,P|376:104|396:80,2,50
316,208,6466,2,0,P|320:248|248:324,2,150,12|4|4,0:0|0:0|0:0,0:0:0:0:
228,232,7966,5,4,0:0:0:0:
144,260,8341,1,0,0:0:0:0:
84,196,8716,2,8,L|48:144,2,50
168,164,9466,2,4,P|240:140|304:184,2,150,12|4|4,0:0|0:0|0:0,0:0:0:0:
228,232,10966,6,0,P|300:268|340:268,1,100,4|0,0:0|0:0,0:0:0:0:
396,316,11716,2,8,L|348:360,2,50
468,264,12466,2,4,P|504:160|488:100,2,150,12|4|4,0:0|0:0|0:0,0:0:0:0:
396,316,13966,5,4,0:0:0:0:
380,228,14341,1,0,0:0:0:0:
404,140,14716,2,0,P|416:84|450:40,1,100,8|0,0:0|0:0,0:0:0:0:
480,132,15466,2,0,P|468:188|434:232,1,100,4|0,0:0|0:0,0:0:0:0:
452,268,16028,1,0,0:0:0:0:
464,312,16216,2,8,L|518:328,2,50
380,344,16966,5,4,0:0:0:0:
328,272,17341,1,0,0:0:0:0:
256,328,17716,1,0,0:0:0:0:
184,272,18091,1,0,0:0:0:0:
116,212,18466,2,0,P|84:152|80:56,2,150,4|4|4,0:0|0:0|0:0,0:0:0:0:
94,298,19966,6,0,P|143:300|184:271,1,100,4|0,0:0|0:0,0:0:0:0:
260,224,20716,1,0,0:0:0:0:
180,184,21091,1,0,0:0:0:0:
256,136,21466,2,4,P|316:76|380:64,2,150
324,196,22966,5,4,0:0:0:0:
400,152,23341,1,0,0:0:0:0:
464,216,23716,2,0,P|480:268|456:316,1,100
388,260,24466,2,0,B|308:312|244:240,2,150,4|4|4,0:0|0:0|0:0,0:0:0:0:
323,195,25966,6,0,P|332:146|316:100,1,100,4|0,0:0|0:0,0:0:0:0:
256,32,26716,1,0,0:0:0:0:
184,84,27091,1,0,0:0:0:0:
244,152,27466,2,0,P|236:232|288:280,2,150,4|4|4,0:0|0:0|0:0,0:0:0:0:
184,84,28966,6,0,P|144:60|92:64,1,100,4|0,0:0|0:0,0:0:0:0:
124,148,29716,2,0,P|124:194|95:237,1,100,0|0,0:0|0:0,0:0:0:0:
132,320,30466,1,8,0:0:0:0:
212,280,30841,1,0,0:0:0:0:
300,280,31216,1,8,0:0:0:0:
380,320,31591,1,0,0:0:0:0:
444,260,31966,6,0,P|472:219|472:170,1,100,4|0,0:0|0:0,0:0:0:0:
384,192,32716,2,0,P|340:169|318:125,1,100,0|0,0:0|0:0,0:0:0:0:
408,104,33466,1,8,0:0:0:0:
344,40,33841,1,0,0:0:0:0:
256,56,34216,1,8,0:0:0:0:
168,40,34591,1,0,0:0:0:0:
104,104,34966,6,0,B|148:168|108:228|108:228|172:216|208:272|208:272|200:336|256:346|256:346|312:336|304:272|304:272|340:216|404:228|404:228|364:168|408:104,1,700,4|0,0:0|0:0,0:0:0:0:
472,168,37966,2,0,B|508:120|468:24|468:24|360:4|316:88|316:88|296:124|300:164|300:164|276:176|256:200|256:200|236:176|212:164|212:164|216:124|196:88,1,600,4|0,0:0|0:0,0:0:0:0:
196,89,40966,5,4,0:0:0:0:
256,192,49966,12,0,52216,0:0:0:0:
107,103,52966,5,4,0:0:0:0:
68,184,53341,1,0,0:0:0:0:
100,268,53716,2,0,L|56:336,2,50,8|0|8,0:0|0:0|0:0,0:0:0:0:
188,272,54466,1,4,0:0:0:0:
272,308,54841,1,0,0:0:0:0:
360,300,55216,2,8,L|416:356,2,50,8|0|8,0:0|0:0|0:0,0:0:0:0:
312,224,55966,5,4,0:0:0:0:
392,184,56341,1,0,0:0:0:0:
440,108,56716,2,8,L|500:84,2,50,8|0|8,0:0|0:0|0:0,0:0:0:0:
372,40,57466,1,4,0:0:0:0:
324,116,57841,1,0,0:0:0:0:
240,80,58216,2,8,L|160:60,2,50,8|0|8,0:0|0:0|0:0,0:0:0:0:
184,152,58966,6,0,P|132:128|104:52,2,100,4|0|8,0:0|0:0|0:0,0:0:0:0:
256,208,60091,1,8,0:0:0:0:
328,264,60466,2,0,P|380:288|408:364,2,100,4|0|8,0:0|0:0|0:0,0:0:0:0:
256,208,61591,1,8,0:0:0:0:
176,164,61966,6,4,B|256:104|256:104|336:164,3,200
256,208,64591,1,0,0:0:0:0:
180,256,64966,5,4,0:0:0:0:
96,220,65341,1,2,0:0:0:0:
92,132,65716,1,0,0:0:0:0:
176,164,66091,2,4,B|256:104|256:104|336:164|336:164|304:208|316:276|364:328|440:300,1,400,2|0,0:0|0:0,0:0:0:0:
412,216,67966,5,2,0:0:0:0:
412,128,68341,1,2,0:0:0:0:
344,68,68716,1,0,0:0:0:0:
256,44,69091,2,4,B|244:112|192:148|192:148|316:240|316:240|268:272|256:340,1,400,2|0,0:0|0:0,0:0:0:0:
168,316,70966,5,4,0:0:0:0:
168,316,71528,2,4,P|112:308|28:352,1,150
24,260,72466,2,4,P|44:207|20:115,1,150
96,68,73403,2,0,P|76:48|52:36,2,50,8|8|8,0:0|0:0|0:0,0:0:0:0:
96,68,73966,6,4,P|148:88|240:64,1,150
324,52,74903,2,0,L|388:64,2,50,8|8|8,0:0|0:0|0:0,0:0:0:0:
324,52,75466,2,0,B|308:116|308:116|216:200|84:156,1,300,4|0,0:0|0:0,0:0:0:0:
96,68,76966,6,4,P|148:88|240:64,2,150,2|2|2,0:0|0:0|0:0,0:0:0:0:
76,148,78466,2,0,L|44:296,2,150,2|2|2,0:0|0:0|0:0,0:0:0:0:
144,208,79966,6,0,L|190:352,2,150,2|2|2,0:0|0:0|0:0,0:0:0:0:
232,228,81466,2,0,L|344:329,2,150,2|2|2,0:0|0:0|0:0,0:0:0:0:
296,164,82966,5,4,0:0:0:0:
272,76,83341,2,2,P|300:40|324:32,1,50,8|4,0:0|0:0,0:0:0:0:
360,108,83903,2,2,P|380:132|384:152,1,50,8|4,0:0|0:0,0:0:0:0:
392,240,84466,5,4,0:0:0:0:
480,252,84841,2,2,P|464:292|452:304,1,50,8|4,0:0|0:0,0:0:0:0:
372,320,85403,2,2,P|328:296|316:280,1,50,8|4,0:0|0:0,0:0:0:0:
256,352,85966,5,2,0:0:0:0:
184,296,86341,1,4,0:0:0:0:
95,282,86716,2,0,L|52:192,1,100,4|4,0:0|0:0,0:0:0:0:
52,192,87466,5,2,0:0:0:0:
96,112,87841,1,4,0:0:0:0:
185,102,88216,2,0,L|256:32,1,100,4|4,0:0|0:0,0:0:0:0:
256,192,88966,12,4,91216,0:0:0:0:
256,192,91966,5,0,0:0:0:0:
256,192,100966,12,0,103216,0:0:0:0:
300,112,103966,5,4,0:0:0:0:
344,192,104341,1,0,0:0:0:0:
388,272,104716,2,8,L|428:347,2,50,8|0|8,0:0|0:0|0:0,0:0:0:0:
300,272,105466,1,4,0:0:0:0:
212,272,105841,1,0,0:0:0:0:
256,192,106216,2,8,L|256:132,2,50,8|0|8,0:0|0:0|0:0,0:0:0:0:
300,272,106966,5,4,0:0:0:0:
212,272,107341,1,0,0:0:0:0:
124,272,107716,2,8,L|83:349,2,50
168,192,108466,1,4,0:0:0:0:
212,112,108841,1,0,0:0:0:0:
256,192,109216,2,8,L|256:260,2,50,8|0|8,0:0|0:0|0:0,0:0:0:0:
300,112,109966,6,8,B|300:71|300:71|300:59|300:59|256:31|213:58|213:58|212:71|212:71|212:115,1,200,4|8,0:0|0:0,0:0:0:0:
256,192,111091,1,8,0:0:0:0:
300,272,111466,2,8,B|300:313|300:313|300:325|300:325|256:353|212:325|212:325|212:313|212:313|212:269,1,200,4|8,0:0|0:0,0:0:0:0:
256,192,112591,1,8,0:0:0:0:
344,192,112966,6,4,P|436:168|412:88,3,200,4|4|4|4,0:0|0:0|0:0|0:0,0:0:0:0:
328,52,115591,1,0,0:0:0:0:
236,52,115966,5,4,0:0:0:0:
152,88,116341,1,0,0:0:0:0:
228,136,116716,2,8,P|267:131|299:112,2,50
152,88,117466,2,4,P|78:72|20:116,2,150
100,164,118966,5,4,0:0:0:0:
92,252,119341,1,0,0:0:0:0:
144,324,119716,2,8,L|192:372,2,50
92,252,120466,2,4,P|32:224|32:112,2,150
100,164,121966,5,4,0:0:0:0:
176,212,122341,1,0,0:0:0:0:
264,212,122716,2,8,P|260:240|248:264,2,50
304,132,123466,2,4,P|376:176|408:264,2,150
256,56,124966,5,4,0:0:0:0:
172,84,125341,1,0,0:0:0:0:
84,72,125716,2,8,P|84:48|72:24,2,50
52,104,126278,2,8,P|29:111|10:130,1,50,0|4,0:0|0:0,0:0:0:0:
88,172,126841,2,8,P|48:208|-4:216,2,100,0|0|4,0:0|0:0|0:0,0:0:0:0:
136,104,127966,6,2,B|488:192|304:312|256:340|208:312|24:192|376:104,1,700
428,32,130966,6,2,B|368:24|304:48|304:48|256:64|256:64|208:48|208:48|144:24|92:8|44:56|28:148|120:176|120:176|80:264|168:348,1,700
244,364,133966,6,2,B|256:368|368:368|432:256|392:176|392:176|484:148|416:92|376:104|376:104|328:116|280:136|280:136|288:184|336:184|344:240|282:279,1,700
256,192,136966,12,4,139591,0:0:0:0:
