osu file format v12

[General]
AudioFilename: Final Fantasy - IX Main Battle Theme Remix.mp3
AudioLeadIn: 0
PreviewTime: 52966
Countdown: 0
SampleSet: Normal
StackLeniency: 0.7
Mode: 0
LetterboxInBreaks: 0
WidescreenStoryboard: 0

[Editor]
DistanceSpacing: 0.8
BeatDivisor: 4
GridSize: 4
TimelineZoom: 1

[Metadata]
Title:Battle 1 (Fredrik Miller Remix)
TitleUnicode:Battle 1 (Fredrik Miller Remix)
Artist:Nobuo Uematsu
ArtistUnicode:植松伸夫
Creator:AnimeStyle
Version:Easy
Source:Final Fantasy IX
Tags:Zidane Vivi Lili Dagger Steiner Freia Quina Eiko Mahagon Kuja Trance BounceBabe Square Soft PS1 Playstation PSX
BeatmapID:261808
BeatmapSetID:98073

[Difficulty]
HPDrainRate:2
CircleSize:3
OverallDifficulty:2
ApproachRate:3
SliderMultiplier:0.8
SliderTickRate:2

[Events]
//Background and Video events
0,0,"BG.png",0,0
//Break Periods
2,41166,48526
2,92166,99526
//Storyboard Layer 0 (Background)
//Storyboard Layer 1 (Fail)
//Storyboard Layer 2 (Pass)
//Storyboard Layer 3 (Foreground)
//Storyboard Sound Samples
//Background Colour Transformations
3,100,163,162,255

[TimingPoints]
1966,375,4,1,1,55,1,0
4966,-100,4,1,1,60,0,0
10966,-100,4,1,1,65,0,0
13966,-100,4,1,1,70,0,0
16966,-100,4,1,1,75,0,0
22966,-100,4,1,1,80,0,0
28966,-100,4,1,1,70,0,0
34966,-100,4,1,1,40,0,0
37966,-100,4,1,1,45,0,0
40216,-100,4,1,1,30,0,0
52966,-100,4,1,1,70,0,1
61966,-100,4,1,1,50,0,1
62341,-100,4,1,1,54,0,1
62716,-100,4,1,1,58,0,1
63091,-100,4,1,1,62,0,1
63466,-100,4,1,1,66,0,1
63841,-100,4,1,1,70,0,1
64216,-100,4,1,1,80,0,1
64591,-100,4,1,1,90,0,1
64966,-100,4,2,2,50,0,0
70966,-100,4,2,2,60,0,0
85966,-100,4,2,1,70,0,0
86341,-100,4,2,1,72,0,0
86716,-100,4,2,1,74,0,0
87466,-100,4,2,1,78,0,0
87841,-100,4,2,1,80,0,0
88216,-100,4,2,1,82,0,0
88966,-100,4,2,1,86,0,0
89153,-100,4,2,1,87,0,0
89341,-100,4,2,1,88,0,0
89528,-100,4,2,1,89,0,0
89716,-100,4,2,1,90,0,0
89903,-100,4,2,1,91,0,0
90091,-100,4,2,1,92,0,0
90278,-100,4,2,1,93,0,0
90466,-100,4,2,1,94,0,0
90653,-100,4,2,1,95,0,0
90841,-100,4,2,1,96,0,0
91028,-100,4,2,1,97,0,0
91216,-133.333333333333,4,2,1,98,0,0
91966,-100,4,1,1,100,0,0
100966,-100,4,1,1,35,0,0
103966,-100,4,1,1,70,0,1
112966,-100,4,1,1,50,0,1
113341,-100,4,1,1,54,0,1
113716,-100,4,1,1,58,0,1
114091,-100,4,1,1,62,0,1
114466,-100,4,1,1,66,0,1
114841,-100,4,1,1,70,0,1
115216,-100,4,1,1,80,0,1
115966,-100,4,1,1,60,0,0
127966,-100,4,2,2,70,0,0
130966,-100,4,2,2,50,0,0
133966,-100,4,2,2,30,0,0
136966,-100,4,2,2,10,0,0
139591,-100,4,2,1,5,0,0

[Colours]
Combo1 : 255,128,0
Combo2 : 0,0,64
Combo3 : 128,64,0
Combo4 : 255,255,157

[HitObjects]
256,192,1966,5,8,0:0:0:0:
140,140,2716,1,8,0:0:0:0:
92,260,3466,1,8,0:0:0:0:
208,312,4216,1,8,0:0:0:0:
340,292,4966,6,0,P|412:260|460:180,1,160,8|0,0:0|0:0,0:0:0:0:
476,68,6466,2,8,B|416:64|372:96|372:96|344:88|316:92,1,160,8|0,0:0|0:0,0:0:0:0:
324,220,7966,6,0,P|256:256|188:220,1,160,8|0,0:0|0:0,0:0:0:0:
189,91,9466,2,8,B|168:88|140:96|140:96|96:64|36:68,1,160,8|0,0:0|0:0,0:0:0:0:
55,194,10966,6,0,P|100:260|172:292,1,160,8|0,0:0|0:0,0:0:0:0:
180,164,12466,2,0,B|256:188|256:188|332:164,1,160,8|0,0:0|0:0,0:0:0:0:
455,194,13966,6,0,P|412:259|340:292,1,160,8|0,0:0|0:0,0:0:0:0:
332,164,15466,2,0,B|256:140|256:140|180:164,2,160,0|0|4,0:0|0:0|0:0,0:0:0:0:
436,84,17716,5,0,0:0:0:0:
320,36,18466,1,8,0:0:0:0:
192,36,19216,1,0,0:0:0:0:
88,112,19966,6,0,P|92:196|156:276,1,160,4|0,0:0|0:0,0:0:0:0:
212,160,21466,2,0,P|264:225|363:252,1,160,8|0,0:0|0:0,0:0:0:0:
336,124,22966,5,4,0:0:0:0:
212,160,23716,1,0,0:0:0:0:
88,128,24466,2,0,P|40:180|48:264,1,160,8|0,0:0|0:0,0:0:0:0:
156,336,25966,5,4,0:0:0:0:
256,256,26716,1,0,0:0:0:0:
356,336,27466,2,0,P|400:280|384:197,1,160,8|0,0:0|0:0,0:0:0:0:
256,192,28966,5,4,0:0:0:0:
183,86,29716,2,8,P|257:60|330:87,2,160
256,192,31966,5,4,0:0:0:0:
330,296,32716,2,8,P|256:322|182:296,2,160
408,196,34966,6,0,B|408:112|328:96|328:96|256:164|256:164|184:96|184:96|104:112|104:196,1,480,4|0,0:0|0:0,0:0:0:0:
36,304,37966,6,0,B|136:348|204:272|204:272|256:304|308:272|308:272|376:348|476:304,1,480,4|0,0:0|0:0,0:0:0:0:
408,196,40966,5,4,0:0:0:0:
256,192,49966,12,0,52216,0:0:0:0:
80,252,52966,5,4,0:0:0:0:
36,132,53716,2,8,P|96:88|124:60,1,80,8|0,0:0|0:0,0:0:0:0:
156,56,54466,2,8,P|208:48|264:56,1,80,4|0,0:0|0:0,0:0:0:0:
300,56,55216,2,8,P|337:60|400:48,1,80,8|0,0:0|0:0,0:0:0:0:
444,44,55966,5,4,0:0:0:0:
460,172,56716,2,8,P|432:216|424:256,1,80,8|0,0:0|0:0,0:0:0:0:
412,304,57466,2,8,P|388:340|340:376,1,80,4|8,0:0|0:0,0:0:0:0:
300,344,58216,2,8,P|260:340|212:352,1,80,8|0,0:0|0:0,0:0:0:0:
156,356,58966,5,4,0:0:0:0:
84,252,59716,2,8,P|88:200|80:144,1,80,8|0,0:0|0:0,0:0:0:0:
80,108,60466,2,4,P|100:64|132:32,1,80,4|0,0:0|0:0,0:0:0:0:
184,24,61216,2,8,P|248:44|288:48,1,80,8|0,0:0|0:0,0:0:0:0:
324,64,61966,6,4,P|360:72|488:16,3,160
508,156,64966,5,4,0:0:0:0:
392,212,65716,1,10,0:0:0:0:
421,268,66091,2,2,B|423:270|423:270|442:308|421:344|388:360|350:344|350:344|288:268,1,240,2|10,0:0|0:0,0:0:0:0:
256,144,67966,5,4,0:0:0:0:
288,268,68716,1,10,0:0:0:0:
224,268,69091,2,2,B|161:344|161:344|124:359|91:344|70:308|88:270|88:270|91:267,1,240,2|10,0:0|0:0,0:0:0:0:
192,188,70966,6,2,B|192:176|192:176|192:140|192:140|256:80|320:140|320:140|320:176|320:176|320:188,1,240,4|10,0:0|0:0,0:0:0:0:
376,220,72466,2,0,L|486:286,2,120,2|10|2,0:0|0:0|0:0,0:0:0:0:
320,188,73966,6,0,B|304:120|304:120|256:133|256:133|208:120|208:120|192:188,1,240,4|10,0:0|0:0,0:0:0:0:
136,220,75466,2,0,L|26:286,2,120,2|10|2,0:0|0:0|0:0,0:0:0:0:
192,188,76966,5,4,0:0:0:0:
256,300,77716,1,2,0:0:0:0:
320,188,78466,1,4,0:0:0:0:
256,76,79216,1,2,0:0:0:0:
192,188,79966,6,0,P|160:260|192:332,1,160,4|2,0:0|0:0,0:0:0:0:
321,330,81466,2,0,P|351:258|320:188,1,160,4|2,0:0|0:0,0:0:0:0:
256,76,82966,5,4,0:0:0:0:
128,68,83716,2,0,P|48:96|12:168,2,160,8|8|8,0:0|0:0|0:0,0:0:0:0:
136,196,85966,6,0,P|164:276|236:312,1,160,2|4,0:0|0:0,0:0:0:0:
260,188,87466,2,0,P|343:203|410:159,1,160,2|4,0:0|0:0,0:0:0:0:
256,192,88966,12,0,91966,0:0:0:0:
256,192,100966,12,0,103216,0:0:0:0:
500,140,103966,5,4,0:0:0:0:
416,44,104716,2,8,P|390:74|372:116,1,80,8|0,0:0|0:0,0:0:0:0:
356,172,105466,2,8,P|376:220|388:264,1,80,4|0,0:0|0:0,0:0:0:0:
392,312,106216,2,8,P|332:340|272:340,1,80,8|0,0:0|0:0,0:0:0:0:
256,352,106966,5,4,0:0:0:0:
228,228,107716,2,8,P|208:192|183:161,1,80,8|0,0:0|0:0,0:0:0:0:
216,104,108466,2,8,P|256:100|296:104,1,80,4|0,0:0|0:0,0:0:0:0:
328,161,109216,2,8,P|303:192|284:228,1,80,8|0,0:0|0:0,0:0:0:0:
256,284,109966,5,4,0:0:0:0:
172,380,110716,2,8,P|92:360|20:376,1,80,8|0,0:0|0:0,0:0:0:0:
36,336,111466,2,8,P|28:292|32:240,1,80,4|0,0:0|0:0,0:0:0:0:
52,196,112216,2,8,P|120:164|148:136,1,80,8|0,0:0|0:0,0:0:0:0:
180,128,112966,6,4,P|256:107|332:128,3,160,4|4|4|4,0:0|0:0|0:0|0:0,0:0:0:0:
256,232,115966,5,4,0:0:0:0:
164,320,116716,1,0,0:0:0:0:
256,232,117466,1,8,0:0:0:0:
348,320,118216,1,0,0:0:0:0:
444,236,118966,6,0,P|368:208|312:120,1,160,4|0,0:0|0:0,0:0:0:0:
191,147,120466,2,0,P|144:208|68:236,1,160,8|0,0:0|0:0,0:0:0:0:
72,108,121966,5,4,0:0:0:0:
164,20,122716,1,0,0:0:0:0:
256,108,123466,2,0,B|240:156|272:228|256:276,1,160,8|0,0:0|0:0,0:0:0:0:
348,364,124966,5,4,0:0:0:0:
440,276,125716,1,8,0:0:0:0:
316,240,126466,2,0,P|336:164|404:80,1,160,8|0,0:0|0:0,0:0:0:0:
492,28,127966,5,4,0:0:0:0:
256,192,130966,5,4,0:0:0:0:
20,28,133966,5,4,0:0:0:0:
256,192,136966,12,4,139591,0:0:0:0:
