osu file format v5

[General]
AudioFilename: 02-Clash on the big bridge.mp3
AudioLeadIn: 0
PreviewTime: 0
Countdown: 1
SampleSet: Normal
StackLeniency: 0
Mode: 0
EditorBookmarks: 19557,26886,31112,36796,42746,56902,62195,78071,84775,107355,113000,134169,147575,174742,180740,203320,208965

[Metadata]
Title:Battle on the Big Bridge
Artist:Nobuo Uematsu & The Black Mages
Creator:Uboichi
Version:Hard
Source:
Tags:

[Difficulty]
HPDrainRate:6
CircleSize:5
OverallDifficulty:7
SliderMultiplier:1.4
SliderTickRate:1

[Events]
//Background and Video events
//Break Periods
2,31312,41546
2,56750,61700
2,77918,83575
2,107201,111800
2,134190,146375
2,174589,179840
2,203166,208065
//Storyboard Layer 0 (Background)
//Storyboard Layer 1 (Failing)
//Storyboard Layer 2 (Passing)
//Storyboard Layer 3 (Foreground)
//Storyboard Sound Samples
//Background Colour Transformations
3,100,163,162,255

[TimingPoints]
19908,350.141960850454,4,1,0,100
36796,350.01576883392,4,2,0,100
45260,352.813637223114,4,2,0,100

[HitObjects]
192,32,19907,1,0
192,32,20052,1,0
192,32,20232,1,0
192,32,20383,2,0,B|66:141,1,140
30,191,21308,5,0
30,191,21470,1,0
30,191,21640,1,0
30,191,21791,2,0,B|245:370|245:368,1,140
256,333,22709,5,0
255,334,22871,1,0
254,332,23041,1,0
254,331,23210,2,0,B|459:189,1,140
113,146,24109,6,0,B|355:148,1,140
256,210,24809,2,0,B|434:211,1,140
316,39,25510,5,0
316,39,25655,1,0
316,39,25835,1,0
316,39,25986,2,0,B|466:152,1,140
471,200,26911,5,0
471,200,27073,1,0
471,200,27243,1,0
471,200,27403,2,0,B|334:317,1,140
256,333,28312,5,0
255,334,28474,1,0
254,332,28644,1,0
254,331,28813,2,0,B|133:231,1,140
104,122,29711,5,0
104,121,29884,2,0,B|278:122,1,140
303,122,30412,1,0
341,160,30584,1,0
308,202,30762,1,0
256,192,42396,12,0,44496
64,192,45260,2,0,C|128:128|288:128,1,140
224,128,45768,1,0
256,128,45965,1,0
288,128,46130,1,0
320,128,46318,1,0
352,128,46465,1,0
320,192,46671,1,4
288,192,46823,2,4,C|146:274,1,140
96,192,47555,1,4
96,224,47729,1,4
96,256,47903,1,4
160,288,48082,6,2,C|182:221|352:224,1,140
288,288,48788,1,2
320,288,48962,1,2
352,288,49140,1,2
384,288,49310,1,2
416,288,49493,2,2,C|416:128,3,140
64,192,50905,6,4,C|128:256|288:256,1,140
224,256,51413,1,0
256,256,51610,1,0
288,256,51775,1,0
320,256,51963,1,0
352,256,52110,1,0
320,192,52316,1,4
288,192,52468,2,4,C|104:106,1,140
96,192,53200,1,4
96,160,53374,1,4
96,128,53548,1,4
160,96,53727,6,2,C|182:163|352:160,1,140
316,147,54433,1,2
356,150,54607,1,2
394,172,54785,1,2
403,214,54933,1,2
330,219,55138,6,4,B|241:311|159:153,1,140
182,165,55844,2,4,B|271:73|353:231,1,140
330,219,56550,1,4
256,192,62195,5,4
448,64,62740,1,0
448,192,63253,1,0
256,192,63606,1,4
64,64,64137,1,0
64,192,64664,1,0
192,288,65017,6,0,B|352:288,1,140
384,288,65545,1,0
416,192,66076,1,0
320,96,66428,2,0,B|160:96,1,140
128,96,66928,1,0
96,192,67487,1,0
192,288,67840,6,0,B|320:160,1,140
320,160,68366,2,0,B|448:288,1,140
384,288,68898,2,0,B|224:288|224:96|320:64,1,280
384,128,69956,1,0
384,224,70309,1,0
320,288,70662,6,0,B|192:160,1,140
192,160,71188,2,0,B|64:288,1,140
128,288,71720,2,0,B|288:288|288:96|192:64,2,280
96,160,73369,5,0
224,160,73658,1,0
256,160,73837,1,0
288,160,74025,1,0
288,224,74364,1,0
256,224,74543,1,0
224,224,74726,2,0,B|64:224,1,140
32,224,75432,1,0
32,256,75601,1,0
128,256,75954,1,0
192,256,76307,6,0,B|352:256,4,140
64,192,84775,6,4,C|128:128|288:128,1,140
224,128,85283,1,0
256,128,85480,1,0
288,128,85645,1,0
320,128,85833,1,0
352,128,85980,1,0
320,192,86186,1,4
288,192,86338,2,4,C|104:278,1,140
96,192,87070,1,4
96,224,87244,1,4
96,256,87418,1,4
160,288,87597,6,2,C|182:221|352:224,1,140
316,237,88303,1,2
356,234,88477,1,2
394,212,88655,1,2
403,170,88803,1,2
330,165,89008,6,4,B|241:73|159:231,1,140
182,219,89714,2,4,B|271:311|353:153,1,140
330,165,90420,1,4
256,96,90951,1,0
160,160,91300,1,0
160,192,91478,1,0
224,256,92184,1,0
256,256,92349,1,0
288,256,92537,1,0
352,192,92889,1,0
256,96,93242,6,0,B|96:96,2,140
288,96,94105,1,0
288,224,94653,1,0
256,224,94819,1,0
160,224,95171,1,0
224,320,95525,1,0
256,288,95712,1,0
288,320,95887,1,0
256,192,96065,5,4
448,320,96610,1,0
448,192,97123,1,0
256,192,97476,1,4
64,320,98007,1,0
64,192,98534,1,0
192,96,98887,6,0,B|352:96,1,140
384,96,99415,1,0
416,192,99946,1,0
320,288,100298,2,0,B|160:288,1,140
128,288,100798,1,0
96,192,101357,1,0
192,96,101710,6,0,B|320:224,1,140
320,224,102236,2,0,B|448:96,1,140
384,96,102768,2,0,B|224:96|224:288|320:320,1,280
384,256,103826,1,0
384,160,104179,1,0
320,96,104532,6,0,B|192:224,1,140
192,224,105058,2,0,B|64:96,1,140
128,96,105590,2,0,B|288:96|288:288|192:320,2,280
256,64,113000,6,0,B|320:128|256:192,1,140
192,192,113705,2,0,B|128:256|192:320,1,140
256,64,114411,5,0
288,96,114577,1,0
320,128,114745,1,0
256,192,115117,1,0
224,224,115264,1,0
192,256,115469,1,0
32,32,115822,5,0
64,32,115996,1,0
64,64,116175,1,0
96,64,116349,1,0
96,96,116528,1,0
128,96,116716,1,0
128,128,116881,1,0
160,128,117054,1,0
160,160,117233,1,0
192,160,117416,1,0
192,192,117586,1,0
224,192,117725,1,0
224,224,117939,1,0
256,224,118114,1,0
256,256,118292,1,0
256,192,118645,5,0
256,192,118810,1,0
256,192,119171,1,0
320,192,119350,1,0
256,192,119516,1,0
256,192,119886,5,0
256,128,120056,1,0
320,128,120230,1,0
320,64,120409,1,0
256,64,120583,1,0
256,128,120762,1,0
192,160,120927,1,0
192,224,121114,1,0
256,256,121280,1,0
256,192,121467,6,0,B|356:181|352:288,1,140
320,320,121971,2,0,B|169:313|224:160,1,140
256,192,122526,2,0,B|352:192|352:288,1,140
288,288,123231,2,0,B|128:288,3,140
160,224,124643,6,0,B|160:64,3,140
224,64,126054,2,0,B|224:224,2,140
352,224,127112,6,0,B|352:64,3,140
288,64,128523,2,0,B|288:224,2,140
256,192,129935,5,0
256,192,130100,1,0
256,192,130461,1,0
192,192,130640,1,0
256,192,130806,1,0
256,192,131176,5,0
256,256,131346,1,0
192,256,131520,1,0
192,320,131699,1,0
256,320,131873,1,0
256,256,132052,1,0
320,224,132217,1,0
320,160,132404,1,0
256,128,132570,1,0
256,192,132757,5,0
256,192,132923,1,0
256,192,133285,1,0
192,192,133463,1,0
256,192,133628,1,0
256,192,133990,1,0
256,192,147223,5,0
256,192,147402,1,0
256,192,147575,2,0,B|128:96|0:224|160:352|288:320|288:224,2,420
287,236,149848,1,0
192,288,150223,1,0
96,192,150751,1,0
96,160,150908,1,0
224,96,151456,1,0
256,96,151643,1,0
288,96,151809,1,0
384,128,152367,6,0,B|448:192|384:256,1,140
352,288,152868,2,0,B|288:352|224:288,1,140
160,320,153573,1,0
96,320,153729,2,0,B|32:256|96:192,1,140
96,160,154279,2,0,B|32:96|96:32,1,140
128,32,154797,1,0
160,32,154985,1,0
192,32,155140,2,0,B|352:32,2,140
288,96,156396,5,0
320,96,156561,1,0
416,160,156922,1,0
416,192,157101,1,0
416,224,157284,1,0
320,320,157807,1,0
192,320,158160,6,0,B|64:192|192:64,1,280
256,64,159218,2,0,B|416:64|384:288,2,280
160,64,160982,2,0,B|32:192|224:288,1,280
288,288,162041,1,0
320,288,162207,1,0
384,224,162576,1,0
384,128,162929,1,0
288,64,163291,1,0
192,64,163627,2,0,B|64:192,1,140
64,192,164158,1,0
64,288,164511,5,0
96,288,164675,1,0
192,288,165028,1,0
224,288,165216,1,0
320,288,165569,1,0
352,288,165734,1,0
416,224,166105,1,0
416,192,166275,1,0
416,96,166627,1,0
384,64,166833,1,0
288,64,167172,1,0
256,64,167333,1,0
128,64,167882,2,0,B|32:224,3,140
96,320,169633,5,0
128,320,169803,2,0,B|288:320,1,140
320,320,170338,1,0
320,288,170508,2,0,B|320:128,1,140
320,96,171027,1,0
288,96,171214,2,0,B|128:96,1,140
64,96,171920,1,0
64,128,172067,1,0
64,160,172272,2,0,B|64:320,1,140
96,320,172799,2,0,B|256:320,1,140
256,288,173331,2,0,B|256:128,1,140
256,96,174036,1,0
256,96,174210,1,0
256,96,174389,1,0
256,192,180740,6,0,B|416:192,3,140
416,224,181955,1,0
384,256,182151,2,0,B|160:224|160:96|416:64,1,420
416,160,183562,1,0
64,160,184268,5,0
64,224,184621,1,0
64,288,184974,2,0,B|256:288,3,140
256,288,186385,2,0,B|448:288|448:128,2,280
192,288,188149,2,0,B|32:288,2,140
256,288,189207,1,0
256,192,189560,6,0,B|352:192,2,70
160,192,190266,1,0
96,192,190619,1,0
96,160,190795,1,0
96,64,191148,1,0
128,64,191324,1,0
192,64,191677,1,0
256,64,192030,6,0,B|384:160|256:320,1,280
192,320,193088,1,0
160,320,193265,1,0
128,320,193441,2,0,B|-32:180|192:64,1,280
224,64,194500,1,0
256,128,194852,6,0,B|256:224,1,70
256,224,195205,1,0
256,288,195558,1,0
192,224,195911,1,0
256,224,196264,2,0,B|352:224,2,70
256,160,196969,2,0,B|160:160,2,70
288,96,197675,6,0,B|416:192|288:288,1,210
256,288,198381,1,0
192,288,198910,1,0
160,288,199086,2,0,B|32:192|192:64,1,210
256,64,199968,1,0
352,128,200321,1,0
352,160,200498,1,0
256,256,201027,1,0
160,256,201380,1,0
128,160,201732,1,0
128,128,201909,2,0,B|288:128,1,140
256,192,202614,2,0,B|416:192,1,140
448,32,208965,6,0,B|448:128,1,70
448,128,209318,1,0
448,160,209494,1,0
448,192,209671,2,0,B|448:352,1,140
352,352,210376,2,0,B|256:352,1,70
256,352,210729,1,0
224,352,210906,1,0
192,352,211082,2,0,B|32:352,1,140
64,288,211788,6,0,B|64:64,1,210
192,64,212846,1,0
256,64,213199,2,0,B|384:192|256:256,1,210
192,256,214257,1,0
128,224,214610,2,0,B|162:89|224:96,1,140
256,96,215139,2,0,B|320:96|352:224,1,140
320,256,215668,2,0,B|192:320|64:192,1,280
64,128,216727,1,0
128,64,217080,1,0
224,64,217433,6,0,B|359:98|352:160,1,140
352,192,217962,2,0,B|352:256|224:288,1,140
192,256,218491,2,0,B|128:128|288:32,1,210
320,32,219550,1,0
384,128,219902,1,0
384,160,220079,6,0,B|256:288|96:160|64:352|32:96|192:32,1,490
224,96,221666,1,0
224,192,222196,1,0
256,192,222372,1,0
256,288,222725,1,0
192,288,223078,5,0
160,256,223254,1,0
128,224,223430,1,0
128,192,223607,1,0
160,160,223783,1,0
192,128,223960,1,0
224,128,224136,1,0
256,128,224312,1,0
288,160,224489,1,0
224,224,224842,1,4
224,224,225194,1,4
224,224,225547,1,4
160,192,225900,6,0,B|196:87|320:192,1,140
320,192,226606,2,0,B|326:274|160:224,1,140
160,128,227311,1,0
160,128,227488,1,0
160,192,227664,1,0
160,192,227841,1,0
160,256,228017,1,0
160,256,228193,1,0
160,320,228370,1,0
480,32,228723,5,0
448,32,228897,1,0
448,64,229076,1,0
416,64,229250,1,0
416,96,229429,1,0
384,96,229617,1,0
384,128,229782,1,0
352,128,229955,1,0
352,160,230134,1,0
320,160,230317,1,0
320,192,230487,1,0
288,192,230626,1,0
288,224,230840,1,0
256,224,231015,1,0
256,256,231193,1,0
256,192,231545,5,0
256,192,231722,1,0
256,192,232074,1,0
288,192,232251,1,0
256,192,232427,1,0
256,192,232780,1,0
192,192,232956,1,0
192,224,233133,1,0
224,256,233309,1,0
256,256,233486,1,0
288,256,233662,1,0
320,224,233838,1,0
320,192,234015,1,0
352,128,234368,6,0,B|128:128,2,210
256,224,236132,2,0,B|256:384,3,140
224,384,237367,2,0,B|31:319|32:30|85:7|487:18|498:92|523:303|256:384,2,980
256,192,242835,5,0
256,192,243012,1,0
256,192,243364,1,0
288,192,243541,1,0
256,192,243717,1,0
256,192,244070,1,0
192,192,244246,1,0
192,160,244423,1,0
224,128,244599,1,0
256,128,244776,1,0
288,128,244952,1,0
320,160,245128,1,0
320,192,245305,1,0
224,256,245658,6,0,B|320:256,1,70
256,192,246187,1,0
224,128,246363,2,0,B|320:128,1,70
352,128,246892,1,0
320,192,247069,2,0,B|320:288,1,70
320,288,247422,2,0,B|224:288,1,70
224,288,247775,2,0,B|128:288,1,70
128,288,248127,2,0,B|128:192,1,70
160,192,248480,2,0,B|352:192,12,140
