osu file format v9

[General]
AudioFilename: Sweet Devil.mp3
AudioLeadIn: 0
PreviewTime: 60567
Countdown: 0
SampleSet: Soft
StackLeniency: 0.7
Mode: 0
LetterboxInBreaks: 1

[Editor]
DistanceSpacing: 1.2
BeatDivisor: 4
GridSize: 8

[Metadata]
Title:Sweet Devil
Artist:Nobunaga
Creator:Kochiya Sanae
Version:Insane
Source:Nico Nico Douga
Tags:Hatsune Miku Verdisphena HachioujiP wakamura

[Difficulty]
HPDrainRate:7
CircleSize:5
OverallDifficulty:7
ApproachRate:8
SliderMultiplier:1.8
SliderTickRate:1

[Events]
//Background and Video events
0,0,"WPMMD03_01.jpg"
Video,0,"sweet devil.avi"
//Break Periods
2,74889,88484
//Storyboard Layer 0 (Background)
//Storyboard Layer 1 (Fail)
//Storyboard Layer 2 (Pass)
//Storyboard Layer 3 (Foreground)
//Storyboard Sound Samples
//Background Colour Transformations
3,100,163,162,255

[TimingPoints]
144,454.545454545455,4,1,2,71,1,0
24234,-100,4,2,0,81,0,0
24462,-100,4,1,2,70,0,0
26053,-100,4,2,0,81,0,0
26280,-100,4,1,2,70,0,0
30371,-100,4,2,2,100,0,0
30825,-100,4,1,2,70,0,0
56507,-142.857142857143,4,2,0,81,0,0
58325,-100,4,1,2,70,0,0
59689,-100,4,2,0,81,0,0
60144,-100,4,1,2,70,0,1
60371,-100,4,2,0,81,0,1
60484,-100,4,1,2,70,0,1
60598,-100,4,1,2,70,0,1
74689,-100,4,2,0,81,0,0
89234,-142.857142857143,4,2,0,81,0,0
118325,-71.4285714285714,4,1,0,70,0,1
118439,-71.4285714285714,4,1,0,70,0,0
118780,-100,4,1,2,70,0,1
144007,-100,4,2,0,81,0,0
147416,-100,4,2,0,81,0,0
161962,-100,4,2,0,59,0,0

[Colours]
Combo1 : 240,5,5
Combo2 : 5,240,5
Combo3 : 255,255,0

[HitObjects]
88,120,1962,2,0,B|200:120,1,90
264,120,2416,1,8
352,120,2643,1,0
352,208,2871,2,0,B|416:216|400:288,1,90
312,288,3325,2,0,B|248:272|256:208,1,90,8|0
352,208,3780,6,0,B|424:224|416:336|368:360,1,180,0|8
312,288,4462,1,0
224,288,4689,2,0,B|224:184,1,90
128,288,5144,2,0,B|128:336,2,45,8|0|8
128,288,5598,6,0,B|232:304|160:384|280:368,1,180,0|8
272,280,6280,1,0
272,192,6507,2,0,B|272:88,2,90,0|0|8
360,192,7189,1,0
392,192,7303,1,0
424,192,7416,6,0,B|464:152|448:56|368:56,1,180,0|8
280,56,8098,1,0
192,64,8325,2,0,B|280:120,2,90,0|0|8
144,144,9007,1,8
144,176,9121,1,0
144,208,9234,6,0,B|48:184|72:128|72:128|0:128,1,180,0|8
16,216,9916,1,0
16,248,10030,1,0
16,280,10144,1,0
96,336,10371,1,0
96,304,10484,1,0
96,272,10598,1,8
96,184,10825,1,0
96,96,11053,6,0,B|200:96,1,90
280,96,11507,1,8
280,184,11734,2,0,B|280:288,1,90
280,368,12189,2,0,B|408:368,2,90,0|8|8
256,192,12871,8,4,14462
368,272,14689,6,0,B|280:272,1,60,4|0
328,216,15030,2,0,B|256:216,1,60,4|0
288,160,15257,2,0,B|224:160,4,60
288,160,16053,5,4
120,104,16507,5,0
208,104,16734,1,0
232,104,16848,1,0
264,104,16962,1,8
352,104,17189,1,0
376,104,17303,1,0
352,192,17530,1,0
376,192,17644,1,0
352,280,17871,1,8
264,280,18098,1,0
176,280,18325,5,0
176,192,18553,2,0,B|216:144,2,45,0|0|8
88,208,19007,1,0
88,208,19121,1,0
96,296,19348,1,0
96,296,19462,2,0,B|128:352|208:344,1,90,0|8
256,344,19916,1,8
344,344,20144,5,0
424,296,20371,1,0
424,296,20484,1,0
424,296,20598,1,8
424,208,20825,2,0,B|464:136,1,45
344,120,21166,2,0,B|280:80,1,45
248,160,21507,6,0,B|320:168|352:232|280:304,1,180,8|0
224,240,22189,1,0
248,232,22303,1,0
280,224,22416,2,0,B|392:176,1,90,8|0
362,188,22757,1,0
448,152,22984,1,0
448,152,23098,2,0,B|512:192|464:264,1,90,0|8
448,312,23553,1,8
360,312,23780,5,0
224,312,24007,1,4
360,312,24234,1,4
312,240,24462,5,0
312,240,24575,1,0
312,240,24689,1,0
256,168,24916,2,0,B|200:88,1,90,0|8
112,96,25371,1,0
112,184,25598,5,0
112,320,25825,1,0
112,184,26053,1,4
184,240,26280,5,0
208,256,26394,1,0
232,272,26507,1,0
304,320,26734,2,0,B|360:328|376:272,2,90,0|8|8
256,192,27416,8,4,29007
256,192,29234,8,4,30598
200,168,30825,6,0,B|240:136|288:168,1,90
376,168,31280,1,0
376,256,31507,1,8
280,255,31734,5,0
280,255,31848,1,0
280,255,31962,2,0,B|152:255,1,90
100,255,32416,1,8
9,255,32644,5,0
8,272,32757,1,0
8,288,32871,2,0,B|24:320|96:320,1,90
176,320,33325,1,8
266,320,33553,5,0
266,304,33666,1,0
266,288,33780,1,0
266,272,33894,1,0
266,256,34007,2,0,B|298:224|378:248,1,90,0|8
384,328,34462,1,0
472,328,34689,6,0,B|512:304|488:248,1,90
400,224,35144,1,8
400,208,35257,1,0
400,192,35371,1,0
400,176,35484,1,0
480,136,35712,2,0,B|448:88,1,45
368,72,36053,1,8
288,120,36280,5,0
280,136,36393,1,0
272,152,36507,2,0,B|272:56,1,90
184,56,36962,2,0,B|144:32|96:56,1,90,8|0
96,80,37303,1,0
96,104,37416,2,0,B|48:128|0:112,2,90,0|0|8
168,272,38325,6,0,B|248:328|344:264,1,180,0|8
360,184,39007,1,0
384,168,39121,1,0
416,184,39234,2,0,B|448:208|424:304,1,90
352,304,39689,1,8
352,304,39803,1,0
352,304,39916,2,0,B|328:328|256:304,1,90
200,248,40371,5,0
120,296,40598,1,8
120,296,40712,1,0
120,296,40825,1,0
56,232,41053,1,0
56,232,41166,1,0
56,232,41280,2,0,B|16:192|48:136,1,90,0|8
80,64,41734,1,0
168,64,41962,6,0,B|216:48|256:64,1,90
216,144,42416,2,0,B|264:160|304:144,1,90,8|0
376,96,42871,1,0
392,96,42984,1,0
400,112,43098,1,0
416,112,43212,1,0
424,128,43325,1,8
256,192,43553,8,4,44916
256,192,45143,5,2
256,192,45257,1,0
256,192,45371,1,2
256,192,45484,1,0
256,192,45598,2,0,B|448:192,1,180,0|8
440,104,46280,1,0
376,40,46507,1,0
328,120,46734,1,0
256,64,46962,2,0,B|160:64,1,90,8|0
96,216,47416,6,0,B|200:216,1,90,2|0
232,296,47871,1,8
312,328,48098,1,0
320,240,48325,1,0
320,240,48439,1,0
320,240,48553,1,0
320,240,48666,2,0,B|400:184|400:96,1,135
328,72,49234,6,0,B|288:40|240:72,1,90,2|0
152,72,49689,1,8
144,88,49803,1,0
136,104,49916,1,0
128,120,50030,1,0
40,120,50257,2,0,B|88:160,1,45
75,165,50484,1,0
75,180,50598,2,0,B|75:284,1,90,8|0
75,360,51053,6,0,B|112:384|176:352,1,90,2|0
168,312,51393,2,0,B|208:280|256:312,1,90,2|0
280,344,51734,1,0
368,344,51962,2,0,B|432:344,4,45,0|0|0|0|2
408,168,52871,6,0,B|400:112|344:112,1,90,2|0
352,160,53212,2,0,B|296:200|216:160,1,135
184,80,53780,1,0
160,80,53893,1,0
168,104,54007,1,0
144,112,54121,2,0,B|104:144|136:200,1,90
176,176,54462,6,0,B|224:152|264:184,1,90,0|2
232,264,54916,1,0
192,344,55143,2,0,B|232:376|280:352,1,90
360,264,55598,1,0
360,264,55712,1,0
360,264,55825,1,0
360,264,55939,2,0,B|504:264,1,135
360,104,56507,6,0,B|248:104,1,90,2|0
272,64,56962,2,0,B|224:40|184:80,1,94.4999977469445,10|0
208,104,57416,2,0,B|176:160|128:136,1,94.4999977469445,2|0
128,104,57871,2,0,B|176:144|136:184,1,94.4999977469445,10|0
136,216,58325,6,0,B|224:216,1,60
168,272,58666,2,0,B|240:272,1,60
200,328,58893,2,0,B|272:328,4,60
200,328,59689,5,4
120,120,60143,1,4
120,120,60257,1,0
120,120,60371,1,4
120,120,60484,1,0
120,120,60598,6,0,B|160:96|216:112,1,90,8|0
296,112,61053,1,0
272,200,61280,1,0
288,224,61393,1,0
304,200,61507,2,0,B|400:168|472:248,1,180,8|0
408,312,62189,1,0
376,336,62303,1,0
360,312,62416,2,0,B|256:312,1,90,8|0
96,192,62871,6,0,B|192:192,1,90
192,280,63325,1,8
232,280,63439,1,0
272,280,63553,1,0
352,240,63780,1,0
352,152,64007,1,0
360,64,64234,6,0,B|296:32|224:40,1,135,8|0
256,88,64689,2,0,B|192:136|112:104,1,135
136,64,65143,2,0,B|196:65|224:184,1,135,8|0
240,200,65598,5,0
360,304,65825,1,0
288,160,66053,1,8
408,264,66280,1,0
448,104,66507,5,0
392,32,66734,1,0
304,40,66962,1,8
280,40,67075,1,0
256,48,67189,1,0
240,72,67303,1,0
232,96,67416,2,0,B|248:192|368:192,1,180,0|8
363,192,68325,6,0,B|248:192|232:288,1,180,0|8
200,200,69007,2,0,B|208:248|272:256,1,90
352,256,69462,2,0,B|407:249|415:201,1,90,0|8
360,136,69916,2,0,B|296:56,1,90
248,136,70371,2,0,B|320:216,1,90,0|8
360,272,70825,2,0,B|344:320|296:328,1,90
240,256,71280,5,0
208,336,71507,1,8
280,288,71734,1,0
192,288,71962,1,0
264,336,72189,1,0
344,376,72416,5,8
368,352,72530,1,0
400,360,72643,1,0
424,336,72757,1,0
456,344,72871,1,0
256,192,73098,8,4,74689
160,184,89234,5,4
160,184,89462,1,0
160,184,89689,2,0,B|208:216|280:184,1,125.999996995926,8|0
344,144,90371,1,0
416,112,90598,2,0,B|432:176|408:240,1,125.999996995926,8|0
336,240,91280,1,0
304,240,91394,1,0
272,240,91507,2,0,B|184:240,1,62.999998497963,8|0
200,312,91962,2,0,B|128:352,1,62.999998497963
72,368,92416,1,8
40,296,92644,1,0
104,256,92871,5,4
64,192,93098,1,0
64,192,93212,1,0
64,192,93325,2,0,B|120:160|184:192,1,125.999996995926,8|0
256,224,94007,1,0
320,176,94234,1,8
344,248,94462,2,0,B|496:248,1,125.999996995926
464,320,95144,5,8
408,368,95371,1,0
352,320,95598,1,0
296,368,95825,1,0
240,320,96053,1,8
240,320,96280,1,0
224,248,96507,5,4
208,240,96621,1,0
200,256,96734,1,0
184,256,96848,1,0
168,272,96962,2,0,B|128:248|120:192,1,94.4999977469445,8|0
120,160,97416,2,0,B|168:104|240:120,1,125.999996995926,0|8
208,192,98098,1,0
208,192,98325,2,0,B|272:232|328:184,1,125.999996995926,0|8
360,120,99007,1,0
416,168,99234,1,0
432,96,99462,5,0
344,192,99689,1,8
432,288,99916,1,0
352,376,100144,1,4
280,368,100371,1,0
280,368,100484,1,0
280,368,100598,6,0,B|216:360|216:352,1,62.999998497963,8|0
152,328,101053,1,0
56,208,101507,1,8
128,184,101734,1,0
144,32,102189,1,0
208,72,102416,1,8
304,192,102871,1,0
320,176,102984,1,0
336,192,103098,1,0
352,176,103212,1,0
368,192,103325,1,8
424,240,103553,1,0
432,312,103780,6,0,B|384:360|312:352,1,125.999996995926,4|8
240,344,104462,1,0
168,312,104689,1,0
152,328,104803,1,0
136,312,104916,1,0
120,328,105030,1,0
104,312,105144,2,0,B|56:288|72:192,1,125.999996995926,8|0
72,120,105825,1,0
72,120,105939,1,0
72,120,106053,1,8
136,80,106280,1,0
176,144,106507,6,0,B|256:144,1,62.999998497963
336,200,106962,2,0,B|248:200,1,62.999998497963,8|0
200,200,107416,1,4
152,256,107644,1,0
224,280,107871,2,0,B|232:344|312:368,1,125.999996995926,8|0
368,320,108553,1,0
384,336,108666,1,0
400,320,108780,1,8
416,336,108894,1,0
432,320,109007,2,0,B|480:296|464:200,1,125.999996995926
440,136,109689,5,8
336,64,109916,1,0
400,176,110144,1,0
392,48,110371,1,0
336,160,110598,1,8
440,88,110825,1,0
320,112,111053,5,4
336,104,111166,1,0
344,128,111280,1,0
360,120,111394,1,0
368,144,111507,2,0,B|400:160|392:200,1,62.999998497963,8|0
392,272,111962,2,0,B|448:288|456:208,1,94.4999977469445
440,192,112416,2,0,B|424:240|352:280,1,125.999996995926,8|0
280,280,113098,5,0
152,280,113325,1,8
264,336,113553,1,0
184,240,113780,1,0
216,360,114007,1,0
240,232,114234,1,8
216,104,114462,1,0
464,112,114916,5,0
424,144,115144,1,2
392,176,115371,1,2
360,208,115598,2,0,B|288:208,1,62.999998497963,2|0
328,240,116053,2,0,B|256:240,1,62.999998497963,2|0
296,272,116507,2,0,B|224:272,1,62.999998497963
264,304,116962,2,0,B|192:304,1,62.999998497963,2|0
216,256,117416,2,0,B|144:256,1,62.999998497963,2|0
184,216,117871,2,0,B|256:216,1,62.999998497963,6|4
272,96,118325,6,0,B|120:96,1,125.999996995926,2|0
272,168,118780,6,0,B|368:168,1,90,8|0
432,168,119234,1,0
472,224,119462,1,0
472,248,119575,1,0
472,272,119689,2,0,B|424:328|304:280,1,180,8|0
304,208,120371,5,0
280,208,120484,1,0
256,208,120598,2,0,B|216:184|168:208,1,90,8|0
40,304,121053,1,0
192,352,121280,1,0
64,248,121507,1,8
216,296,121734,1,0
240,304,121848,1,0
264,296,121962,5,0
352,296,122189,1,0
352,208,122416,2,0,B|192:208,1,135,8|0
224,160,122871,2,0,B|152:176|144:240|208:272,1,135
216,216,123325,2,0,B|256:232|248:296|176:312,1,135,8|0
152,304,123780,5,0
40,240,124007,1,0
152,304,124234,1,8
96,176,124462,1,0
96,144,124575,1,0
96,112,124689,5,0
184,112,124916,1,0
272,112,125144,1,8
296,128,125257,1,0
312,152,125371,1,0
312,176,125484,1,0
312,208,125598,2,0,B|320:320|448:304,1,180,0|8
432,216,126280,5,0
432,240,126394,1,0
432,264,126507,2,0,B|352:240|256:304,1,180,0|8
168,312,127189,1,0
96,256,127416,1,0
136,176,127644,2,0,B|216:136,1,90,0|8
240,120,127984,1,0
264,112,128098,2,0,B|272:56|208:32,1,90
176,112,128553,2,0,B|168:168|232:192,1,90,0|8
304,208,129007,1,0
304,208,129121,1,0
304,208,129234,1,0
368,272,129462,5,0
431,208,129689,1,8
494,271,129916,1,0
430,334,130144,1,0
366,270,130371,1,0
429,206,130598,1,8
440,184,130712,1,0
456,192,130825,1,0
464,168,130939,1,0
480,176,131053,1,0
256,192,131280,8,0,132871
96,112,133325,6,0,B|144:136|208:112,1,90,8|0
248,56,133780,1,0
168,24,134007,1,0
152,48,134121,1,0
144,72,134234,2,0,B|104:160|192:248,1,180,8|0
272,240,134916,1,0
272,240,135030,1,0
272,240,135144,6,0,B|368:240,1,90,8|0
480,336,135598,2,0,B|384:336,1,90
304,336,136053,1,8
264,336,136166,1,0
224,336,136280,1,0
136,336,136507,5,0
72,280,136734,1,0
88,192,136962,2,0,B|152:136|224:176,1,135,8|0
184,200,137416,2,0,B|248:240|320:200,1,135
280,176,137871,2,0,B|336:232|408:192,1,135,8|0
424,160,138325,5,0
320,40,138553,1,0
160,56,138780,1,8
96,208,139007,1,0
216,312,139234,1,0
376,288,139462,1,0
328,216,139689,5,8
312,192,139803,1,0
288,176,139916,1,0
264,168,140030,1,0
232,160,140144,2,0,B|192:256|96:264,1,180,0|8
32,208,140825,1,0
120,192,141053,1,0
144,192,141166,1,0
160,216,141280,1,0
184,216,141394,1,0
200,240,141507,1,8
272,296,141734,6,0,B|344:352,1,90
376,224,142189,2,0,B|456:184,1,90,0|8
320,112,142644,2,0,B|264:32,1,90
192,176,143098,2,0,B|80:176,1,90,0|8
128,264,143553,1,0
120,296,143666,1,0
144,312,143780,1,0
232,312,144007,5,0
272,232,144234,1,2
336,288,144462,1,0
376,208,144689,1,0
440,264,144916,1,0
472,176,145144,1,2
456,160,145257,1,0
440,144,145371,1,0
424,128,145484,1,0
408,112,145598,5,0
344,48,145825,1,0
256,48,146053,1,2
200,120,146280,1,0
112,96,146507,1,0
112,184,146734,1,0
112,272,146962,1,2
24,248,147189,2,0,B|-8:240,4,22.5
200,296,147871,5,2
192,120,148325,2,0,B|304:120,1,90,0|0
312,208,148780,2,0,B|400:128,1,90,2|0
440,80,149234,1,0
440,264,149689,1,2
312,136,150143,2,0,B|240:248,1,90
208,144,150598,2,0,B|88:176,1,90,2|0
120,256,151053,5,0
272,352,151507,1,2
440,280,151962,2,0,B|512:224,1,90
424,192,152416,2,0,B|328:216,1,90,2|0
248,232,152871,1,0
104,120,153325,1,2
72,296,153780,2,0,B|168:360,1,90
216,288,154234,2,0,B|320:272,1,90,2|0
392,264,154689,5,0
392,264,154916,1,0
392,264,155143,1,4
384,88,155598,2,0,B|360:-16,1,90,0|0
304,72,156053,2,0,B|232:-16,1,90,2|0
200,80,156507,5,0
144,152,156734,1,0
56,128,156962,1,2
56,128,157416,2,0,B|96:208,1,90
168,264,157871,2,0,B|272:200,1,90,2|0
280,296,158325,5,0
368,264,158553,1,0
448,224,158780,1,2
368,176,159007,1,0
448,136,159234,1,0
368,88,159462,1,0
448,40,159689,1,2
368,88,159916,1,0
288,128,160143,1,2
264,128,160257,1,0
264,152,160371,1,2
240,152,160484,1,0
240,176,160598,1,2
136,208,160825,1,0
40,264,161053,5,0
136,304,161280,1,0
240,288,161507,2,0,B|304:296,3,45
