osu file format v9

[General]
AudioFilename: ShinkaiShoujo.mp3
AudioLeadIn: 1500
PreviewTime: 43080
Countdown: 0
SampleSet: Normal
StackLeniency: 0.7
Mode: 0
LetterboxInBreaks: 1

[Editor]
Bookmarks: 46284
DistanceSpacing: 1
BeatDivisor: 4
GridSize: 8

[Metadata]
Title:Shinkai Shoujo
Artist:Nobunaga
Creator:Rorry
Version:Ai
Source:
Tags:AisamaDX Muya abalee

[Difficulty]
HPDrainRate:6
CircleSize:4
OverallDifficulty:8
ApproachRate:8
SliderMultiplier:2.1
SliderTickRate:2

[Events]
//Background and Video events
0,0,"underwater.jpg"
//Break Periods
2,127944,137505
//Storyboard Layer 0 (Background)
//Storyboard Layer 1 (Fail)
//Storyboard Layer 2 (Pass)
//Storyboard Layer 3 (Foreground)
//Storyboard Sound Samples
//Background Colour Transformations
3,100,163,162,255

[TimingPoints]
1613,437.956204379562,4,1,1,50,1,0
27890,-100,4,1,1,60,0,0
28875,-100,4,1,1,55,0,0
29423,-100,4,1,1,50,0,0
36430,-100,4,1,1,55,0,0
43656,-100,4,1,1,55,0,1
43766,-100,4,1,1,55,0,0
57671,-100,4,1,1,5,0,0
58875,-100,4,1,1,5,0,0
61065,-100,4,1,1,50,0,0
61284,-100,4,1,1,55,0,0
70810,-100,4,1,1,55,0,0
71138,-100,4,1,1,50,0,0
76941,-100,4,1,1,60,0,0
77926,-100,4,1,1,50,0,0
85481,-100,4,1,1,55,0,0
92707,-100,4,1,1,55,0,1
92817,-100,4,1,1,55,0,0
106722,-100,4,1,1,5,0,0
109459,-100,4,1,1,55,0,0
138255,-100,4,2,0,50,0,0
150737,-100,4,2,0,5,0,0
151941,-100,4,2,0,5,0,0
153474,-200,4,1,1,50,0,0
160481,-100,4,1,1,50,0,0
169788,-100,4,1,1,55,0,0
171102,-100,4,1,1,60,0,0
171540,-100,4,1,1,60,0,1
171649,-100,4,1,1,60,0,0
185664,-100,4,1,1,5,0,0
190700,-100,4,1,1,5,0,0
190919,-100,4,1,1,50,0,0
195627,-200,4,1,1,45,0,0
199459,-100,4,1,1,50,0,0
201321,-100,4,1,1,55,0,0
203072,-100,4,1,1,55,0,1
203182,-100,4,1,1,55,0,0
206576,-100,4,1,1,60,0,0
208328,-100,4,1,1,65,0,0

[HitObjects]
264,264,1613,6,0,B|296:312|352:320,1,105,2|0
360,216,2050,1,0
256,192,2269,2,0,B|152:192,1,105,0|2
208,104,2707,1,0
208,104,2926,2,0,B|336:104,1,105,2|0
408,152,3364,2,0,B|440:208|408:264,1,105,2|0
328,312,3802,2,0,B|296:256|328:200,1,105
296,112,4240,2,0,B|256:64|208:40,2,105
256,208,4897,5,0
256,208,5007,1,0
256,208,5116,2,0,B|216:280|168:304|72:304,1,210,2|0
112,200,5773,1,0
112,200,5992,2,0,B|112:96,2,105,2|0|0
192,272,6649,1,0
296,296,6868,1,2
272,192,7087,1,0
168,160,7306,1,2
248,88,7525,1,2
352,120,7744,1,0
376,224,8182,5,2
280,272,8401,2,0,B|232:304|168:304,2,105
288,168,9058,1,2
288,168,9277,2,0,B|280:112|216:64,2,105
360,240,9934,2,0,B|400:280|456:280,1,105,2|0
432,176,10372,2,0,B|432:72,1,105
328,104,10810,1,2
280,192,11029,1,0
384,192,11248,1,0
296,136,11467,1,0
200,88,11685,5,2
200,88,11795,1,0
200,88,11904,1,0
200,88,12014,1,0
200,88,12123,2,0,B|152:72|80:80,1,105
152,168,12561,2,0,B|144:224|88:256,2,105,2|0|0
256,168,13218,1,0
256,168,13437,2,0,B|320:160|352:88,1,105,2|0
240,72,13875,2,0,B|8:72,2,210,0|2|0
256,192,14970,5,0
256,192,15189,1,8
256,192,15627,6,0,B|256:312,1,105,2|0
352,248,16065,1,0
352,248,16284,2,0,B|416:240|432:184,1,105,0|2
416,80,16722,2,0,B|352:88|336:144,1,105
256,208,17160,1,0
256,208,17269,1,0
256,208,17379,2,0,B|216:248|152:256,1,105,2|0
80,192,17817,2,0,B|48:144|80:72,1,105
160,32,18255,1,2
240,96,18474,1,0
136,120,18693,2,0,B|104:160|112:224,1,105
184,296,19131,5,2
232,208,19350,1,0
288,296,19569,1,2
344,208,19788,1,0
400,296,20007,1,2
288,296,20226,5,0
232,208,20445,1,2
344,208,20664,1,0
176,120,20883,1,2
392,120,21102,1,2
288,208,21321,5,0
288,208,21540,2,0,B|288:312,2,105
152,152,22196,6,0,B|120:112|120:48,1,105,2|0
216,88,22634,1,0
216,88,22853,2,0,B|272:72|320:88,1,105,0|2
264,176,23291,1,0
264,176,23401,1,0
264,176,23510,2,0,B|288:240|352:248,1,105
344,136,23948,2,0,B|320:72|256:64,1,105,2|0
168,64,24386,1,0
72,96,24605,1,0
160,152,24824,1,2
64,192,25043,1,0
128,280,25262,2,0,B|176:320|256:312,2,105,0|0|2
200,208,25919,5,0
200,208,26029,1,0
200,208,26138,2,0,B|264:184|280:144,1,105,2|0
344,56,26576,2,0,B|408:48|456:96,1,105,2|0
360,152,27014,1,2
296,232,27233,1,0
400,248,27452,1,2
464,168,27671,1,0
344,48,27890,5,8
176,80,28109,1,0
144,248,28328,1,8
304,304,28547,1,0
424,184,28766,1,8
232,88,29423,6,0,B|288:80|336:120,1,105,0|2
368,216,29861,1,0
368,216,29970,1,0
368,216,30080,2,0,B|352:272|288:304,1,105,2|0
272,192,30518,1,2
192,128,30737,1,0
176,232,30956,1,2
272,192,31175,5,0
192,128,31394,1,2
96,160,31612,1,0
72,264,31831,2,0,B|96:320|160:336,1,105,2|0
248,312,32269,2,0,B|304:288|320:232,2,105,2|0|0
176,232,32926,5,0
176,232,33036,1,0
176,232,33145,2,0,B|128:200|120:144,1,105,2|0
224,144,33583,1,2
264,48,33802,2,0,B|312:80|320:136,1,105,0|2
288,232,34240,1,0
208,296,34459,2,0,B|160:320|96:296,1,105,2|0
168,216,34897,2,0,B|240:136,1,105,2|0
160,72,35335,2,0,B|32:72,1,105,2|0
320,72,35773,1,2
424,72,35992,1,0
320,72,36211,1,8
216,72,36430,5,0
216,72,36540,1,0
216,72,36649,2,0,B|152:96|112:136,1,105,2|0
120,232,37087,2,0,B|184:208|224:168,1,105,2|0
312,160,37525,2,0,B|368:160|432:200,1,105,2|0
336,264,37963,2,0,B|280:264|216:224,1,105,2|0
216,128,38401,1,2
288,48,38620,1,0
384,96,38839,1,2
400,200,39058,1,0
304,240,39277,1,2
280,248,39386,1,0
256,256,39496,1,0
232,264,39605,1,0
208,272,39715,2,0,B|136:304|56:288,2,105,10|0|2
232,168,40372,5,0
232,168,40591,2,0,B|240:96|216:48,2,105,10|0|0
312,240,41248,1,0
312,240,41467,2,0,B|352:272|416:272,1,105,10|0
376,168,41904,1,10
320,80,42123,1,0
296,80,42233,1,0
272,80,42342,1,8
248,80,42452,1,0
224,80,42561,1,0
224,80,42780,1,0
144,272,43218,6,0,B|192:288|248:272,1,105,2|0
320,192,43656,2,0,B|272:176|216:192,1,105,2|0
112,184,44094,1,2
136,80,44313,1,0
216,144,44532,1,2
240,40,44751,1,0
336,88,44970,6,0,B|448:8,1,105,2|0
256,144,45408,2,0,B|144:224,1,105,2|0
344,192,45846,2,0,B|424:280,2,105,2|0|0
144,256,46722,6,0,B|184:296|248:304,1,105,2|0
336,272,47160,1,0
416,200,47379,1,0
368,104,47598,1,2
288,176,47817,1,0
200,232,48036,2,0,B|136:280|88:280,1,105
120,176,48474,2,0,B|120:120|160:80,1,105,2|0
264,56,48912,5,2
320,144,49131,1,0
224,192,49350,2,0,B|104:256,1,105,10|0
416,104,49788,2,0,B|536:40,1,105,10|0
440,200,50226,5,2
440,200,50335,1,0
440,200,50445,1,0
440,200,50554,1,0
440,200,50664,2,0,B|416:248|352:280,1,105,2|0
264,256,51102,2,0,B|288:208|352:176,1,105,2|0
400,104,51540,1,0
400,104,51758,2,0,B|504:104,2,105,0|2|0
320,40,52415,1,2
216,40,52634,1,0
216,144,52853,1,2
320,144,53072,1,0
224,96,53291,6,0,B|112:96,1,105,4|0
296,216,53729,2,0,B|400:216,2,105,2|0|2
208,152,54386,1,0
200,256,54605,1,0
296,216,54824,5,0
208,152,55043,2,0,B|152:128|88:136,1,105,2|0
152,232,55481,2,0,B|168:280|224:304,1,105,2|0
328,288,55919,1,8
376,128,56138,1,0
448,280,56357,1,8
480,112,56576,1,0
392,256,56795,1,8
424,88,57014,1,0
424,192,57233,6,0,B|424:256,2,52.5,8|0|0
256,192,57671,12,0,59094
256,192,59423,12,4,61175
200,136,64240,6,0,B|248:104|304:96,1,105,2|0
280,200,64678,1,0
280,200,64897,2,0,B|280:304,2,105,0|2|0
184,152,65554,1,0
120,72,65773,1,0
224,64,65992,1,2
136,120,66211,1,0
80,208,66430,1,0
80,208,66540,1,0
80,208,66649,2,0,B|88:264|152:288,2,105,0|2|0
184,192,67306,6,0,B|240:192|296:144,1,105
272,264,67744,2,0,B|216:264|160:312,1,105,2|0
80,248,68182,1,0
96,144,68401,1,0
192,192,68620,1,2
96,144,68839,1,0
176,80,69058,1,0
272,128,69277,1,0
192,192,69496,5,2
192,192,69605,1,0
288,240,69824,1,0
288,240,69934,2,0,B|384:288,1,105
376,184,70372,2,0,B|280:136,1,105,2|0
184,88,70810,2,0,B|96:88,2,70
184,160,71248,6,0,B|168:208|112:240,1,105,2|0
168,328,71685,2,0,B|184:280|240:248,1,105
320,184,72123,1,2
424,208,72342,1,0
400,312,72561,1,0
296,288,72780,1,0
400,312,72999,5,2
424,208,73218,1,0
320,184,73437,2,0,B|264:168|200:176,1,105
144,248,73875,2,0,B|200:264|264:256,1,105,2|0
352,272,74313,1,0
352,272,74423,1,0
352,272,74532,2,0,B|376:328|440:336,2,105,0|2|0
312,176,75189,6,0,B|304:112|384:80,1,105,2|0
248,248,75627,6,0,B|192:248|144:208,1,105,2|0
248,248,76065,5,2
280,344,76284,1,0
352,272,76503,1,2
312,176,76722,1,0
160,104,76941,5,8
128,272,77160,1,0
280,344,77379,1,8
424,256,77598,1,0
360,104,77817,1,8
160,224,78474,6,0,B|184:272|248:288,1,105,0|2
344,256,78912,1,0
344,256,79021,1,0
344,256,79131,2,0,B|384:208|384:152,1,105
368,56,79569,1,2
288,120,79788,1,0
384,160,80007,2,0,B|448:168|472:208,1,105
376,248,80445,2,0,B|312:240|288:200,1,105,2|0
208,128,80883,2,0,B|176:80|112:64,2,105,0|0|0
208,128,81430,1,0
208,128,81540,1,0
160,224,81758,5,0
200,320,81977,1,0
200,320,82087,1,0
200,320,82196,2,0,B|280:336|320:296,1,105,2|0
240,224,82634,1,2
264,120,82853,2,0,B|184:104|144:144,2,105,0|2|0
344,184,83510,1,2
344,184,83620,1,0
344,184,83729,2,0,B|424:200|464:160,1,105,0|2
464,72,84167,1,0
360,40,84386,1,2
408,136,84605,1,0
360,40,84824,1,2
320,136,85043,2,0,B|280:208|232:208,1,105,0|8
144,224,85481,5,0
144,224,85591,1,0
144,224,85700,2,0,B|144:280|200:312,1,105,2|0
304,320,86138,2,0,B|352:296|368:240,1,105,2|0
336,136,86576,1,2
272,216,86795,1,0
232,120,87014,1,2
296,32,87233,1,0
400,48,87452,1,2
400,48,87671,2,0,B|440:80|448:144,1,105,0|2
376,216,88109,2,0,B|376:320,2,105,0|2|0
376,216,88656,1,0
376,216,88766,1,10
296,152,88985,6,0,B|272:88|224:56,1,105,0|10
184,152,89423,1,0
80,160,89642,2,0,B|104:224|152:256,1,105,10|0
240,272,90080,1,10
344,272,90299,1,0
240,272,90518,1,10
136,272,90737,2,0,B|96:240|96:176,1,105,0|10
152,88,91175,1,0
176,88,91284,1,0
200,88,91394,1,8
224,88,91503,1,0
248,88,91612,1,0
248,88,91831,1,0
424,208,92269,6,0,B|416:264|352:312,1,105,2|0
264,296,92707,2,0,B|272:240|336:192,1,105,2|0
376,120,93145,1,2
312,40,93364,1,0
304,144,93583,1,2
240,64,93802,1,0
176,144,94021,6,0,B|72:184,1,105,2|0
280,160,94459,2,0,B|378:122,1,105,2|0
216,240,94897,2,0,B|264:344,2,105,2|0|0
304,80,95773,6,0,B|368:72|408:112,1,105,2|0
328,184,96211,1,2
328,184,96430,2,0,B|264:192|224:152,2,105,0|2|0
144,96,97087,1,2
80,176,97306,1,0
144,264,97525,1,2
80,176,97744,1,0
184,176,97963,6,0,B|296:176,1,105,8|0
377,280,98401,2,0,B|272:280,1,105,8|0
392,71,98839,2,0,B|392:176,1,105,8|0
304,232,99277,5,2
304,232,99386,1,0
304,232,99496,1,0
304,232,99605,1,0
304,232,99715,2,0,B|248:272|192:272,1,105,2|0
112,224,100153,2,0,B|168:184|224:184,1,105,2|0
312,160,100591,1,2
240,88,100810,1,0
208,184,101029,2,2,B|208:240|264:272,1,105,2|2
368,280,101467,6,0,B|480:216|480:112,2,210,2|2|2
264,248,102561,1,0
312,160,102780,1,2
416,184,102999,1,0
208,128,103218,6,0,B|104:104,1,105,2|0
352,272,103656,2,0,B|456:296,2,105,2|0|2
264,216,104313,1,0
208,128,104532,1,2
312,120,104751,1,0
208,256,104970,5,8
152,96,105189,1,0
312,56,105408,1,8
376,208,105627,1,0
216,168,105846,1,8
376,120,106065,1,0
224,48,106284,1,8
304,192,106503,1,4
256,192,106722,12,0,108036
256,192,108255,12,0,109350
168,224,109788,6,0,B|216:280|264:280,1,105,0|0
360,256,110226,1,0
360,256,110335,1,0
360,256,110445,2,0,B|416:224|424:160,2,105
360,256,110992,1,0
360,256,111102,1,0
264,216,111321,1,0
264,216,111430,1,0
264,216,111540,2,0,B|184:128,1,105,0|0
168,40,111977,6,0,B|56:40,1,105,0|0
296,112,112415,2,0,B|400:112,1,105,0|0
401,112,112744,1,0
401,112,112853,1,0
384,216,113072,1,0
384,216,113182,1,0
384,216,113291,1,0
384,216,113510,6,0,B|336:296|288:304,2,105,0|8|0
128,168,114167,2,0,B|176:88|224:80,2,105,0|0|8
160,272,114824,1,0
232,192,115043,1,0
128,168,115262,1,0
160,272,115481,2,0,B|200:312|256:312,1,105,8|0
360,312,115919,2,0,B|464:312,2,105,8|0|8
360,312,116576,1,0
264,264,116795,5,0
264,232,116904,1,0
264,200,117014,1,0
264,168,117123,1,0
264,136,117233,2,0,B|264:32,2,105,2|0|2
160,128,117890,2,0,B|96:136|72:200,1,105,0|2
80,288,118328,2,0,B|144:280|168:216,1,105,0|2
240,160,118766,1,0
344,160,118985,1,2
408,240,119204,1,0
336,320,119423,1,2
336,320,119532,1,0
336,320,119642,2,0,B|272:336|224:320,2,105,0|2|0
280,232,120299,2,0,B|264:168|200:144,1,105,2|0
112,136,120737,5,0
104,160,120846,1,0
96,184,120956,1,0
88,208,121065,1,0
88,232,121175,1,0
96,256,121284,1,0
112,280,121394,1,0
128,304,121503,1,0
152,320,121612,2,0,B|208:344|272:320,2,105,0|0|0
216,232,122269,5,0
304,88,122488,5,8
456,168,122707,1,0
392,320,122926,1,8
224,352,123145,1,0
88,248,123364,1,8
136,88,123583,1,0
248,208,123802,2,0,B|288:248|360:256,2,105,8|0|0
256,192,124350,12,0,127744
144,184,138255,6,0,B|160:240|216:264,1,105,2|0
264,168,138693,1,0
368,152,138912,2,0,B|352:96|296:72,1,105,0|2
200,64,139350,2,0,B|96:104,1,105
184,168,139788,1,0
184,168,140007,2,0,B|216:232|264:240,2,105,2|0|0
272,112,140664,1,0
272,112,140883,2,0,B|368:56|480:112,2,210,2|0|2
264,216,141977,1,0
264,216,142196,2,0,B|168:272|56:216,2,210,0|2|0
264,216,143510,1,2
256,192,145043,6,0,B|272:136|328:104,1,105,0|2
360,208,145481,1,0
360,208,145700,2,0,B|344:264|288:296,1,105
192,282,146138,1,2
112,213,146357,1,0
69,116,146576,6,0,B|146:43|270:52,1,210,0|2
443,268,147233,2,0,B|366:341|242:332,1,210
255,227,147890,6,0,B|253:104,2,105,2|0|0
166,284,148547,2,0,B|101:267|64:214,1,105,0|2
172,185,148985,1,0
172,185,149204,6,0,B|259:116,2,105,0|0|2
208,283,149861,1,0
331,307,150080,1,2
456,230,150299,1,0
456,230,150518,1,2
256,192,150737,12,0,152160
160,184,154021,6,0,B|208:232|256:232,1,105,2|0
304,240,154678,1,0
360,240,154897,2,0,B|416:240,2,52.5,2|0|0
328,200,155554,5,0
280,192,155773,1,2
280,136,155992,1,0
232,128,156211,1,0
200,88,156430,1,0
160,56,156649,2,0,B|128:48|96:64,2,52.5,2|0|0
112,152,157306,6,0,B|80:184|96:216,1,52.5,0|2
152,288,157744,1,0
152,288,157963,2,0,B|184:312|224:304,1,52.5,2|0
296,264,158401,2,0,B|320:240|320:208,2,52.5,2|0|0
224,192,159058,1,0
224,192,159277,2,0,B|208:152|224:128,2,52.5,2|0|0
280,280,159934,2,0,B|312:304|336:296,1,52.5,0|2
288,88,160591,6,0,B|232:64|168:56,1,105,2|0
200,160,161029,2,0,B|256:184|320:192,1,105,2|0
400,232,161467,1,2
344,320,161685,1,0
240,304,161904,1,2
296,216,162123,2,0,B|328:168|336:112,2,105,0|2|0
192,240,162780,2,0,B|136:240|96:296,1,105,2|0
224,144,163218,2,0,B|168:112|168:56,2,105,2|0|2
328,168,163875,5,0
432,136,164094,1,0
472,232,164313,1,0
376,264,164532,2,0,B|320:304|280:304,1,105,2|0
192,256,164970,1,0
192,256,165080,1,0
192,256,165189,2,0,B|128:240|120:184,2,105,0|2|0
288,216,165846,1,0
208,152,166065,1,0
288,88,166284,1,2
208,24,166503,2,0,B|144:32|104:72,1,105
80,168,166941,5,0
80,168,167160,2,0,B|88:232|144:280,1,105,2|0
224,304,167598,2,0,B|296:312|336:256,1,105
360,176,168036,1,0
360,176,168255,1,0
320,80,168474,1,0
320,80,168693,1,0
216,48,168912,1,0
216,48,169131,1,0
120,88,169350,1,0
120,88,169569,1,0
64,176,169788,2,0,B|72:232|112:272,1,105
109,268,170116,1,0
109,268,170226,1,0
109,268,170335,1,0
109,268,170445,1,0
109,268,170554,1,0
109,268,170664,1,0
320,304,171102,6,0,B|376:200,1,105,2|0
264,216,171540,2,0,B|216:120,1,105,2|0
136,56,171977,1,2
80,144,172196,1,0
104,248,172415,2,0,B|136:296|208:304,1,105,2|0
296,304,172853,1,2
384,248,173072,1,0
320,168,173291,1,2
232,224,173510,1,0
144,280,173729,1,2
80,200,173948,1,0
168,144,174167,2,0,B|216:128|248:80,1,105,2|0
352,56,174605,6,0,B|408:40|464:80,1,105,2|0
368,136,175043,2,0,B|320:160|312:224,1,105,0|0
248,304,175481,1,2
248,304,175591,1,0
248,304,175700,2,0,B|184:312|120:288,2,105,0|0|0
184,216,176357,1,2
168,48,176576,5,0
256,192,176795,1,2
112,104,177014,1,0
280,120,177233,5,2
120,176,177452,1,0
240,56,177671,1,2
184,216,177890,1,0
192,128,178109,5,0
192,128,178218,1,0
192,128,178328,1,0
192,128,178437,1,0
192,128,178547,2,0,B|224:80|296:64,1,105,2|0
384,72,178985,2,0,B|432:96|448:152,1,105,2|0
344,144,179423,2,0,B|280:144|248:88,1,105,0|0
152,80,179861,1,2
48,96,180080,1,0
128,168,180299,1,0
200,240,180518,5,0
304,224,180737,1,2
280,312,180956,1,0
176,320,181175,2,0,B|120:320|80:272,1,105,6|0
208,112,181612,6,0,B|320:112,2,105,2|0|0
120,160,182269,1,0
64,248,182488,1,2
64,248,182598,1,0
64,248,182707,2,0,B|48:304|64:352,2,105
120,160,183364,1,2
184,240,183583,1,0
344,296,183802,5,8
240,160,184021,1,0
400,208,184240,1,8
296,80,184459,1,0
264,248,184678,1,8
376,128,184897,2,0,B|424:104|432:96,2,52.5,0|0|8
376,128,185335,1,0
256,192,185664,12,0,186868
256,192,187306,12,0,190810
144,192,195627,5,2
184,224,195846,1,0
224,256,196065,2,0,B|248:272|288:272|336:272,1,105,2|0
376,256,196722,2,0,B|352:200|408:152,1,105,2|0
392,112,197379,1,2
360,72,197598,1,0
312,56,197817,2,0,B|288:72|208:72,1,105,0|2
160,96,198474,1,0
120,128,198693,1,2
168,152,198912,1,0
128,184,199131,2,0,B|120:208|80:240,1,52.5,2|0
256,288,199569,6,0,B|336:280|368:248,1,105,2|0
384,160,200007,2,0,B|304:168|272:200,2,105,2|0|0
440,248,200664,1,0
440,248,200883,2,0,B|416:304|344:312,1,105,2|0
256,288,201321,1,0
256,288,201430,1,0
256,288,201540,2,0,B|192:280|168:224,2,105
264,184,202196,6,0,B|296:104|352:80,1,105
322,98,202525,1,0
322,98,202634,2,0,B|368:136|448:120,1,105
416,232,203072,5,0
320,280,203291,1,0
320,280,203401,1,0
216,272,203620,1,0
216,272,203729,1,0
136,208,203948,5,0
256,88,204167,1,0
376,208,204386,1,0
304,280,204605,1,0
304,280,204715,1,0
304,280,204824,2,0,B|264:320|200:328,1,105
211,326,205153,1,0
112,280,205372,1,0
112,280,205481,1,0
56,192,205700,1,0
56,192,205810,1,0
56,192,205919,2,0,B|104:160|120:104,2,105
160,208,206576,6,0,B|208:272|296:272,1,105,8|0
296,272,206904,2,0,B|376:272|424:240,1,105
440,224,207233,2,0,B|400:160|400:104,1,105,0|8
360,88,207561,2,0,B|320:56|232:64,1,105
216,88,207890,2,0,B|176:112|104:120,1,105
48,200,208328,5,8
104,288,208547,1,0
120,120,208766,1,8
208,280,208985,1,0
160,200,209204,1,8
160,200,209313,1,0
160,200,209423,2,0,B|256:160,2,105,0|8|4
