osu file format v12

[General]
AudioFilename: nobunaga_ochame.mp3
AudioLeadIn: 0
PreviewTime: -1
Countdown: 0
SampleSet: Normal
StackLeniency: 0.7
Mode: 0
LetterboxInBreaks: 1

[Editor]
DistanceSpacing: 0.8
BeatDivisor: 2
GridSize: 8

[Metadata]
Title:Ochame Kinou
TitleUnicode:Ochame Kinou
Artist:Nobunaga
ArtistUnicode:Nobunaga
Creator:AcidSnow1
Version:prototype
Source:Nico Nico Douga
Tags:utau kasane teto mischievous function fukkireta lamaze-p gojimaji-p niconicodouga niconico nicovideo
BeatmapID:229360
BeatmapSetID:82993

[Difficulty]
HPDrainRate:4
CircleSize:4
OverallDifficulty:4
ApproachRate:4
SliderMultiplier:1.4
SliderTickRate:2

[Events]
//Background and Video events
Video,0,"nobunaga_ochame.flv"
//Break Periods
//Storyboard Layer 0 (Background)
//Storyboard Layer 1 (Fail)
//Storyboard Layer 2 (Pass)
//Storyboard Layer 3 (Foreground)
//Storyboard Sound Samples
//Background Colour Transformations
3,100,163,162,255

[TimingPoints]
453,400,4,1,0,70,1,0

[HitObjects]
216,192,5253,1,4,0:0:0:0:
264,96,5553,1,4,0:0:0:0:
312,192,5853,1,4,0:0:0:0:
312,272,6253,5,0,0:0:0:0:
272,272,6453,1,0,0:0:0:0:
232,272,6653,1,0,0:0:0:0:
192,272,6853,2,0,B|192:80,2,140
136,272,7853,1,0,0:0:0:0:
136,216,8053,1,0,0:0:0:0:
136,160,8253,1,0,0:0:0:0:
136,104,8453,2,0,B|296:104,2,140
192,104,9453,1,0,0:0:0:0:
248,104,9653,1,0,0:0:0:0:
304,104,9853,1,0,0:0:0:0:
360,104,10053,6,0,B|360:184|328:192|256:192,2,140
424,56,11053,1,0,0:0:0:0:
424,104,11253,1,0,0:0:0:0:
464,104,11453,1,0,0:0:0:0:
424,168,11653,2,0,B|424:320|344:320,1,140
336,304,12253,2,0,B|296:296|272:256,1,70
256,208,12653,1,0,0:0:0:0:
240,184,12853,1,4,0:0:0:0:
168,144,13253,6,0,L|112:224,4,70
232,128,14253,1,0,0:0:0:0:
296,128,14453,1,0,0:0:0:0:
336,176,14653,1,0,0:0:0:0:
288,224,14853,2,0,B|128:184|128:184|136:184|144:264,2,210
288,160,16253,1,0,0:0:0:0:
248,104,16453,6,0,L|184:144,4,70
312,96,17453,1,0,0:0:0:0:
368,128,17653,1,0,0:0:0:0:
312,96,17853,1,0,0:0:0:0:
312,160,18053,2,0,B|312:256|304:264|232:256,1,140
248,200,18653,2,0,B|192:272|192:280|208:280|152:296,1,140
128,240,19253,2,0,L|136:192,1,35
256,192,19653,12,0,22453,0:0:0:0:
224,152,22853,6,0,L|368:152,1,140
368,184,23453,1,0,0:0:0:0:
368,216,23653,2,0,L|208:216,1,140
200,216,24253,1,0,0:0:0:0:
200,184,24453,2,0,L|200:56,3,70
200,88,25253,2,2,B|128:112|96:168|96:240,1,140
104,272,26053,6,0,L|240:224,1,140
248,256,26653,1,0,0:0:0:0:
256,288,26853,2,0,L|392:224,1,140
376,200,27453,1,0,0:0:0:0:
376,168,27653,2,0,L|320:56,2,70
408,160,28253,1,0,0:0:0:0:
384,136,28453,2,2,B|360:64|320:64|288:80|248:136,1,140
272,168,29253,6,0,P|184:168|128:200,1,140
160,208,29853,1,0,0:0:0:0:
176,232,30053,2,0,B|152:304|104:288|288:256,1,140
264,256,30653,1,0,0:0:0:0:
280,232,30853,1,0,0:0:0:0:
296,208,31053,2,0,L|272:136,1,70
248,136,31453,1,0,0:0:0:0:
224,144,31653,2,2,B|224:72|224:72|216:72|216:72|232:72|232:72|208:72|208:72|240:72,1,140
152,104,32453,6,0,B|152:160|152:208|224:208,1,140
192,112,33053,1,0,0:0:0:0:
216,88,33253,2,0,B|288:88|304:88|304:104|304:128|304:176,1,140
304,184,33853,1,0,0:0:0:0:
288,216,34053,1,0,0:0:0:0:
272,248,34253,2,0,L|184:248,1,70,4|4,0:0|0:0,0:0:0:0:
240,192,34653,2,0,L|176:112,1,70,4|4,0:0|0:0,0:0:0:0:
304,192,35053,2,0,L|304:96,1,70,4|4,0:0|0:0,0:0:0:0:
192,64,35653,6,0,L|72:168|72:168,1,140
96,184,36253,1,0,0:0:0:0:
112,208,36453,2,0,L|288:208,1,140
280,224,37053,1,0,0:0:0:0:
304,200,37253,2,0,L|304:128,1,70
304,112,37653,2,0,L|232:110,1,70
184,144,38053,2,2,B|176:224|232:248|264:184,1,140
360,192,38853,5,0,0:0:0:0:
360,128,39253,2,0,L|272:128,2,70
360,192,40053,2,0,L|272:192,4,70
360,224,41053,1,0,0:0:0:0:
360,264,41253,2,2,B|288:264|264:224|232:248|216:216,1,140
168,152,42053,6,0,L|168:72,2,70
168,184,42653,1,0,0:0:0:0:
168,224,42853,2,0,L|256:224,3,70
264,232,43653,2,0,L|346:296,1,70
336,256,44053,2,0,L|344:176,1,70
320,168,44453,2,2,B|256:128|232:136|184:184,1,140
144,240,45253,5,0,0:0:0:0:
144,208,45453,2,0,L|144:136,1,70
176,136,45853,2,0,L|256:136,3,70
272,136,46653,1,0,0:0:0:0:
272,168,46853,2,0,L|272:272,1,70,0|4,0:0|0:0,0:0:0:0:
296,168,47253,2,0,L|360:240,1,70,4|4,0:0|0:0,0:0:0:0:
328,168,47653,2,0,L|400:168,1,70,0|4,0:0|0:0,0:0:0:0:
328,136,48053,1,4,0:0:0:0:
232,112,48653,6,0,L|152:144,1,70
232,152,49053,2,0,L|128:216,1,70
232,184,49453,2,0,L|144:264,1,70
232,208,49853,2,2,L|232:248,1,35
304,240,50253,2,0,L|368:208,1,70
304,208,50653,2,0,L|360:160,1,70
304,176,51053,2,0,L|352:104,1,70
304,144,51453,1,0,0:0:0:0:
280,128,51653,6,0,L|192:128,3,70
192,144,52453,2,0,L|192:224,3,70
256,192,53253,12,0,54453,0:0:0:0:
152,112,54853,6,0,L|248:112,3,70
224,144,55653,2,0,L|224:240,3,70
224,240,56453,2,0,L|304:240,3,70
328,240,57253,1,2,0:0:0:0:
352,224,57453,1,2,0:0:0:0:
328,240,57653,1,2,0:0:0:0:
352,224,57853,1,2,0:0:0:0:
336,200,58053,6,0,L|336:112,1,70
320,112,58453,2,0,L|240:112,1,70
248,144,58853,2,0,B|256:248|272:296|240:320|176:240,1,210
176,240,59653,5,4,0:0:0:0:
176,160,59953,5,4,0:0:0:0:
256,136,60253,5,4,0:0:0:0:
328,136,60653,6,0,L|328:224,2,70
352,152,61253,2,0,L|392:224,1,70
376,136,61653,2,0,L|440:184,1,70
440,216,62053,1,0,0:0:0:0:
432,216,62253,1,2,0:0:0:0:
424,224,62453,1,2,0:0:0:0:
416,232,62653,1,2,0:0:0:0:
408,240,62853,2,0,L|256:216,1,140
264,248,63453,1,0,0:0:0:0:
232,256,63653,2,0,L|128:200,3,70,2|2|2|2,0:0|0:0|0:0|0:0,0:0:0:0:
152,200,64453,6,0,P|152:128|192:136,1,70
160,136,64853,2,0,B|232:160|232:176|208:192|200:216,1,70
224,200,65253,1,0,0:0:0:0:
256,192,65453,2,0,L|256:120,2,70,2|2|2,0:0|0:0|0:0,0:0:0:0:
288,192,66053,2,0,B|376:200|400:224|400:264|336:304,1,140
352,264,66653,1,0,0:0:0:0:
320,264,66853,2,0,L|208:264,1,70
224,264,67253,1,4,0:0:0:0:
144,264,67653,6,0,L|144:176,1,70
168,192,68053,2,0,L|168:104,1,70
168,96,68453,1,0,0:0:0:0:
176,96,68653,1,8,0:0:0:0:
184,96,68853,1,0,0:0:0:0:
192,96,69053,1,8,0:0:0:0:
200,96,69253,2,0,P|288:96|296:112,1,70
272,96,69653,2,0,B|312:160|312:88|328:176,1,70
312,168,70053,2,0,L|312:248,1,70,0|2,0:0|0:0,0:0:0:0:
312,264,70453,1,2,0:0:0:0:
312,264,70653,1,2,0:0:0:0:
288,280,70853,6,0,L|208:272,3,70
208,248,71653,2,0,L|320:176,3,70
288,192,72453,1,0,0:0:0:0:
304,144,72853,1,2,0:0:0:0:
304,120,73053,2,2,B|176:120|176:136|144:136|104:144|112:168|120:184|128:224,1,210
192,200,74053,1,4,0:0:0:0:
288,200,74653,6,0,L|336:200,2,35
288,200,75053,1,0,0:0:0:0:
288,200,75453,1,0,0:0:0:0:
288,200,75653,2,0,B|304:64|144:88,1,210
160,112,76453,2,0,B|160:192|160:264|240:304,1,210
256,192,77253,12,0,78053,0:0:0:0:
256,192,78253,5,0,0:0:0:0:
256,192,78453,1,0,0:0:0:0:
256,192,78653,1,0,0:0:0:0:
256,192,78853,2,2,B|288:272|288:296|272:312|192:304,1,140
216,296,79453,2,2,P|152:232|160:184,1,140
208,144,80253,6,0,L|248:112,2,35,0|0|4,0:0|0:0|0:0,0:0:0:0:
208,144,80653,1,0,0:0:0:0:
208,200,80853,2,2,L|368:200,1,140
348,200,81453,1,0,0:0:0:0:
348,200,81653,1,0,0:0:0:0:
348,200,81853,1,0,0:0:0:0:
400,248,82053,2,0,L|304:248,1,70
304,248,82453,2,0,L|232:248,1,70
208,248,82853,2,0,L|136:248,1,70
112,248,83253,1,8,0:0:0:0:
112,248,83453,1,8,0:0:0:0:
112,248,83653,2,0,L|112:128,1,70
256,192,84053,12,0,84853,0:0:0:0:
256,80,85053,5,0,0:0:0:0:
256,80,85253,1,0,0:0:0:0:
256,80,85453,1,0,0:0:0:0:
256,80,85653,1,0,0:0:0:0:
256,80,85853,2,2,L|256:232,1,140
256,220,86453,1,4,0:0:0:0:
256,192,86853,12,4,89253,0:0:0:0:
256,192,89453,5,6,0:0:0:0:
256,192,89653,1,4,0:0:0:0:
