osu file format v9

[General]
AudioFilename: 1925 [Nobunaga].mp3
AudioLeadIn: 0
PreviewTime: 13825
Countdown: 0
SampleSet: Soft
StackLeniency: 0.7
Mode: 0
LetterboxInBreaks: 0

[Editor]
DistanceSpacing: 0
BeatDivisor: 3
GridSize: 8

[Metadata]
Title:1925
Artist:Nobunaga
Creator:Shiirn
Version:Normal
Source:
Tags:T-pocket Hatsune Miku buchiko Vocaloid Yuzuki Riyu

[Difficulty]
HPDrainRate:2
CircleSize:3
OverallDifficulty:2
ApproachRate:4
SliderMultiplier:1.23
SliderTickRate:1

[Events]
//Background and Video events
Video,0,"default.flv"
0,0,"9aET.jpg"
//Break Periods
2,58596,70790
2,142396,154790
//Storyboard Layer 0 (Background)
//Storyboard Layer 1 (Fail)
//Storyboard Layer 2 (Pass)
//Storyboard Layer 3 (Foreground)
//Storyboard Sound Samples
//Background Colour Transformations
3,100,163,162,255

[TimingPoints]
1825,428.571428571429,4,2,1,35,1,0

[Colours]
Combo1 : 216,105,105
Combo2 : 220,188,78
Combo3 : 215,225,77

[HitObjects]
383,326,15539,2,0,B|415:286|407:206,1,123,2|0
344,88,16396,2,0,B|312:128|320:208,1,123,0|8
192,208,17253,2,0,B|199:130|167:90,1,123,2|8
104,211,18110,2,0,B|96:288|128:328,1,123
216,224,18967,6,0,B|248:104,1,123,0|2
336,208,19824,2,0,B|304:328,1,123,0|8
432,295,20682,6,0,B|472:248|444:179,1,123,2|8
407,96,21396,2,0,B|344:112|286:90,1,123,2|0
256,56,21967,1,2
118,57,22396,6,0,B|64:104|76:166,1,123,0|2
64,304,23253,1,0
184,240,23682,1,8
288,320,24110,6,0,B|342:273|329:211,1,123,2|8
342,73,24967,1,0
222,137,25396,1,0
120,48,25825,2,0,B|56:72|56:144,1,123,2|0
104,272,26682,2,0,B|168:248|168:176,1,123,2|8
256,72,27539,5,0
320,192,27967,1,2
256,312,28396,1,0
192,192,28824,1,8
256,72,29253,6,0,B|384:32|480:136,1,246,2|0
256,288,30967,2,0,B|128:328|32:224,1,246,0|2
136,136,32253,1,0
256,72,32682,6,0,B|384:32|480:136,1,246,0|2
256,288,34396,2,0,B|128:328|32:224,1,246,0|2
128,128,35682,1,2
128,128,36110,2,0,B|157:194|228:174,1,123
360,136,36967,2,0,B|330:69|259:89,1,123
152,16,37825,6,0,B|88:112|160:192|120:256,1,246,0|2
216,344,39110,1,0
352,352,39539,2,0,B|420:283|399:184|309:154,1,246,0|2
256,280,40825,1,0
256,280,41682,6,0,B|184:360|96:344|64:232|224:120|112:80,1,369
48,192,43396,1,0
8,320,43825,1,0
136,288,44253,1,8
136,288,44682,6,0,B|256:312,1,123,0|2
384,280,45539,1,0
488,192,45967,1,8
432,72,46396,6,0,B|312:48,1,123,0|8
184,80,47253,1,0
80,168,47681,1,8
104,304,48110,6,0,B|136:280|184:304|224:288,2,123,0|2|0
32,192,49396,1,8
104,80,49825,2,0,B|136:104|184:80|224:96,2,123,0|8|0
32,192,51110,1,8
168,191,51539,6,0,B|176:128|237:97,1,123,0|2
344,16,52396,2,0,B|405:46|413:110,1,123,0|8
376,240,53253,2,0,B|320:208|256:224,1,123,0|8
256,360,54110,1,2
112,312,54539,1,8
48,192,54967,5,2
136,88,55396,2,0,B|176:128|160:208,1,123,2|0
256,104,56253,1,8
351,203,56682,2,0,B|336:128|376:88,1,123,0|8
376,87,57539,1,8
376,87,57967,1,8
473,175,58396,5,4
256,352,72110,6,0,B|256:224,1,123,2|0
384,192,72967,1,0
296,88,73396,1,8
216,56,73682,2,0,B|184:128|120:120,1,123,2|2
80,144,74253,2,0,B|40:264,1,123,8|2
160,328,75110,1,2
256,232,75539,6,0,B|288:256|288:256|328:248|360:288,1,123,0|2
488,240,76396,2,0,B|456:216|456:216|416:224|384:184,1,123,0|8
408,104,77110,2,0,B|368:96|368:96|336:120|288:120,1,123,2|0
248,112,77682,1,2
256,248,78110,2,0,B|128:272,1,123,2|8
40,176,78967,5,0
152,112,79396,1,2
288,152,79825,1,0
400,88,80253,1,2
400,224,80682,5,0
288,288,81111,1,2
152,248,81540,1,0
40,312,81968,1,2
168,352,82396,6,0,B|208:328|208:328|232:296|280:304,1,123,2|8
408,264,83253,2,0,B|368:240|368:240|344:208|296:216,1,123,0|8
256,88,84110,6,0,B|384:112,2,123
376,110,85825,6,0,B|424:152|416:221,1,123,0|2
324,320,86682,1,0
188,320,87110,1,2
95,221,87539,2,0,B|88:152|135:110,1,123,0|2
256,48,88396,6,0,B|256:184,1,123,0|2
160,256,89253,2,0,B|208:352|256:304|304:352|352:256,2,246
192,124,91396,1,0
320,124,91825,1,2
128,316,92682,6,0,B|80:280|96:204,1,123
168,88,93539,1,0
256,188,93967,2,0,B|256:312,1,123
388,288,94825,1,0
460,171,95254,2,0,B|475:95|427:59,1,123
292,60,96110,6,0,B|288:176|168:136|140:244,1,246,2|0
224,348,97396,2,0,B|228:232|348:272|376:164,1,246,0|2
256,192,100825,5,8
256,192,101253,2,0,B|284:136|348:116,1,123,0|2
259,195,102110,2,0,B|231:139|167:119,1,123,0|8
56,196,102967,5,0
120,316,103396,1,8
256,328,103825,1,0
388,296,104253,2,0,B|440:172,1,123,8|0
376,60,105110,6,0,B|324:184,1,123,8|0
258,57,105967,1,8
140,120,106396,2,0,B|80:116|44:184,1,123,0|8
56,320,107253,2,0,B|116:324|152:256,1,123,0|8
244,156,108110,6,0,B|304:152|340:220,1,123,0|2
328,356,108967,2,0,B|268:360|232:292,1,123,0|8
120,212,109825,1,0
216,116,110253,1,8
328,184,110682,1,0
424,104,111110,6,0,B|460:124|452:180,1,82,2|8
428,216,111539,2,0,B|384:260|400:348,2,123,2|2|2
312,144,112825,1,8
192,84,113253,6,0,B|64:128,2,123
75,125,114967,6,0,B|40:176|67:244,1,123
184,176,115825,2,0,B|219:226|191:294,1,123
320,320,116682,1,0
448,352,117110,1,0
480,224,117539,1,0
352,192,117967,1,0
320,320,118396,6,0,B|184:353|83:353|15:286|82:251|-18:184|83:117|15:83|83:15|184:15|320:49,1,738,2|0
512,192,121825,6,0,B|464:232|392:228,1,123
280,160,122682,1,0
228,284,123110,1,0
100,244,123539,6,0,B|148:204|220:208,1,123
332,276,124396,1,0
452,336,124825,2,0,B|404:296|411:225,1,123
332,276,125539,6,0,B|277:310|287:383,2,123
312,232,126539,2,0,B|172:244,1,123
116,292,127253,6,0,B|80:232|128:176,2,123
136,336,128253,2,0,B|278:325,1,123
384,276,129110,1,0
492,192,129539,1,0
384,108,129967,1,0
256,60,130396,6,0,B|134:71,1,123
24,152,131253,2,0,B|84:172|144:148,1,123
208,264,132110,5,0
344,264,132539,1,0
208,264,132967,1,0
344,264,133396,1,0
240,176,133825,5,0
376,176,134254,1,0
240,176,134682,1,0
376,176,135111,1,0
352,48,135539,6,0,B|240:72|112:16,1,246
72,136,136825,1,0
48,272,137253,2,0,B|96:296|168:272,1,123
216,144,138110,2,0,B|287:120|335:144,1,123
456,88,138967,6,0,B|488:208|416:328,1,246
336,216,140253,1,0
328,80,140682,2,0,B|232:160|96:120,1,246,0|10
256,40,156110,6,0,B|272:160,1,123,10|0
168,80,156967,2,0,B|152:200,1,123,2|8
256,288,157825,2,0,B|312:320|376:304,2,123,0|8|0
368,216,159110,1,8
368,216,159539,6,0,B|312:184|248:200,2,123,0|2|0
256,288,160824,1,8
136,344,161253,2,0,B|88:304|112:232,1,123,0|8
240,192,162110,2,0,B|264:119|216:79,1,123,2|0
336,16,162967,5,0
432,104,163396,1,2
408,240,163825,1,0
280,288,164253,1,8
312,152,164682,5,0
176,144,165111,1,8
102,259,165540,1,2
159,383,165968,1,8
256,288,166396,6,0,B|256:152,1,123,2|2
392,192,167253,1,0
424,320,167682,1,0
312,240,168110,2,0,B|320:304|256:344,3,123,0|8|2|8
258,342,169825,6,0,B|242:222,1,123,10|0
344,304,170682,2,0,B|360:184,1,123,2|8
256,96,171540,2,0,B|200:64|136:80,2,123,0|8|0
144,168,172825,1,8
144,168,173254,6,0,B|200:200|264:184,2,123,0|2|0
256,96,174539,1,8
376,40,174968,2,0,B|424:80|400:152,1,123,0|8
272,192,175825,2,0,B|247:264|295:304,1,123,2|0
176,368,176682,5,0
80,280,177111,1,2
104,144,177540,1,0
232,96,177968,1,8
200,232,178397,5,0
336,240,178826,1,8
410,125,179253,1,2
352,8,179683,1,8
256,96,180111,6,0,B|256:232,1,123,2|2
120,192,180968,1,0
88,64,181397,1,0
224,56,181825,2,0,B|285:94|277:158,3,123,0|8|2|8
256,296,183539,5,4
