osu file format v14

[General]
AudioFilename: mitani nana shiroi yuki no princess wa.mp3
AudioLeadIn: 0
PreviewTime: 190153
Countdown: 0
SampleSet: Normal
StackLeniency: 0.5
Mode: 0
LetterboxInBreaks: 0
WidescreenStoryboard: 0

[Editor]
Bookmarks: 6478,21028,42628,61478,61831,80878,90628,112228,131428,150478,160081,171028,181828,191428,208228,213028,232078,246478,259228
DistanceSpacing: 1
BeatDivisor: 4
GridSize: 4
TimelineZoom: 1.2

[Metadata]
Title:Shiroi Yuki no Princess wa
TitleUnicode:白い雪のプリンセスは
Artist:Noboru feat.Mitani Nana
ArtistUnicode:のぼる↑ feat.実谷なな
Creator:Natsu
Version:Snow White
Source:
Tags:vocaloid vocaloid2 hatsune miku Noboru-P blanca nieves apple poison Momochikun SnowNiNo_
BeatmapID:946082
BeatmapSetID:439609

[Difficulty]
HPDrainRate:6
CircleSize:4
OverallDifficulty:9
ApproachRate:9.5
SliderMultiplier:1.8
SliderTickRate:2

[Events]
//Background and Video events
0,0,"K.jpg",0,0
//Break Periods
//Storyboard Layer 0 (Background)
//Storyboard Layer 1 (Fail)
//Storyboard Layer 2 (Pass)
//Storyboard Layer 3 (Foreground)
//Storyboard Sound Samples

[TimingPoints]
628,300,4,1,1,15,1,0
1678,-125,4,1,1,15,0,0
6478,-100,4,1,2,70,0,0
6553,-100,4,1,2,50,0,0
7828,-100,4,2,2,50,0,0
7978,-100,4,1,2,50,0,0
10078,-76.9230769230769,4,1,2,50,0,0
11278,-100,4,1,2,50,0,0
14878,-76.9230769230769,4,1,2,50,0,0
16078,-100,4,1,2,50,0,0
17128,-100,4,3,1,50,0,0
17428,-100,4,1,2,40,0,0
17578,-100,4,3,1,30,0,0
18628,-100,4,1,2,60,0,0
18928,-100,4,1,1,45,0,0
19228,-100,4,1,1,35,0,0
19528,-100,4,1,1,25,0,0
19678,-100,4,1,2,60,0,0
20128,-100,4,3,1,60,0,0
20728,-100,4,1,2,60,0,0
21028,-100,4,1,2,40,0,0
30478,-100,4,3,1,40,0,0
30628,-100,4,1,2,40,0,0
36778,-100,4,3,1,40,0,0
36928,-100,4,1,2,40,0,0
37828,-100,4,1,2,50,0,0
38878,-100,4,3,1,40,0,0
39028,-100,4,1,2,50,0,0
40078,-100,4,3,1,40,0,0
40228,-100,4,1,2,50,0,0
42628,-111.111111111111,4,1,2,50,0,0
51028,-76.9230769230769,4,1,2,50,0,0
52228,-111.111111111111,4,1,2,50,0,0
55378,-111.111111111111,4,3,1,50,0,0
55528,-111.111111111111,4,1,2,50,0,0
58528,-111.111111111111,4,1,2,60,0,0
58978,-111.111111111111,4,3,1,80,0,0
59428,-111.111111111111,4,1,2,50,0,0
60328,-111.111111111111,4,3,1,70,0,0
60628,-100,4,1,1,50,0,0
60928,-83.3333333333333,4,1,1,50,0,0
61228,-71.4285714285714,4,1,1,50,0,0
61528,-62.5,4,1,1,50,0,0
61828,-55.5555555555556,4,1,1,50,0,1
62128,-100,4,1,2,45,0,1
63028,-100,4,1,2,60,0,1
66028,-83.3333333333333,4,1,2,60,0,1
66328,-71.4285714285714,4,1,2,60,0,1
66628,-62.5,4,1,2,60,0,1
66928,-100,4,1,2,60,0,1
68428,-100,4,3,1,50,0,1
68728,-100,4,1,2,60,0,1
68878,-100,4,3,1,50,0,1
69028,-100,4,1,2,60,0,1
70678,-100,4,3,1,50,0,1
71353,-100,4,3,1,50,0,0
71428,-71.4285714285714,4,1,2,60,0,1
71728,-100,4,1,2,60,0,1
74278,-100,4,3,1,50,0,1
74578,-100,4,1,2,60,0,1
76078,-100,4,3,1,60,0,1
76228,-100,4,1,2,60,0,1
79078,-100,4,1,3,40,0,1
79828,-100,4,1,2,60,0,1
80878,-100,4,1,2,60,0,0
80953,-100,4,1,2,50,0,0
87778,-100,4,3,1,60,0,0
88228,-76.9230769230769,4,1,2,70,0,0
88378,-76.9230769230769,4,1,2,20,0,0
88678,-76.9230769230769,4,1,2,70,0,0
88828,-76.9230769230769,4,1,2,20,0,0
89128,-76.9230769230769,4,1,2,70,0,0
89278,-76.9230769230769,4,1,2,20,0,0
89578,-76.9230769230769,4,1,2,70,0,0
89728,-76.9230769230769,4,1,2,20,0,0
89878,-76.9230769230769,4,3,1,20,0,0
90028,-76.9230769230769,4,1,2,70,0,0
90478,-76.9230769230769,4,1,2,20,0,0
90628,-100,4,1,2,40,0,0
98128,-100,4,1,3,25,0,0
98578,-100,4,1,2,40,0,0
98878,-100,4,3,1,40,0,0
99028,-200,4,1,1,40,0,0
99103,-200,4,1,1,10,0,0
99478,-200,4,1,1,40,0,0
99553,-200,4,1,1,10,0,0
100228,-100,4,1,2,50,0,0
104578,-100,4,3,1,40,0,0
104728,-100,4,1,2,50,0,0
108478,-100,4,3,1,40,0,0
108628,-100,4,1,2,50,0,0
109678,-100,4,3,1,40,0,0
109828,-100,4,1,2,50,0,0
112228,-111.111111111111,4,1,2,50,0,0
120628,-76.9230769230769,4,1,2,60,0,0
121828,-111.111111111111,4,1,2,50,0,0
124978,-111.111111111111,4,3,1,50,0,0
125128,-111.111111111111,4,1,2,50,0,0
128128,-111.111111111111,4,1,2,60,0,0
128578,-111.111111111111,4,3,1,80,0,0
129028,-111.111111111111,4,1,2,50,0,0
129928,-111.111111111111,4,3,1,70,0,0
130228,-99.9999999999999,4,1,1,50,0,0
130528,-83.3333333333333,4,1,1,50,0,0
130828,-71.4285714285714,4,1,1,50,0,0
131128,-62.5,4,1,1,50,0,0
131428,-55.5555555555556,4,1,1,50,0,1
131728,-100,4,1,2,45,0,1
132628,-100,4,1,2,60,0,1
135628,-83.3333333333333,4,1,2,60,0,1
135928,-71.4285714285714,4,1,2,60,0,1
136228,-62.5,4,1,2,60,0,1
136528,-100,4,1,2,60,0,1
138028,-100,4,3,1,50,0,1
138328,-100,4,1,2,60,0,1
138478,-100,4,3,1,50,0,1
138628,-100,4,1,2,60,0,1
140278,-100,4,3,1,50,0,1
140953,-100,4,3,1,50,0,0
141028,-71.4285714285714,4,1,2,60,0,1
141328,-100,4,1,2,60,0,1
143878,-100,4,3,1,50,0,1
144028,-100,4,1,2,60,0,1
145678,-100,4,3,1,50,0,1
145828,-100,4,1,2,60,0,1
148678,-100,4,1,3,40,0,1
149428,-100,4,1,2,60,0,1
150478,-100,4,1,2,60,0,0
150778,-100,4,1,3,50,0,0
151828,-100,4,2,3,50,0,0
151978,-100,4,1,3,50,0,0
162778,-100,4,1,3,40,0,0
164728,-100,4,1,3,50,0,0
167428,-100,4,1,3,40,0,0
171028,-100,4,1,1,40,0,0
171328,-111.111111111111,4,1,1,35,0,0
171628,-125,4,1,1,30,0,0
171928,-142.857142857143,4,1,1,30,0,0
172228,-142.857142857143,4,1,1,50,0,0
172528,-142.857142857143,4,1,2,60,0,0
173428,-142.857142857143,4,1,1,50,0,0
173728,-142.857142857143,4,1,2,60,0,0
174628,-142.857142857143,4,1,1,50,0,0
174928,-142.857142857143,4,1,2,60,0,0
175828,-142.857142857143,4,1,1,50,0,0
176128,-142.857142857143,4,1,2,60,0,0
177028,-142.857142857143,4,1,1,50,0,0
177328,-142.857142857143,4,1,2,60,0,0
178228,-142.857142857143,4,1,1,50,0,0
178528,-142.857142857143,4,1,2,60,0,0
179428,-142.857142857143,4,1,1,50,0,0
179728,-142.857142857143,4,1,2,60,0,0
180628,-142.857142857143,4,1,2,50,0,0
181828,-111.111111111111,4,1,2,50,0,0
184978,-111.111111111111,4,3,1,40,0,0
185128,-111.111111111111,4,1,2,50,0,0
186928,-111.111111111111,4,3,1,40,0,0
187078,-111.111111111111,4,1,2,50,0,0
188128,-111.111111111111,4,1,2,60,0,0
188578,-111.111111111111,4,1,3,40,0,0
189028,-111.111111111111,4,1,2,50,0,0
189928,-111.111111111111,4,3,1,70,0,0
190228,-111.111111111111,4,1,1,25,0,0
190528,-125,4,1,1,25,0,0
190828,-142.857142857143,4,1,1,25,0,0
191128,-142.857142857143,4,1,2,25,0,0
191428,-166.666666666666,4,1,1,35,0,0
191503,-166.666666666666,4,1,1,5,0,0
191728,-166.666666666666,4,1,1,20,0,0
192103,-166.666666666666,4,1,1,5,0,0
192253,-166.666666666666,4,1,1,20,0,0
195103,-166.666666666666,4,1,1,5,0,0
195253,-166.666666666666,4,1,1,20,0,0
196303,-166.666666666666,4,1,1,5,0,0
196453,-166.666666666666,4,1,1,20,0,0
199753,-166.666666666666,4,1,1,5,0,0
200053,-166.666666666666,4,1,1,20,0,0
201103,-166.666666666666,4,1,1,5,0,0
201253,-166.666666666666,4,1,1,20,0,0
201703,-166.666666666666,4,1,1,5,0,0
201853,-166.666666666666,4,1,1,20,0,0
204553,-166.666666666666,4,1,1,5,0,0
204703,-166.666666666666,4,1,1,20,0,0
205903,-166.666666666666,4,1,1,5,0,0
206053,-166.666666666666,4,1,1,20,0,0
207703,-166.666666666666,4,1,1,5,0,0
207853,-166.666666666666,4,1,1,20,0,0
208228,-99.9999999999998,4,1,2,50,0,0
210778,-99.9999999999998,4,1,2,40,0,0
211078,-99.9999999999998,4,1,2,50,0,0
211228,-99.9999999999998,4,1,2,40,0,0
211528,-99.9999999999998,4,1,2,60,0,0
211828,-99.9999999999998,4,1,1,50,0,0
212128,-83.3333333333333,4,1,1,50,0,0
212428,-71.4285714285714,4,1,1,50,0,0
212728,-62.5,4,1,1,50,0,0
213028,-55.5555555555556,4,1,1,50,0,1
213328,-100,4,1,2,45,0,1
214228,-100,4,1,2,60,0,1
217228,-83.3333333333333,4,1,2,60,0,1
217528,-71.4285714285714,4,1,2,60,0,1
217828,-62.5,4,1,2,60,0,1
218128,-100,4,1,2,60,0,1
219628,-100,4,3,1,50,0,1
219928,-100,4,1,2,60,0,1
220078,-100,4,3,1,50,0,1
220228,-100,4,1,2,60,0,1
221878,-100,4,3,1,50,0,1
222553,-100,4,3,1,50,0,0
222628,-71.4285714285714,4,1,2,60,0,1
222928,-100,4,1,2,60,0,1
225478,-100,4,3,1,50,0,1
225628,-100,4,1,2,60,0,1
227278,-100,4,3,1,50,0,1
227428,-100,4,1,2,60,0,1
230278,-100,4,1,3,40,0,1
232078,-100,4,1,2,50,0,0
232528,-100,4,1,3,40,0,0
232828,-100,4,1,2,50,0,0
239728,-100,4,1,3,40,0,0
240028,-100,4,1,2,50,0,0
240928,-100,4,1,3,40,0,0
241378,-100,4,1,2,50,0,0
242128,-100,4,1,3,40,0,0
242428,-100,4,1,2,50,0,0
242728,-100,4,1,3,40,0,0
242878,-100,4,1,2,50,0,0
243328,-100,4,1,3,40,0,0
243628,-100,4,1,2,50,0,0
245128,-100,4,1,3,40,0,0
245278,-100,4,1,2,50,0,0
248128,-100,4,1,3,40,0,0
248428,-100,4,1,2,50,0,0
250528,-100,4,1,3,40,0,0
251278,-100,4,1,2,50,0,0
251728,-100,4,1,3,40,0,0
252028,-100,4,1,2,50,0,0
253078,-100,4,1,3,40,0,0
253828,-100,4,1,2,50,0,0
253978,-100,4,1,2,20,0,0
254278,-100,4,1,2,50,0,0
254428,-100,4,1,2,20,0,0
254728,-225,4,1,2,50,0,0
254803,-100,4,1,2,5,0,0
259228,-100,4,1,2,20,0,0

[Colours]
Combo1 : 255,136,139
Combo2 : 204,0,5

[HitObjects]
32,32,1678,22,0,L|112:32,1,72,2|0,0:0|0:0,0:0:0:0:
216,96,1978,1,2,0:0:0:0:
95,144,2128,2,0,P|87:178|96:213,1,72,2|0,0:0|0:0,0:0:0:0:
264,155,2428,2,0,P|292:92|257:32,1,144,2|0,0:0|0:0,0:0:0:0:
231,226,2878,6,0,P|265:233|299:223,1,72,2|0,0:0|0:0,0:0:0:0:
432,168,3178,1,2,0:0:0:0:
432,168,3328,2,0,P|397:160|363:170,1,72,2|0,0:0|0:0,0:0:0:0:
266,312,3628,2,0,P|325:284|301:224,1,144,2|0,0:0|0:0,0:0:0:0:
352,368,4078,6,0,L|432:368,1,72,2|0,0:0|0:0,0:0:0:0:
266,312,4378,1,2,0:0:0:0:
266,312,4528,2,0,L|183:312,1,72,2|0,0:0|0:0,0:0:0:0:
352,368,4828,2,0,P|367:299|335:236,1,144,2|0,0:0|0:0,0:0:0:0:
200,192,5278,6,0,L|120:192,1,72,2|0,0:0|0:0,0:0:0:0:
20,104,5578,1,2,0:0:0:0:
20,104,5728,2,0,L|104:104,1,72,2|0,0:0|0:0,0:0:0:0:
224,64,6028,2,0,L|376:64,1,144,2|0,0:0|0:0,0:0:0:0:
448,288,6478,6,0,P|502:323|471:265,1,180,6|0,0:0|0:0,0:0:0:0:
360,192,6928,2,0,L|270:192,1,90,8|0,0:0|0:0,0:0:0:0:
448,288,7228,1,2,0:0:0:0:
488,164,7378,1,0,0:0:0:0:
360,192,7528,1,8,0:0:0:0:
448,288,7678,6,0,L|540:288,1,90,6|0,0:0|0:0,0:0:0:0:
360,192,7978,1,0,0:0:0:0:
320,316,8128,1,8,0:0:0:0:
448,288,8278,1,0,0:0:0:0:
264,140,8428,5,2,0:0:0:0:
212,298,8578,1,0,0:0:0:0:
376,263,8728,1,8,0:0:0:0:
176,234,8878,6,0,L|84:234,1,90,6|0,0:0|2:0,0:0:0:0:
264,140,9178,1,0,0:0:0:0:
303,263,9328,1,8,0:0:0:0:
176,234,9478,1,0,0:0:0:0:
372,80,9628,5,2,0:0:0:0:
427,254,9778,1,0,0:0:0:0:
247,213,9928,1,8,0:0:0:0:
372,80,10078,6,0,B|372:176|372:176|386:161,1,116.999994644165,6|0,0:0|2:0,0:0:0:0:
476,48,10378,1,0,0:0:0:0:
268,104,10528,1,8,0:0:0:0:
140,304,10678,6,0,B|140:208|140:208|125:222,1,116.999994644165,6|0,0:0|2:0,0:0:0:0:
36,336,10978,1,0,0:0:0:0:
244,280,11128,1,8,0:0:0:0:
52,192,11278,6,0,P|40:149|54:107,1,90,6|0,0:0|2:0,0:0:0:0:
256,64,11578,1,0,0:0:0:0:
124,152,11728,1,12,0:0:0:0:
276,240,11878,1,0,0:0:0:0:
188,108,12028,1,2,0:0:0:0:
100,264,12178,1,0,0:0:0:0:
232,176,12328,1,8,0:0:0:0:
252,352,12478,6,0,L|342:352,1,90,6|0,0:0|2:0,0:0:0:0:
408,152,12778,1,0,0:0:0:0:
276,240,12928,1,8,0:0:0:0:
428,328,13078,1,0,0:0:0:0:
340,196,13228,1,2,0:0:0:0:
252,352,13378,1,0,0:0:0:0:
384,264,13528,1,8,0:0:0:0:
232,176,13678,6,0,L|142:176,1,90,6|0,0:0|2:0,0:0:0:0:
16,252,13978,1,0,0:0:0:0:
142,176,14128,1,8,0:0:0:0:
78,329,14278,1,0,0:0:0:0:
142,176,14428,1,2,0:0:0:0:
185,358,14578,1,0,0:0:0:0:
142,176,14728,1,8,0:0:0:0:
276,288,14878,6,0,B|372:288|372:288|357:302,1,116.999994644165,6|0,0:0|2:0,0:0:0:0:
185,358,15178,1,0,0:0:0:0:
332,192,15328,1,8,0:0:0:0:
141,246,15478,6,0,B|45:246|45:246|60:232,1,116.999994644165,6|0,0:0|2:0,0:0:0:0:
232,176,15778,1,0,0:0:0:0:
85,342,15928,1,8,0:0:0:0:
32,136,16078,6,0,L|32:40,1,90,6|0,0:0|2:0,0:0:0:0:
160,92,16378,1,0,0:0:0:0:
160,92,16528,2,0,P|202:104|244:90,1,90,8|0,0:0|2:0,0:0:0:0:
372,32,16828,1,2,0:0:0:0:
372,32,16978,2,0,L|372:132,1,90,8|8,0:0|0:0,0:0:0:0:
372,196,17203,1,8,0:0:0:0:
372,196,17278,1,8,0:0:0:0:
140,304,17428,5,8,0:0:0:0:
300,367,17578,1,8,0:0:0:0:
304,323,17653,1,8,0:0:0:0:
288,282,17728,1,8,0:0:0:0:
194,165,17878,1,8,0:0:0:0:
140,304,18028,1,8,0:0:0:0:
287,208,18178,1,8,0:0:0:0:
328,191,18253,1,8,0:0:0:0:
372,196,18328,1,8,0:0:0:0:
420,328,18478,1,8,0:0:0:0:
140,304,18628,5,4,0:0:0:0:
300,72,18778,1,4,0:0:0:0:
364,260,18928,5,2,0:0:0:0:
348,336,19228,1,2,0:0:0:0:
276,360,19528,1,2,0:0:0:0:
276,360,19678,6,0,B|268:332|277:315|277:315|259:297|259:297|225:258|253:193,1,180,4|0,0:0|0:0,0:0:0:0:
368,152,20128,1,8,0:0:0:0:
144,232,20278,1,8,0:0:0:0:
373,174,20428,1,8,0:0:0:0:
138,209,20578,1,8,0:0:0:0:
229,69,20728,2,0,P|260:128|252:195,1,135,12|0,0:0|2:0,0:0:0:0:
212,256,21028,5,6,0:0:0:0:
85,327,21178,1,0,0:0:0:0:
143,130,21328,1,8,0:0:0:0:
14,198,21478,1,0,0:0:0:0:
189,353,21628,5,2,0:0:0:0:
316,281,21778,1,0,0:0:0:0:
120,224,21928,1,8,0:0:0:0:
249,155,22078,1,0,0:0:0:0:
408,312,22228,5,2,0:0:0:0:
281,383,22378,1,0,0:0:0:0:
339,186,22528,1,8,0:0:0:0:
212,256,22678,1,0,0:0:0:0:
408,312,22828,5,2,0:0:0:0:
483,189,22978,1,0,0:0:0:0:
339,186,23128,1,8,0:0:0:0:
281,383,23278,6,0,L|188:384,1,90,6|0,0:0|2:0,0:0:0:0:
28,280,23578,1,0,0:0:0:0:
168,280,23728,1,8,0:0:0:0:
28,364,23878,1,0,0:0:0:0:
28,200,24028,1,2,0:0:0:0:
100,324,24178,1,0,0:0:0:0:
168,192,24328,2,0,L|272:192,1,90,8|0,0:0|2:0,0:0:0:0:
100,240,24628,5,4,0:0:0:0:
168,92,24778,1,0,0:0:0:0:
168,280,24928,1,8,0:0:0:0:
244,120,25078,2,0,L|336:120,1,90,6|0,0:0|2:0,0:0:0:0:
168,192,25378,1,4,0:0:0:0:
256,40,25528,1,8,0:0:0:0:
312,200,25678,6,0,L|412:200,1,90,6|0,0:0|2:0,0:0:0:0:
408,312,25978,1,0,0:0:0:0:
256,244,26128,2,0,P|240:202|251:160,1,90,8|0,0:0|2:0,0:0:0:0:
412,96,26428,5,2,0:0:0:0:
312,200,26578,1,0,0:0:0:0:
272,60,26728,1,8,0:0:0:0:
168,192,26878,6,0,L|68:192,1,90,6|0,0:0|2:0,0:0:0:0:
32,72,27178,1,0,0:0:0:0:
224,148,27328,2,0,P|240:190|229:232,1,90,8|0,0:0|2:0,0:0:0:0:
68,296,27628,5,2,0:0:0:0:
168,192,27778,1,0,0:0:0:0:
208,332,27928,1,8,0:0:0:0:
75,215,28078,6,0,P|63:172|79:130,1,90,6|0,0:0|2:0,0:0:0:0:
152,272,28378,1,0,0:0:0:0:
48,368,28528,1,8,0:0:0:0:
224,172,28678,5,2,0:0:0:0:
341,333,28828,1,2,0:0:0:0:
152,272,28978,1,0,0:0:0:0:
341,210,29128,1,8,0:0:0:0:
224,371,29278,1,0,0:0:0:0:
341,210,29428,6,0,L|432:196,1,90,6|0,0:0|2:0,0:0:0:0:
256,272,29728,1,8,0:0:0:0:
152,272,29878,2,0,L|61:286,1,90,2|0,0:0|2:0,0:0:0:0:
128,140,30178,1,0,0:0:0:0:
256,272,30328,1,8,0:0:0:0:
324,72,30478,5,8,0:0:0:0:
324,72,30553,1,8,0:0:0:0:
324,72,30628,1,4,0:0:0:0:
128,140,30778,1,0,0:0:0:0:
324,208,30928,1,8,0:0:0:0:
256,9,31078,1,0,0:0:0:0:
187,208,31228,1,2,0:0:0:0:
383,140,31378,1,0,0:0:0:0:
187,72,31528,1,8,0:0:0:0:
256,272,31678,5,0,0:0:0:0:
383,140,31828,1,2,0:0:0:0:
357,321,31978,1,0,0:0:0:0:
270,159,32128,1,8,0:0:0:0:
434,239,32278,1,0,0:0:0:0:
253,304,32428,5,2,0:0:0:0:
135,217,32578,1,4,0:0:0:0:
270,159,32728,1,8,0:0:0:0:
152,320,32878,6,0,L|56:320,1,90,6|0,0:0|2:0,0:0:0:0:
226,220,33178,1,0,0:0:0:0:
276,336,33328,1,8,0:0:0:0:
152,320,33478,1,0,0:0:0:0:
316,248,33628,2,0,B|392:248|392:248|383:236,1,90,2|0,0:0|0:0,0:0:0:0:
196,136,33928,2,0,B|120:136|120:136|128:147,1,90,8|0,0:0|2:0,0:0:0:0:
256,288,34228,5,2,0:0:0:0:
256,100,34378,1,0,0:0:0:0:
192,248,34528,1,8,0:0:0:0:
320,135,34678,2,0,P|362:123|406:134,1,90,6|0,0:0|2:0,0:0:0:0:
488,324,34978,2,0,P|445:336|401:325,1,90,6|0,0:0|2:0,0:0:0:0:
192,248,35278,6,0,P|235:236|279:247,1,90,6|0,0:0|2:0,0:0:0:0:
316,368,35578,1,0,0:0:0:0:
192,248,35728,2,0,L|184:152,1,90,8|0,0:0|2:0,0:0:0:0:
72,259,36028,1,2,0:0:0:0:
206,367,36178,1,0,0:0:0:0:
87,382,36328,1,8,0:0:0:0:
192,248,36478,6,0,P|236:244|275:263,1,90,2|0,0:0|2:0,0:0:0:0:
87,382,36778,1,8,0:0:0:0:
87,382,36928,2,0,P|42:385|3:366,1,90,8|0,0:0|2:0,0:0:0:0:
192,248,37228,1,2,0:0:0:0:
206,367,37378,1,0,0:0:0:0:
72,259,37528,1,12,0:0:0:0:
87,382,37678,1,0,0:0:0:0:
192,248,37828,6,0,L|288:236,1,90,6|0,0:0|2:0,0:0:0:0:
392,144,38128,1,8,0:0:0:0:
332,300,38278,1,0,0:0:0:0:
443,208,38428,1,2,0:0:0:0:
304,160,38578,1,0,0:0:0:0:
420,284,38728,1,8,0:0:0:0:
281,236,38878,5,8,0:0:0:0:
281,236,38953,1,8,0:0:0:0:
281,236,39028,2,0,L|191:247,1,90,6|0,0:0|2:0,0:0:0:0:
304,160,39328,1,8,0:0:0:0:
256,336,39478,2,0,L|166:347,1,90,2|0,0:0|2:0,0:0:0:0:
24,364,39778,1,0,0:0:0:0:
140,272,39928,1,8,0:0:0:0:
24,184,40078,5,8,0:0:0:0:
24,184,40153,1,8,0:0:0:0:
24,184,40228,2,0,P|11:141|23:98,1,90,4|0,0:0|2:0,0:0:0:0:
148,24,40528,1,8,0:0:0:0:
256,120,40678,2,0,L|348:120,1,90,2|0,0:0|2:0,0:0:0:0:
472,36,40978,1,0,0:0:0:0:
476,180,41128,2,0,P|464:222|477:265,1,90,8|0,0:0|2:0,0:0:0:0:
352,376,41428,5,6,0:0:0:0:
496,337,41578,1,0,0:0:0:0:
270,363,41728,1,8,0:0:0:0:
415,324,41878,1,0,0:0:0:0:
252,278,42028,2,0,P|250:324|273:367,1,90,2|0,0:0|0:0,0:0:0:0:
415,324,42328,2,0,P|415:276|393:234,1,90,12|0,0:0|0:0,0:0:0:0:
256,120,42628,6,0,L|160:120,1,80.9999975280763,6|0,0:0|2:0,0:0:0:0:
25,200,42928,1,8,0:0:0:0:
101,274,43078,1,0,0:0:0:0:
193,224,43228,1,2,0:0:0:0:
175,120,43378,1,0,0:0:0:0:
71,106,43528,2,0,L|-9:100,1,80.9999975280763,8|0,0:0|2:0,0:0:0:0:
193,224,43828,6,0,L|273:229,1,80.9999975280763,6|0,0:0|0:0,0:0:0:0:
116,184,44128,1,8,0:0:0:0:
101,274,44278,2,0,L|95:354,1,80.9999975280763,2|0,0:0|2:0,0:0:0:0:
116,184,44578,1,0,0:0:0:0:
71,106,44728,2,0,L|76:25,1,80.9999975280763,8|0,0:0|2:0,0:0:0:0:
193,224,45028,6,0,L|187:304,1,80.9999975280763,6|0,0:0|2:0,0:0:0:0:
116,184,45328,1,8,0:0:0:0:
256,156,45478,1,0,0:0:0:0:
155,13,45628,1,2,0:0:0:0:
183,153,45778,1,0,0:0:0:0:
256,40,45928,2,0,L|344:40,1,80.9999975280763,8|0,0:0|2:0,0:0:0:0:
492,160,46228,6,0,L|404:160,1,80.9999975280763,6|0,0:0|2:0,0:0:0:0:
249,213,46528,1,8,0:0:0:0:
345,324,46678,2,0,P|355:285|349:245,1,80.9999975280763,2|0,0:0|2:0,0:0:0:0:
249,108,46978,1,0,0:0:0:0:
249,213,47128,1,8,0:0:0:0:
349,245,47278,1,0,0:0:0:0:
350,75,47428,6,0,P|350:32|370:-5,1,80.9999975280763,6|0,0:0|2:0,0:0:0:0:
411,160,47728,1,8,0:0:0:0:
249,213,47878,2,0,P|206:213|168:233,1,80.9999975280763,2|0,0:0|2:0,0:0:0:0:
349,245,48178,1,0,0:0:0:0:
249,108,48328,2,0,L|168:108,1,80.9999975280763,8|0,0:0|2:0,0:0:0:0:
411,160,48628,6,0,L|496:160,1,80.9999975280763,6|0,0:0|2:0,0:0:0:0:
349,245,48928,1,8,0:0:0:0:
276,316,49078,2,0,L|188:316,1,80.9999975280763,2|0,0:0|2:0,0:0:0:0:
76,360,49378,1,0,0:0:0:0:
104,235,49528,2,0,P|112:196|101:158,1,80.9999975280763,8|0,0:0|2:0,0:0:0:0:
20,24,49828,6,0,L|100:16,1,80.9999975280763,6|0,0:0|2:0,0:0:0:0:
256,116,50128,1,8,0:0:0:0:
176,20,50278,1,0,0:0:0:0:
176,172,50428,1,2,0:0:0:0:
328,52,50578,1,0,0:0:0:0:
160,96,50728,2,0,B|76:96,1,80.9999975280763,8|0,0:0|2:0,0:0:0:0:
346,124,51028,6,0,B|362:80|338:32|338:32|328:51,1,116.999994644165,6|0,0:0|2:0,0:0:0:0:
166,260,51328,2,0,B|150:304|174:352|174:352|184:333,1,116.999994644165,12|0,0:0|2:0,0:0:0:0:
160,96,51628,2,0,B|116:80|68:104|68:104|87:113,1,116.999994644165,6|0,0:0|2:0,0:0:0:0:
352,288,51928,2,0,B|396:304|444:280|444:280|424:270,1,116.999994644165,12|0,0:0|2:0,0:0:0:0:
200,192,52228,6,0,L|112:192,1,80.9999975280763,6|0,0:0|2:0,0:0:0:0:
0,40,52528,1,8,0:0:0:0:
100,12,52678,1,0,0:0:0:0:
128,108,52828,1,2,0:0:0:0:
28,136,52978,1,0,0:0:0:0:
100,12,53128,2,0,L|188:12,1,80.9999975280763,8|0,0:0|2:0,0:0:0:0:
336,100,53428,6,0,L|255:100,1,80.9999975280763,6|0,0:0|2:0,0:0:0:0:
404,60,53728,2,0,P|416:98|405:136,1,80.9999975280763,8|0,0:0|2:0,0:0:0:0:
256,192,54028,1,2,0:0:0:0:
336,100,54178,1,0,0:0:0:0:
188,232,54328,2,0,P|175:193|186:155,1,80.9999975280763,8|0,0:0|2:0,0:0:0:0:
324,288,54628,6,0,P|337:327|326:365,1,80.9999975280763,6|0,0:0|2:0,0:0:0:0:
136,344,54928,2,0,L|48:344,1,80.9999975280763,8|0,0:0|2:0,0:0:0:0:
188,232,55228,1,2,0:0:0:0:
288,368,55378,1,8,0:0:0:0:
288,368,55453,1,8,0:0:0:0:
288,368,55528,1,8,0:0:0:0:
136,344,55678,1,0,0:0:0:0:
308,264,55828,6,0,L|396:264,1,80.9999975280763,6|0,0:0|2:0,0:0:0:0:
492,368,56128,1,8,0:0:0:0:
389,264,56278,2,0,P|380:224|388:184,1,80.9999975280763,2|0,0:0|2:0,0:0:0:0:
480,96,56578,1,0,0:0:0:0:
340,128,56728,2,0,L|260:128,1,80.9999975280763,12|0,0:0|2:0,0:0:0:0:
100,128,57028,6,0,L|180:128,1,80.9999975280763,6|0,0:0|2:0,0:0:0:0:
340,128,57328,1,8,0:0:0:0:
188,202,57478,2,0,P|171:165|181:126,1,80.9999975280763,2|0,0:0|2:0,0:0:0:0:
308,55,57778,1,0,0:0:0:0:
418,138,57928,1,8,0:0:0:0:
292,192,58078,1,0,0:0:0:0:
392,60,58228,6,0,L|484:44,1,80.9999975280763,6|0,0:0|2:0,0:0:0:0:
292,192,58528,1,8,0:0:0:0:
228,40,58678,1,8,0:0:0:0:
392,60,58828,1,10,0:0:0:0:
143,254,58978,5,8,0:0:0:0:
360,316,59128,1,8,0:0:0:0:
304,98,59278,1,8,0:0:0:0:
360,316,59428,6,0,P|408:356|380:304,1,161.999995056153,6|0,0:0|2:0,0:0:0:0:
256,268,59878,1,0,0:0:0:0:
336,192,60028,2,0,L|336:96,1,80.9999975280763,6|0,0:0|2:0,0:0:0:0:
256,268,60328,5,8,0:0:0:0:
432,188,60478,1,8,0:0:0:0:
80,64,60628,6,0,L|184:64,1,90,6|0,0:0|0:0,0:0:0:0:
80,140,60928,6,0,L|192:140,1,107.999996704102,2|0,0:0|0:0,0:0:0:0:
80,216,61228,6,0,L|220:216,1,125.999996154785,2|0,0:0|0:0,0:0:0:0:
80,292,61528,6,0,L|224:292,1,144,2|0,0:0|0:0,0:0:0:0:
80,368,61828,6,0,L|248:368,1,161.999995056153,6|0,0:0|0:0,0:0:0:0:
434,374,62128,5,8,0:0:0:0:
224,292,62278,1,0,0:0:0:0:
464,292,62428,1,2,0:0:0:0:
256,224,62578,1,0,0:0:0:0:
432,224,62728,1,8,0:0:0:0:
242,368,62878,1,0,0:0:0:0:
200,156,63028,6,0,P|188:112|195:68,1,90,6|0,0:0|2:0,0:0:0:0:
336,120,63328,2,0,P|342:164|330:207,1,90,8|0,0:0|2:0,0:0:0:0:
188,288,63628,1,2,0:0:0:0:
324,288,63778,1,0,0:0:0:0:
256,160,63928,2,0,L|256:68,1,90,8|0,0:0|2:0,0:0:0:0:
448,20,64228,6,0,B|448:124,1,90,6|0,0:0|2:0,0:0:0:0:
388,232,64528,2,0,P|344:222|300:231,1,90,8|0,0:0|2:0,0:0:0:0:
256,368,64828,1,2,0:0:0:0:
256,160,64978,1,0,0:0:0:0:
348,304,65128,2,0,P|391:313|435:304,1,90,8|0,0:0|2:0,0:0:0:0:
164,304,65428,6,0,P|120:294|76:303,1,90,6|0,0:0|2:0,0:0:0:0:
256,368,65728,2,0,L|256:272,1,90,8|0,0:0|2:0,0:0:0:0:
180,108,66028,6,0,P|228:117|224:64,1,107.999996704102,6|0,0:0|2:0,0:0:0:0:
140,172,66328,6,0,P|194:198|264:180,1,125.999996154785,12|0,0:0|2:0,0:0:0:0:
104,236,66628,6,0,P|167:268|238:268,1,144,6|0,0:0|2:0,0:0:0:0:
424,192,66928,5,8,0:0:0:0:
424,192,67078,1,0,0:0:0:0:
488,116,67228,5,2,0:0:0:0:
322,208,67378,1,0,0:0:0:0:
510,231,67528,1,8,0:0:0:0:
371,102,67678,1,0,0:0:0:0:
408,288,67828,2,0,B|408:364|408:364|420:357,1,90,2|0,0:0|2:0,0:0:0:0:
424,192,68128,5,8,0:0:0:0:
304,316,68278,1,0,0:0:0:0:
256,152,68428,1,8,0:0:0:0:
216,140,68503,1,8,0:0:0:0:
176,148,68578,1,8,0:0:0:0:
88,272,68728,1,8,0:0:0:0:
88,128,68878,5,8,0:0:0:0:
88,128,68953,1,8,0:0:0:0:
88,128,69028,2,0,B|88:52|88:52|100:59,1,90,6|0,0:0|2:0,0:0:0:0:
212,216,69328,1,2,0:0:0:0:
88,272,69478,2,0,B|12:272|12:272|19:260,1,90,6|0,0:0|2:0,0:0:0:0:
212,216,69778,1,6,0:0:0:0:
256,376,69928,1,8,0:0:0:0:
252,144,70078,6,0,P|205:132|160:152,1,90,6|0,0:0|2:0,0:0:0:0:
92,332,70378,1,0,0:0:0:0:
252,288,70528,1,8,0:0:0:0:
76,247,70678,1,8,0:0:0:0:
72,291,70753,1,8,0:0:0:0:
92,332,70828,1,8,0:0:0:0:
252,288,70978,1,8,0:0:0:0:
255,243,71053,1,8,0:0:0:0:
236,203,71128,1,8,0:0:0:0:
92,28,71278,5,8,0:0:0:0:
92,28,71353,1,8,0:0:0:0:
92,28,71428,2,0,B|128:152,1,125.999996154785,6|0,0:0|2:0,0:0:0:0:
252,288,71728,1,8,0:0:0:0:
92,332,71878,1,0,0:0:0:0:
236,203,72028,5,2,0:0:0:0:
353,317,72178,1,0,0:0:0:0:
193,361,72328,1,8,0:0:0:0:
328,224,72478,5,0,0:0:0:0:
444,336,72628,2,0,L|536:336,1,90,6|0,0:0|2:0,0:0:0:0:
283,361,72928,2,0,L|191:361,1,90,8|0,0:0|2:0,0:0:0:0:
353,317,73228,1,2,0:0:0:0:
393,157,73378,1,0,0:0:0:0:
236,203,73528,2,0,P|192:212|148:200,1,90,8|0,0:0|2:0,0:0:0:0:
393,157,73828,6,0,P|437:148|481:160,1,90,6|0,0:0|2:0,0:0:0:0:
353,317,74128,1,8,0:0:0:0:
304,156,74278,1,8,0:0:0:0:
304,156,74353,1,8,0:0:0:0:
304,156,74428,2,0,B|284:80|284:80|294:85,1,90,8|0,0:0|2:0,0:0:0:0:
432,228,74728,1,8,0:0:0:0:
256,264,74878,2,0,B|168:296|168:224|81:261,1,180,6|0,0:0|2:0,0:0:0:0:
212,184,75328,5,8,0:0:0:0:
128,340,75478,1,2,0:0:0:0:
252,213,75628,1,8,0:0:0:0:
87,310,75778,1,2,0:0:0:0:
273,262,75928,1,8,0:0:0:0:
66,261,76078,5,8,0:0:0:0:
66,261,76153,1,8,0:0:0:0:
66,261,76228,2,0,B|64:160,1,90,6|0,0:0|2:0,0:0:0:0:
136,64,76528,1,8,0:0:0:0:
8,120,76678,1,0,0:0:0:0:
212,120,76828,5,2,0:0:0:0:
259,237,76978,1,0,0:0:0:0:
95,168,77128,1,8,0:0:0:0:
143,285,77278,1,0,0:0:0:0:
212,120,77428,6,0,L|300:76,1,90,6|0,0:0|2:0,0:0:0:0:
123,65,77728,1,8,0:0:0:0:
180,205,77878,1,0,0:0:0:0:
264,8,78028,1,2,0:0:0:0:
320,147,78178,1,0,0:0:0:0:
152,136,78328,1,8,0:0:0:0:
292,79,78478,1,0,0:0:0:0:
298,217,78628,6,0,P|246:150|292:79,1,180,6|0,0:0|1:0,0:0:0:0:
474,157,79078,1,4,0:0:0:0:
486,201,79153,1,0,0:0:0:0:
474,245,79228,1,0,0:0:0:0:
256,280,79378,1,0,0:0:0:0:
264,8,79528,1,8,0:0:0:0:
474,157,79678,1,0,0:0:0:0:
474,157,79753,1,0,0:0:0:0:
474,157,79828,5,12,0:0:0:0:
507,327,79978,1,8,0:0:0:0:
372,120,80128,5,10,0:0:0:0:
412,327,80278,1,8,0:0:0:0:
277,82,80428,5,10,0:0:0:0:
324,330,80578,1,8,0:0:0:0:
164,36,80728,5,10,0:0:0:0:
233,329,80878,1,12,0:0:0:0:
256,192,80953,12,8,82528,0:0:0:0:
488,352,82828,6,0,L|396:352,1,90,6|0,0:0|2:0,0:0:0:0:
256,304,83128,1,8,0:0:0:0:
368,207,83278,2,0,P|376:164|361:122,1,90,2|0,0:0|2:0,0:0:0:0:
256,8,83578,5,0,0:0:0:0:
208,156,83728,1,8,0:0:0:0:
361,122,83878,1,0,0:0:0:0:
208,76,84028,2,0,L|116:76,1,90,2|0,0:0|2:0,0:0:0:0:
20,192,84328,1,8,0:0:0:0:
131,267,84478,2,0,P|144:310|132:353,1,90,6|0,0:0|2:0,0:0:0:0:
20,192,84778,5,2,0:0:0:0:
208,156,84928,1,10,0:0:0:0:
82,8,85078,1,2,0:0:0:0:
118,196,85228,1,10,0:0:0:0:
276,64,85378,1,2,0:0:0:0:
88,100,85528,1,10,0:0:0:0:
232,236,85678,6,0,L|332:236,1,90,6|0,0:0|2:0,0:0:0:0:
192,312,85978,1,0,0:0:0:0:
264,156,86128,2,0,L|364:156,1,90,8|0,0:0|2:0,0:0:0:0:
192,312,86428,2,0,L|304:312,1,90,6|0,0:0|2:0,0:0:0:0:
152,380,86728,1,8,0:0:0:0:
232,236,86878,6,0,L|328:236,1,90,6|0,0:0|2:0,0:0:0:0:
512,180,87178,1,8,0:0:0:0:
476,346,87328,1,8,0:0:0:0:
344,144,87478,1,8,0:0:0:0:
310,311,87628,1,10,0:0:0:0:
460,24,87778,5,8,0:0:0:0:
404,246,87928,1,8,0:0:0:0:
237,85,88078,1,8,0:0:0:0:
460,24,88228,6,0,L|488:148,1,116.999994644165,6|0,0:0|2:0,0:0:0:0:
64,364,88678,2,0,L|36:240,1,116.999994644165,6|0,0:0|2:0,0:0:0:0:
452,28,89128,6,0,L|479:148,1,116.999994644165,6|0,0:0|2:0,0:0:0:0:
69,358,89578,2,0,L|42:238,1,116.999994644165,6|0,0:0|2:0,0:0:0:0:
256,136,89878,5,8,0:0:0:0:
256,136,89953,1,8,0:0:0:0:
256,136,90028,1,6,0:0:0:0:
216,288,90178,2,0,P|256:373|299:289,1,233.999989288331,6|0,0:0|0:0,0:0:0:0:
172,114,90628,5,6,0:0:0:0:
121,288,90778,1,0,0:0:0:0:
82,84,90928,1,8,0:0:0:0:
256,136,91078,1,0,0:0:0:0:
295,340,91228,5,2,0:0:0:0:
143,204,91378,1,0,0:0:0:0:
346,165,91528,1,8,0:0:0:0:
218,277,91678,1,0,0:0:0:0:
172,114,91828,5,2,0:0:0:0:
121,288,91978,1,0,0:0:0:0:
82,84,92128,1,8,0:0:0:0:
256,136,92278,1,0,0:0:0:0:
331,367,92428,5,2,0:0:0:0:
218,277,92578,1,0,0:0:0:0:
351,224,92728,1,8,0:0:0:0:
236,356,92878,6,0,L|144:356,1,90,6|0,0:0|2:0,0:0:0:0:
304,292,93178,1,0,0:0:0:0:
216,192,93328,2,0,B|216:116|216:116|226:125,1,90,8|0,0:0|2:0,0:0:0:0:
304,292,93628,5,2,0:0:0:0:
204,380,93778,1,0,0:0:0:0:
216,192,93928,1,8,0:0:0:0:
115,278,94078,1,0,0:0:0:0:
344,292,94228,5,6,0:0:0:0:
115,278,94378,1,0,0:0:0:0:
388,292,94528,1,8,0:0:0:0:
115,278,94678,2,0,P|104:227|116:184,1,90,6|0,0:0|2:0,0:0:0:0:
236,112,94978,1,4,0:0:0:0:
112,190,95128,1,8,0:0:0:0:
224,25,95278,6,0,P|240:67|236:112,1,90,6|0,0:0|2:0,0:0:0:0:
112,190,95578,1,0,0:0:0:0:
224,25,95728,2,0,L|320:25,1,90,8|0,0:0|2:0,0:0:0:0:
454,61,96028,5,2,0:0:0:0:
354,165,96178,1,0,0:0:0:0:
314,25,96328,1,8,0:0:0:0:
448,150,96478,6,0,L|448:250,1,90,6|0,0:0|2:0,0:0:0:0:
328,286,96778,1,0,0:0:0:0:
403,93,96928,2,0,P|445:77|487:88,1,90,8|0,0:0|2:0,0:0:0:0:
354,165,97228,5,2,0:0:0:0:
314,25,97378,1,0,0:0:0:0:
214,129,97528,1,8,0:0:0:0:
354,165,97678,6,0,L|454:165,1,90,6|0,0:0|2:0,0:0:0:0:
304,104,97978,1,0,0:0:0:0:
256,239,98128,1,8,0:0:0:0:
237,280,98203,1,0,0:0:0:0:
242,324,98278,1,0,0:0:0:0:
269,359,98353,1,0,0:0:0:0:
310,376,98428,1,0,0:0:0:0:
480,352,98578,1,0,0:0:0:0:
328,286,98728,1,8,0:0:0:0:
500,272,98878,1,8,0:0:0:0:
500,272,98953,1,8,0:0:0:0:
500,272,99028,6,0,L|500:180,1,90,2|0,0:0|0:0,0:0:0:0:
360,120,99478,2,0,P|395:182|417:114,1,180,2|0,0:0|0:0,0:0:0:0:
256,36,100228,5,6,0:0:0:0:
174,270,100378,1,0,0:0:0:0:
404,190,100528,1,8,0:0:0:0:
174,110,100678,1,0,0:0:0:0:
256,345,100828,1,2,0:0:0:0:
336,110,100978,1,0,0:0:0:0:
105,190,101128,1,8,0:0:0:0:
336,270,101278,5,0,0:0:0:0:
174,110,101428,1,2,0:0:0:0:
174,270,101578,1,0,0:0:0:0:
336,110,101728,1,8,0:0:0:0:
256,345,101878,1,0,0:0:0:0:
64,252,102028,5,2,0:0:0:0:
212,202,102178,1,4,0:0:0:0:
180,354,102328,1,8,0:0:0:0:
124,192,102478,6,0,L|124:92,1,90,6|0,0:0|2:0,0:0:0:0:
64,252,102778,1,0,0:0:0:0:
212,202,102928,1,8,0:0:0:0:
180,354,103078,1,0,0:0:0:0:
28,164,103228,5,2,0:0:0:0:
191,108,103378,1,0,0:0:0:0:
155,276,103528,1,8,0:0:0:0:
92,96,103678,1,0,0:0:0:0:
240,294,103828,5,6,0:0:0:0:
92,344,103978,1,0,0:0:0:0:
124,192,104128,1,8,0:0:0:0:
180,354,104278,2,0,P|218:376|264:376,1,90,6|0,0:0|2:0,0:0:0:0:
372,204,104578,1,12,0:0:0:0:
333,181,104653,1,8,0:0:0:0:
288,181,104728,1,8,0:0:0:0:
424,272,104878,6,0,P|450:236|454:192,1,90,6|0,0:0|2:0,0:0:0:0:
328,108,105178,1,0,0:0:0:0:
424,272,105328,2,0,L|532:272,1,90,8|0,0:0|2:0,0:0:0:0:
348,376,105628,1,2,0:0:0:0:
333,181,105778,1,0,0:0:0:0:
228,324,105928,1,8,0:0:0:0:
156,168,106078,6,0,L|156:72,1,90,6|0,0:0|2:0,0:0:0:0:
244,232,106378,1,0,0:0:0:0:
92,292,106528,2,0,L|-4:292,1,90,8|0,0:0|2:0,0:0:0:0:
112,376,106828,1,2,0:0:0:0:
176,252,106978,1,0,0:0:0:0:
2,292,107128,1,12,0:0:0:0:
66,168,107278,1,0,0:0:0:0:
184,332,107428,6,0,L|276:332,1,90,6|0,0:0|2:0,0:0:0:0:
510,292,107728,1,8,0:0:0:0:
336,252,107878,1,0,0:0:0:0:
400,376,108028,1,2,0:0:0:0:
446,168,108178,1,0,0:0:0:0:
400,376,108328,1,8,0:0:0:0:
252,240,108478,5,8,0:0:0:0:
252,240,108553,1,8,0:0:0:0:
252,240,108628,2,0,L|160:240,1,90,6|0,0:0|2:0,0:0:0:0:
292,168,108928,1,8,0:0:0:0:
216,320,109078,2,0,L|124:320,1,90,2|0,0:0|2:0,0:0:0:0:
56,200,109378,1,0,0:0:0:0:
4,372,109528,1,8,0:0:0:0:
162,240,109678,5,8,0:0:0:0:
162,240,109753,1,8,0:0:0:0:
162,240,109828,2,0,L|254:240,1,90,6|0,0:0|2:0,0:0:0:0:
408,192,110128,1,8,0:0:0:0:
287,127,110278,2,0,P|272:86|282:43,1,90,2|0,0:0|2:0,0:0:0:0:
408,192,110578,1,0,0:0:0:0:
312,320,110728,2,0,L|216:320,1,90,8|0,0:0|2:0,0:0:0:0:
408,192,111028,6,0,P|454:179|500:192,1,90,6|0,0:0|2:0,0:0:0:0:
320,240,111328,2,0,P|307:193|320:148,1,90,12|0,0:0|2:0,0:0:0:0:
420,280,111628,1,2,0:0:0:0:
267,340,111778,1,0,0:0:0:0:
496,244,111928,1,12,0:0:0:0:
344,308,112078,1,0,0:0:0:0:
364,148,112228,6,0,P|371:111|356:68,1,80.9999975280763,6|0,0:0|2:0,0:0:0:0:
211,221,112528,1,8,0:0:0:0:
281,297,112678,1,0,0:0:0:0:
377,253,112828,1,2,0:0:0:0:
364,148,112978,1,0,0:0:0:0:
261,127,113128,2,0,L|168:128,1,80.9999975280763,8|0,0:0|2:0,0:0:0:0:
377,253,113428,6,0,L|470:254,1,80.9999975280763,6|0,0:0|2:0,0:0:0:0:
364,148,113728,1,8,0:0:0:0:
281,297,113878,2,0,L|280:380,1,80.9999975280763,2|0,0:0|2:0,0:0:0:0:
377,253,114178,1,0,0:0:0:0:
211,221,114328,2,0,L|127:221,1,80.9999975280763,8|0,0:0|2:0,0:0:0:0:
261,127,114628,6,0,L|261:43,1,80.9999975280763,6|0,0:0|2:0,0:0:0:0:
300,212,114928,1,8,0:0:0:0:
172,96,115078,1,0,0:0:0:0:
337,40,115228,1,2,0:0:0:0:
300,212,115378,1,0,0:0:0:0:
172,96,115528,2,0,P|160:52|172:8,1,80.9999975280763,8|0,0:0|2:0,0:0:0:0:
300,212,115828,6,0,P|312:256|300:300,1,80.9999975280763,6|0,0:0|2:0,0:0:0:0:
208,192,116128,1,8,0:0:0:0:
320,120,116278,2,0,P|364:108|408:120,1,80.9999975280763,2|0,0:0|2:0,0:0:0:0:
300,212,116578,1,0,0:0:0:0:
224,284,116728,1,8,0:0:0:0:
120,276,116878,1,0,0:0:0:0:
300,212,117028,6,0,P|344:200|388:212,1,80.9999975280763,6|0,0:0|2:0,0:0:0:0:
224,284,117328,1,8,0:0:0:0:
152,208,117478,2,0,P|140:164|152:120,1,80.9999975280763,2|0,0:0|2:0,0:0:0:0:
224,284,117778,1,0,0:0:0:0:
120,352,117928,2,0,B|52:352|52:352|60:342,1,80.9999975280763,8|0,0:0|2:0,0:0:0:0:
224,284,118228,6,0,B|292:284|292:284|283:293,1,80.9999975280763,6|0,0:0|2:0,0:0:0:0:
120,352,118528,1,8,0:0:0:0:
152,208,118678,2,0,L|152:120,1,80.9999975280763,2|0,0:0|2:0,0:0:0:0:
224,284,118978,1,0,0:0:0:0:
80,224,119128,1,8,0:0:0:0:
224,160,119278,1,0,0:0:0:0:
80,88,119428,6,0,L|80:4,1,80.9999975280763,6|0,0:0|2:0,0:0:0:0:
0,152,119728,1,8,0:0:0:0:
168,104,119878,1,0,0:0:0:0:
128,256,120028,1,2,0:0:0:0:
80,88,120178,1,0,0:0:0:0:
164,184,120328,2,0,B|264:184,1,80.9999975280763,8|0,0:0|2:0,0:0:0:0:
388,96,120628,6,0,B|396:60|396:60|320:96,1,116.999994644165,6|0,0:0|2:0,0:0:0:0:
124,288,120928,2,0,B|116:324|116:324|192:288,1,116.999994644165,12|0,0:0|2:0,0:0:0:0:
188,94,121228,2,0,B|116:60|116:60|124:96,1,116.999994644165,6|0,0:0|2:0,0:0:0:0:
323,289,121528,2,0,B|396:324|396:324|388:288,1,116.999994644165,12|0,0:0|2:0,0:0:0:0:
132,192,121828,6,0,L|44:192,1,80.9999975280763,6|0,0:0|2:0,0:0:0:0:
188,94,122128,1,8,0:0:0:0:
288,146,122278,1,0,0:0:0:0:
235,245,122428,1,2,0:0:0:0:
132,192,122578,1,0,0:0:0:0:
288,146,122728,2,0,L|376:146,1,80.9999975280763,8|0,0:0|2:0,0:0:0:0:
188,94,123028,6,0,L|107:94,1,80.9999975280763,6|0,0:0|2:0,0:0:0:0:
235,245,123328,2,0,L|323:245,1,80.9999975280763,8|0,0:0|2:0,0:0:0:0:
132,192,123628,1,2,0:0:0:0:
252,320,123778,1,0,0:0:0:0:
288,146,123928,2,0,P|301:107|290:69,1,80.9999975280763,8|0,0:0|2:0,0:0:0:0:
132,192,124228,6,0,P|119:231|130:269,1,80.9999975280763,6|0,0:0|2:0,0:0:0:0:
320,360,124528,2,0,P|333:321|322:283,1,80.9999975280763,8|0,0:0|2:0,0:0:0:0:
192,232,124828,1,2,0:0:0:0:
132,356,124978,1,8,0:0:0:0:
92,368,125053,1,8,0:0:0:0:
52,356,125128,1,8,0:0:0:0:
12,192,125278,1,0,0:0:0:0:
192,232,125428,6,0,L|280:232,1,80.9999975280763,6|0,0:0|2:0,0:0:0:0:
320,360,125728,1,8,0:0:0:0:
192,232,125878,2,0,P|183:192|191:152,1,80.9999975280763,2|0,0:0|2:0,0:0:0:0:
320,56,126178,1,0,0:0:0:0:
190,153,126328,2,0,L|110:153,1,80.9999975280763,8|0,0:0|2:0,0:0:0:0:
320,56,126628,6,0,L|400:56,1,80.9999975280763,6|0,0:0|2:0,0:0:0:0:
492,192,126928,1,8,0:0:0:0:
327,130,127078,2,0,P|310:94|320:56,1,80.9999975280763,2|0,0:0|2:0,0:0:0:0:
405,164,127378,1,0,0:0:0:0:
351,290,127528,1,8,0:0:0:0:
268,180,127678,1,0,0:0:0:0:
416,244,127828,6,0,L|508:244,1,80.9999975280763,6|0,0:0|2:0,0:0:0:0:
340,211,128128,1,8,0:0:0:0:
456,364,128278,1,8,0:0:0:0:
476,152,128428,1,8,0:0:0:0:
349,382,128578,5,8,0:0:0:0:
188,226,128728,1,8,0:0:0:0:
405,164,128878,1,8,0:0:0:0:
252,328,129028,6,0,P|197:353|232:304,1,161.999995056153,6|0,0:0|2:0,0:0:0:0:
328,127,129628,2,0,L|328:208,1,80.9999975280763,6|0,0:0|2:0,0:0:0:0:
252,328,129928,5,8,0:0:0:0:
472,200,130078,1,8,0:0:0:0:
128,32,130228,6,0,P|108:64|144:60,1,90,6|0,0:0|0:0,0:0:0:0:
264,88,130528,6,0,P|307:95|276:124,1,107.999996704102,2|0,0:0|0:0,0:0:0:0:
112,176,130828,6,0,P|73:202|120:200,1,125.999996154785,2|0,0:0|0:0,0:0:0:0:
328,216,131128,6,0,P|376:244|319:240,1,144,2|0,0:0|0:0,0:0:0:0:
136,316,131428,6,0,P|105:370|149:328,1,161.999995056153,6|0,0:0|0:0,0:0:0:0:
328,216,131728,5,8,0:0:0:0:
118,134,131878,1,0,0:0:0:0:
358,134,132028,1,2,0:0:0:0:
150,66,132178,1,0,0:0:0:0:
326,66,132328,1,8,0:0:0:0:
136,210,132478,1,0,0:0:0:0:
363,295,132628,6,0,P|353:251|327:215,1,90,6|0,0:0|2:0,0:0:0:0:
136,210,132928,2,0,P|110:246|101:290,1,90,8|0,0:0|2:0,0:0:0:0:
268,364,133228,1,2,0:0:0:0:
100,368,133378,1,0,0:0:0:0:
216,248,133528,2,0,P|222:203|210:160,1,90,8|0,0:0|2:0,0:0:0:0:
44,36,133828,6,0,P|37:80|49:123,1,90,6|0,0:0|2:0,0:0:0:0:
210,160,134128,2,0,L|306:160,1,90,8|0,0:0|2:0,0:0:0:0:
136,210,134428,1,2,0:0:0:0:
260,80,134578,1,0,0:0:0:0:
312,252,134728,1,8,0:0:0:0:
136,210,134878,1,0,0:0:0:0:
312,140,135028,6,0,L|408:140,1,90,6|0,0:0|2:0,0:0:0:0:
260,80,135328,2,0,P|236:116|236:164,1,90,8|0,0:0|2:0,0:0:0:0:
392,248,135628,6,0,P|443:233|494:249,1,107.999996704102,6|0,0:0|2:0,0:0:0:0:
323,295,135928,6,0,P|312:234|342:180,1,125.999996154785,12|0,0:0|2:0,0:0:0:0:
399,328,136228,6,0,P|346:374|276:366,1,144,6|0,0:0|2:0,0:0:0:0:
148,236,136528,5,8,0:0:0:0:
108,112,136678,1,0,0:0:0:0:
304,120,136828,5,2,0:0:0:0:
88,188,136978,1,0,0:0:0:0:
324,112,137128,1,8,0:0:0:0:
88,188,137278,1,0,0:0:0:0:
344,104,137428,2,0,B|344:180|344:180|356:173,1,90,6|0,0:0|2:0,0:0:0:0:
424,28,137728,5,8,0:0:0:0:
256,64,137878,1,2,0:0:0:0:
428,152,138028,1,8,0:0:0:0:
444,196,138103,1,8,0:0:0:0:
440,240,138178,1,8,0:0:0:0:
316,304,138328,1,8,0:0:0:0:
243,132,138478,5,8,0:0:0:0:
243,132,138553,1,8,0:0:0:0:
243,132,138628,2,0,B|243:56|243:56|255:63,1,90,6|0,0:0|2:0,0:0:0:0:
364,204,138928,1,8,0:0:0:0:
208,256,139078,2,0,B|132:256|132:256|139:244,1,90,6|0,0:0|2:0,0:0:0:0:
364,204,139378,1,4,0:0:0:0:
256,368,139528,1,8,0:0:0:0:
320,140,139678,6,0,P|362:125|404:138,1,90,6|0,0:0|2:0,0:0:0:0:
472,368,139978,1,0,0:0:0:0:
364,204,140128,1,8,0:0:0:0:
256,368,140278,1,8,0:0:0:0:
300,372,140353,1,8,0:0:0:0:
341,352,140428,1,8,0:0:0:0:
392,124,140578,1,8,0:0:0:0:
348,120,140653,1,8,0:0:0:0:
307,140,140728,1,8,0:0:0:0:
176,280,140878,5,8,0:0:0:0:
176,280,140953,1,8,0:0:0:0:
176,280,141028,2,0,B|76:280|76:280|108:252,1,125.999996154785,6|0,0:0|2:0,0:0:0:0:
256,192,141328,1,8,0:0:0:0:
256,368,141478,1,0,0:0:0:0:
376,225,141628,5,2,0:0:0:0:
230,82,141778,1,0,0:0:0:0:
176,280,141928,1,8,0:0:0:0:
336,104,142078,5,0,0:0:0:0:
136,159,142228,2,0,B|64:176|64:176|80:200,1,90,6|0,0:0|2:0,0:0:0:0:
282,302,142528,2,0,B|299:374|299:374|323:358,1,90,8|0,0:0|2:0,0:0:0:0:
256,192,142828,1,2,0:0:0:0:
200,356,142978,1,0,0:0:0:0:
368,304,143128,2,0,L|460:304,1,90,8|0,0:0|2:0,0:0:0:0:
256,192,143428,6,0,L|164:192,1,90,6|0,0:0|2:0,0:0:0:0:
282,302,143728,1,8,0:0:0:0:
372,144,143878,1,8,0:0:0:0:
372,144,143953,1,8,0:0:0:0:
372,144,144028,2,0,P|380:96|364:60,1,90,2|0,0:0|0:0,0:0:0:0:
256,192,144328,1,8,0:0:0:0:
432,192,144478,2,0,P|456:100|416:8,1,180,6|0,0:0|2:0,0:0:0:0:
288,112,144928,5,8,0:0:0:0:
256,320,145078,1,2,0:0:0:0:
476,252,145228,1,8,0:0:0:0:
268,220,145378,1,2,0:0:0:0:
464,356,145528,1,8,0:0:0:0:
496,148,145678,5,8,0:0:0:0:
496,148,145753,1,8,0:0:0:0:
496,148,145828,2,0,P|508:104|492:64,1,90,6|0,0:0|2:0,0:0:0:0:
336,16,146128,1,8,0:0:0:0:
208,72,146278,1,0,0:0:0:0:
400,64,146428,1,2,0:0:0:0:
272,120,146578,1,0,0:0:0:0:
464,104,146728,1,8,0:0:0:0:
336,160,146878,1,0,0:0:0:0:
448,244,147028,6,0,L|448:360,1,90,2|0,0:0|2:0,0:0:0:0:
336,160,147328,1,8,0:0:0:0:
464,104,147478,1,0,0:0:0:0:
448,244,147628,1,2,0:0:0:0:
232,144,147778,5,0,0:0:0:0:
387,75,147928,1,8,0:0:0:0:
368,246,148078,1,0,0:0:0:0:
232,144,148228,6,0,P|228:76|252:140,1,180,6|0,0:0|2:0,0:0:0:0:
168,268,148678,1,4,0:0:0:0:
128,288,148753,1,0,0:0:0:0:
83,287,148828,1,0,0:0:0:0:
104,120,148978,1,0,0:0:0:0:
240,288,149128,1,8,0:0:0:0:
316,124,149278,1,0,0:0:0:0:
355,144,149353,1,0,0:0:0:0:
381,181,149428,5,12,0:0:0:0:
256,360,149578,1,8,0:0:0:0:
408,244,149728,5,10,0:0:0:0:
174,363,149878,1,8,0:0:0:0:
436,308,150028,5,10,0:0:0:0:
121,285,150178,1,8,0:0:0:0:
460,376,150328,5,10,0:0:0:0:
150,157,150478,2,0,P|128:112|176:156,1,180,12|0,0:0|0:0,0:0:0:0:
121,285,150928,5,8,0:0:0:0:
24,196,151078,1,0,0:0:0:0:
150,157,151228,1,2,0:0:0:0:
144,356,151378,5,0,0:0:0:0:
47,267,151528,1,8,0:0:0:0:
173,228,151678,2,0,P|212:200|224:152,1,90,6|0,0:0|2:0,0:0:0:0:
200,27,151978,5,0,0:0:0:0:
356,137,152128,1,8,0:0:0:0:
224,161,152278,1,0,0:0:0:0:
333,3,152428,1,2,0:0:0:0:
380,208,152578,5,0,0:0:0:0:
283,119,152728,1,8,0:0:0:0:
409,80,152878,2,0,P|452:64|500:72,1,90,6|0,0:0|2:0,0:0:0:0:
356,137,153178,5,0,0:0:0:0:
321,295,153328,1,8,0:0:0:0:
200,185,153478,1,0,0:0:0:0:
255,364,153628,5,2,0:0:0:0:
291,205,153778,1,0,0:0:0:0:
135,253,153928,1,8,0:0:0:0:
255,364,154078,2,0,B|352:348,1,90,6|0,0:0|2:0,0:0:0:0:
404,90,154378,5,12,0:0:0:0:
94,221,154528,1,12,0:0:0:0:
417,221,154678,1,12,0:0:0:0:
111,90,154828,1,12,0:0:0:0:
404,90,154978,1,12,0:0:0:0:
94,221,155128,1,12,0:0:0:0:
417,221,155278,2,0,B|519:208,1,90,12|0,0:0|2:0,0:0:0:0:
404,90,155578,5,0,0:0:0:0:
287,237,155728,1,8,0:0:0:0:
417,221,155878,1,0,0:0:0:0:
270,106,156028,1,2,0:0:0:0:
448,152,156178,5,0,0:0:0:0:
360,16,156328,1,8,0:0:0:0:
448,152,156478,2,0,B|520:136|520:136|500:120,1,90,6|0,0:0|2:0,0:0:0:0:
344,168,156778,5,2,0:0:0:0:
312,320,156928,1,8,0:0:0:0:
196,216,157078,1,2,0:0:0:0:
344,168,157228,2,0,P|344:124|320:80,1,90,8|0,0:0|2:0,0:0:0:0:
192,56,157528,1,8,0:0:0:0:
344,168,157678,6,0,L|448:156,1,90,6|0,0:0|2:0,0:0:0:0:
312,320,157978,1,0,0:0:0:0:
196,216,158128,1,8,0:0:0:0:
344,168,158278,1,0,0:0:0:0:
224,296,158428,2,0,L|134:306,1,90,2|0,0:0|2:0,0:0:0:0:
264,172,158728,1,8,0:0:0:0:
376,256,158878,2,0,L|465:245,1,90,6|0,0:0|2:0,0:0:0:0:
287,90,159178,5,2,0:0:0:0:
264,128,159253,1,0,0:0:0:0:
264,172,159328,1,8,0:0:0:0:
420,331,159478,1,2,0:0:0:0:
409,287,159553,1,0,0:0:0:0:
376,256,159628,1,8,0:0:0:0:
140,275,159778,1,2,0:0:0:0:
178,298,159853,1,0,0:0:0:0:
224,296,159928,1,12,0:0:0:0:
344,155,160078,6,0,P|304:128|257:130,1,90,6|0,0:0|2:0,0:0:0:0:
138,204,160378,1,0,0:0:0:0:
304,244,160528,1,8,0:0:0:0:
118,126,160678,5,0,0:0:0:0:
79,263,160828,1,2,0:0:0:0:
216,228,160978,1,0,0:0:0:0:
25,171,161128,1,8,0:0:0:0:
0,348,161278,6,0,B|0:258,1,90,6|0,0:0|2:0,0:0:0:0:
138,204,161578,1,0,0:0:0:0:
231,307,161728,1,8,0:0:0:0:
276,174,161878,2,0,P|310:137|356:120,1,90,2|0,0:0|2:0,0:0:0:0:
293,250,162178,5,0,0:0:0:0:
200,147,162328,1,8,0:0:0:0:
155,281,162478,2,0,P|115:311|67:321,1,90,2|0,0:0|2:0,0:0:0:0:
19,135,162778,5,2,0:0:0:0:
11,94,162853,1,0,0:0:0:0:
26,56,162928,1,10,0:0:0:0:
57,31,163003,1,0,0:0:0:0:
96,25,163078,1,0,0:0:0:0:
134,39,163153,1,0,0:0:0:0:
163,74,163228,5,2,0:0:0:0:
200,97,163303,1,0,0:0:0:0:
245,101,163378,1,0,0:0:0:0:
287,84,163453,1,0,0:0:0:0:
324,52,163528,5,10,0:0:0:0:
363,22,163603,1,0,0:0:0:0:
412,17,163678,1,0,0:0:0:0:
457,37,163753,1,0,0:0:0:0:
492,78,163828,5,2,0:0:0:0:
511,127,163903,1,0,0:0:0:0:
498,179,163978,1,0,0:0:0:0:
457,214,164053,1,0,0:0:0:0:
398,216,164128,5,10,0:0:0:0:
340,220,164203,1,0,0:0:0:0:
301,262,164278,1,0,0:0:0:0:
300,319,164353,1,0,0:0:0:0:
339,368,164428,6,0,P|382:377|439:360,1,90,2|0,0:0|2:0,0:0:0:0:
512,264,164728,1,8,0:0:0:0:
340,220,164878,6,0,B|375:134|307:134|339:46,1,180,6|0,0:0|0:0,0:0:0:0:
268,178,165328,5,10,0:0:0:0:
412,88,165478,1,0,0:0:0:0:
234,113,165628,5,10,0:0:0:0:
441,158,165778,1,0,0:0:0:0:
240,38,165928,5,10,0:0:0:0:
435,233,166078,2,0,P|440:294|392:238,1,180,4|0,0:0|0:0,0:0:0:0:
412,88,166528,5,10,0:0:0:0:
234,113,166678,1,0,0:0:0:0:
441,158,166828,5,10,0:0:0:0:
240,38,166978,1,0,0:0:0:0:
240,38,167053,1,0,0:0:0:0:
240,38,167128,2,0,L|144:38,1,90,10|0,0:0|0:0,0:0:0:0:
88,172,167428,5,6,0:0:0:0:
102,214,167503,1,0,0:0:0:0:
107,259,167578,1,0,0:0:0:0:
105,304,167653,1,0,0:0:0:0:
94,346,167728,1,10,0:0:0:0:
58,373,167803,1,0,0:0:0:0:
15,369,167878,1,0,0:0:0:0:
0,332,167953,1,0,0:0:0:0:
11,292,168028,5,2,0:0:0:0:
54,283,168103,1,0,0:0:0:0:
98,293,168178,1,0,0:0:0:0:
140,309,168253,1,0,0:0:0:0:
182,324,168328,1,10,0:0:0:0:
227,331,168403,1,0,0:0:0:0:
270,322,168478,1,0,0:0:0:0:
301,291,168553,1,0,0:0:0:0:
320,244,168628,5,6,0:0:0:0:
315,195,168703,1,0,0:0:0:0:
294,150,168778,1,0,0:0:0:0:
263,112,168853,1,0,0:0:0:0:
224,82,168928,1,10,0:0:0:0:
177,67,169003,1,0,0:0:0:0:
131,80,169078,1,0,0:0:0:0:
120,125,169153,1,0,0:0:0:0:
153,161,169228,5,2,0:0:0:0:
199,178,169303,1,0,0:0:0:0:
248,183,169378,1,0,0:0:0:0:
298,181,169453,1,0,0:0:0:0:
346,170,169528,1,10,0:0:0:0:
391,149,169603,1,0,0:0:0:0:
424,113,169678,1,0,0:0:0:0:
434,65,169753,1,0,0:0:0:0:
404,20,169828,5,6,0:0:0:0:
356,44,169903,1,0,0:0:0:0:
327,89,169978,1,0,0:0:0:0:
320,142,170053,1,0,0:0:0:0:
332,195,170128,1,10,0:0:0:0:
358,242,170203,1,0,0:0:0:0:
398,278,170278,1,0,0:0:0:0:
448,296,170353,1,0,0:0:0:0:
496,272,170428,5,2,0:0:0:0:
493,220,170503,1,0,0:0:0:0:
449,192,170578,1,0,0:0:0:0:
396,198,170653,1,0,0:0:0:0:
344,215,170728,1,10,0:0:0:0:
294,233,170803,1,0,0:0:0:0:
241,244,170878,1,0,0:0:0:0:
188,237,170953,1,0,0:0:0:0:
144,200,171028,6,0,L|128:104,1,90,6|0,0:0|0:0,0:0:0:0:
224,24,171328,6,0,L|236:104,1,80.9999975280763,2|0,0:0|0:0,0:0:0:0:
348,144,171628,6,0,L|338:72,1,72,2|0,0:0|0:0,0:0:0:0:
428,24,171928,6,0,L|435:86,1,62.9999980773926,2|0,0:0|0:0,0:0:0:0:
472,304,172228,5,6,0:0:0:0:
184,344,172528,1,0,0:0:0:0:
288,40,172828,1,0,0:0:0:0:
328,328,173128,1,0,0:0:0:0:
24,232,173428,5,6,0:0:0:0:
312,192,173728,1,0,0:0:0:0:
40,380,174028,1,0,0:0:0:0:
0,92,174328,1,0,0:0:0:0:
388,280,174628,5,6,0:0:0:0:
100,320,174928,1,0,0:0:0:0:
204,16,175228,1,0,0:0:0:0:
244,304,175528,1,0,0:0:0:0:
512,128,175828,5,6,0:0:0:0:
224,168,176128,1,0,0:0:0:0:
108,368,176428,1,0,0:0:0:0:
396,328,176728,1,0,0:0:0:0:
68,80,177028,5,6,0:0:0:0:
108,368,177328,1,0,0:0:0:0:
396,328,177628,1,0,0:0:0:0:
356,40,177928,1,0,0:0:0:0:
172,320,178228,5,6,0:0:0:0:
460,280,178528,1,0,0:0:0:0:
196,72,178828,1,0,0:0:0:0:
236,360,179128,1,0,0:0:0:0:
424,76,179428,5,6,0:0:0:0:
136,116,179728,1,0,0:0:0:0:
404,324,180028,1,0,0:0:0:0:
364,36,180328,1,0,0:0:0:0:
128,376,180628,5,10,0:0:0:0:
48,267,180778,1,8,0:0:0:0:
213,376,180928,5,10,0:0:0:0:
165,215,181078,1,8,0:0:0:0:
298,376,181228,5,10,0:0:0:0:
309,169,181378,1,8,0:0:0:0:
383,376,181528,5,10,0:0:0:0:
482,141,181678,1,8,0:0:0:0:
272,288,181828,6,0,P|233:299|194:290,1,80.9999975280763,6|0,0:0|2:0,0:0:0:0:
309,169,182128,1,8,0:0:0:0:
429,198,182278,1,0,0:0:0:0:
395,318,182428,1,2,0:0:0:0:
272,288,182578,1,0,0:0:0:0:
429,198,182728,2,0,P|467:186|506:195,1,80.9999975280763,8|0,0:0|2:0,0:0:0:0:
309,169,183028,6,0,P|297:131|306:92,1,80.9999975280763,6|0,0:0|2:0,0:0:0:0:
272,288,183328,2,0,P|234:300|195:291,1,80.9999975280763,8|0,0:0|2:0,0:0:0:0:
352,240,183628,1,2,0:0:0:0:
508,264,183778,1,0,0:0:0:0:
431,120,183928,2,0,P|419:159|429:198,1,80.9999975280763,8|0,0:0|2:0,0:0:0:0:
505,341,184228,6,0,P|517:302|507:263,1,80.9999975280763,6|0,0:0|2:0,0:0:0:0:
431,120,184528,2,0,L|340:120,1,80.9999975280763,8|0,0:0|2:0,0:0:0:0:
496,32,184828,1,2,0:0:0:0:
464,200,184978,1,8,0:0:0:0:
452,240,185053,1,8,0:0:0:0:
464,280,185128,1,8,0:0:0:0:
304,368,185278,1,0,0:0:0:0:
339,216,185428,6,0,P|348:176|336:138,1,80.9999975280763,6|0,0:0|2:0,0:0:0:0:
256,4,185728,1,8,0:0:0:0:
175,138,185878,2,0,P|163:176|172:216,1,80.9999975280763,2|0,0:0|2:0,0:0:0:0:
256,348,186178,1,0,0:0:0:0:
96,348,186328,2,0,B|28:348|28:348|48:320,1,80.9999975280763,12|0,0:0|2:0,0:0:0:0:
256,348,186628,6,0,B|324:348|324:348|304:376,1,80.9999975280763,6|0,0:0|2:0,0:0:0:0:
140,288,186928,1,8,0:0:0:0:
140,288,187003,1,8,0:0:0:0:
140,288,187078,2,0,P|127:244|140:208,1,80.9999975280763,2|0,0:0|2:0,0:0:0:0:
260,120,187378,1,0,0:0:0:0:
206,246,187528,1,8,0:0:0:0:
123,136,187678,1,0,0:0:0:0:
300,240,187828,6,0,L|392:240,1,80.9999975280763,6|0,0:0|2:0,0:0:0:0:
200,104,188128,1,8,0:0:0:0:
260,343,188278,1,8,0:0:0:0:
435,172,188428,1,8,0:0:0:0:
123,136,188578,5,0,0:0:0:0:
117,92,188653,1,0,0:0:0:0:
134,51,188728,1,0,0:0:0:0:
170,26,188803,1,0,0:0:0:0:
214,22,188878,1,0,0:0:0:0:
253,41,188953,1,0,0:0:0:0:
278,77,189028,6,0,P|316:136|328:64,1,161.999995056153,6|0,0:0|2:0,0:0:0:0:
200,104,189478,1,0,0:0:0:0:
200,104,189628,2,0,L|200:200,1,80.9999975280763,6|0,0:0|2:0,0:0:0:0:
200,380,189928,5,8,0:0:0:0:
348,240,190078,1,8,0:0:0:0:
200,104,190228,6,0,L|104:104,1,80.9999975280763,6|0,0:0|0:0,0:0:0:0:
200,185,190528,6,0,L|128:185,1,72,2|0,0:0|0:0,0:0:0:0:
200,264,190828,6,0,L|128:264,1,62.9999980773926,2|0,0:0|0:0,0:0:0:0:
212,352,191128,5,2,0:0:0:0:
212,352,191203,1,2,0:0:0:0:
212,352,191278,1,2,0:0:0:0:
212,352,191353,1,2,0:0:0:0:
212,352,191428,6,0,L|84:352,1,107.999996704102,6|0,0:0|0:0,0:0:0:0:
24,304,191878,1,2,0:0:0:0:
80,232,192028,2,0,P|94:180|77:130,1,107.999996704102,2|0,0:0|0:0,0:0:0:0:
16,24,192478,5,2,0:0:0:0:
16,24,192628,1,2,0:0:0:0:
192,72,192928,1,2,0:0:0:0:
52,192,193228,1,2,0:0:0:0:
228,240,193528,1,2,0:0:0:0:
368,120,193828,5,2,0:0:0:0:
192,72,194128,1,2,0:0:0:0:
316,208,194428,1,2,0:0:0:0:
300,24,194728,1,2,0:0:0:0:
300,24,194878,1,2,0:0:0:0:
300,24,195028,2,0,L|416:24,1,107.999996704102,2|0,0:0|0:0,0:0:0:0:
484,192,195628,5,2,0:0:0:0:
388,348,195928,1,2,0:0:0:0:
288,192,196228,2,0,P|237:175|186:191,1,107.999996704102,2|0,0:0|0:0,0:0:0:0:
84,344,196828,5,2,0:0:0:0:
88,160,197128,1,2,0:0:0:0:
244,256,197428,1,2,0:0:0:0:
60,248,197728,1,2,0:0:0:0:
60,248,197878,1,2,0:0:0:0:
60,248,198028,2,0,L|-4:248,1,53.9999983520508,2|0,0:0|0:0,0:0:0:0:
172,168,198478,5,2,0:0:0:0:
172,168,198628,1,2,0:0:0:0:
348,228,198928,1,2,0:0:0:0:
348,228,199078,1,2,0:0:0:0:
256,68,199378,1,2,0:0:0:0:
256,252,199678,2,0,P|304:312|392:312,1,161.999995056153,2|0,0:0|0:0,0:0:0:0:
484,160,200428,5,2,0:0:0:0:
340,44,200728,1,2,0:0:0:0:
348,228,201028,2,0,L|348:336,1,107.999996704102,2|0,0:0|0:0,0:0:0:0:
396,160,201628,2,0,P|344:144|296:164,1,107.999996704102,2|0,0:0|0:0,0:0:0:0:
256,264,202078,5,2,0:0:0:0:
256,264,202228,1,2,0:0:0:0:
88,192,202528,1,2,0:0:0:0:
108,376,202828,1,2,0:0:0:0:
256,264,203128,2,0,L|320:264,1,53.9999983520508,2|0,0:0|0:0,0:0:0:0:
408,312,203428,5,2,0:0:0:0:
500,152,203728,1,2,0:0:0:0:
316,152,204028,1,2,0:0:0:0:
476,240,204328,1,2,0:0:0:0:
411,171,204478,2,0,P|412:119|447:80,1,107.999996704102,2|0,0:0|0:0,0:0:0:0:
376,20,204928,5,2,0:0:0:0:
232,132,205228,1,2,0:0:0:0:
411,171,205528,1,2,0:0:0:0:
272,52,205828,2,0,P|220:39|172:62,1,107.999996704102,2|0,0:0|0:0,0:0:0:0:
68,212,206428,5,2,0:0:0:0:
232,132,206728,1,2,0:0:0:0:
80,28,207028,1,2,0:0:0:0:
68,212,207328,1,2,0:0:0:0:
128,122,207478,1,2,0:0:0:0:
68,212,207628,2,0,L|68:324,1,107.999996704102,2|0,0:0|0:0,0:0:0:0:
140,380,208078,1,2,0:0:0:0:
256,280,208228,6,0,B|304:336|304:336|292:200|408:144,1,270,6|0,0:0|2:0,0:0:0:0:
488,20,208828,5,8,0:0:0:0:
24,20,209128,1,8,0:0:0:0:
508,192,209428,5,8,0:0:0:0:
4,192,209728,1,8,0:0:0:0:
488,364,210028,5,8,0:0:0:0:
24,364,210328,1,8,0:0:0:0:
508,192,210628,5,12,0:0:0:0:
326,131,210778,1,8,0:0:0:0:
472,5,210928,1,8,0:0:0:0:
397,230,211078,5,12,0:0:0:0:
205,165,211228,1,8,0:0:0:0:
359,33,211378,1,8,0:0:0:0:
296,252,211528,6,0,P|292:284|272:232,1,135,12|0,0:0|0:0,0:0:0:0:
300,180,211828,6,0,P|341:196|368:240,1,90,6|0,0:0|0:0,0:0:0:0:
224,167,212128,6,0,P|249:120|299:102,1,107.999996704102,2|0,0:0|0:0,0:0:0:0:
251,240,212428,6,0,P|190:239|150:193,1,125.999996154785,2|0,0:0|0:0,0:0:0:0:
300,180,212728,6,0,P|328:240|288:308,1,144,2|0,0:0|0:0,0:0:0:0:
224,167,213028,6,0,P|268:108|352:124,1,161.999995056153,6|0,0:0|0:0,0:0:0:0:
380,356,213328,5,8,0:0:0:0:
132,356,213478,1,0,0:0:0:0:
384,316,213628,1,2,0:0:0:0:
128,316,213778,1,0,0:0:0:0:
380,284,213928,1,8,0:0:0:0:
132,284,214078,1,0,0:0:0:0:
328,223,214228,6,0,P|369:207|413:214,1,90,6|0,0:0|2:0,0:0:0:0:
183,223,214528,2,0,P|142:207|98:214,1,90,8|0,0:0|2:0,0:0:0:0:
256,364,214828,1,2,0:0:0:0:
256,160,214978,1,0,0:0:0:0:
132,284,215128,2,0,P|173:300|217:293,1,90,8|0,0:0|2:0,0:0:0:0:
380,284,215428,6,0,P|338:300|294:293,1,90,6|0,0:0|2:0,0:0:0:0:
256,160,215728,2,0,L|256:70,1,90,8|0,0:0|2:0,0:0:0:0:
348,194,216028,1,2,0:0:0:0:
208,328,216178,1,0,0:0:0:0:
162,138,216328,1,12,0:0:0:0:
348,194,216478,1,2,0:0:0:0:
132,284,216628,6,0,B|60:284|60:284|88:256,1,90,6|0,0:0|2:0,0:0:0:0:
288,181,216928,2,0,B|360:181|360:181|332:209,1,90,8|0,0:0|2:0,0:0:0:0:
132,284,217228,6,0,P|112:234|126:183,1,107.999996704102,6|0,0:0|2:0,0:0:0:0:
271,66,217528,6,0,P|301:120|288:181,1,125.999996154785,12|0,0:0|2:0,0:0:0:0:
132,284,217828,6,0,B|16:284|16:284|56:256,1,144,6|0,0:0|2:0,0:0:0:0:
192,228,218128,5,8,0:0:0:0:
232,352,218278,1,0,0:0:0:0:
348,216,218428,5,2,0:0:0:0:
132,284,218578,1,0,0:0:0:0:
256,72,218728,5,8,0:0:0:0:
324,288,218878,1,0,0:0:0:0:
120,192,219028,2,0,B|44:192|44:192|51:204,1,90,6|0,0:0|0:0,0:0:0:0:
232,352,219328,5,8,0:0:0:0:
348,216,219478,1,0,0:0:0:0:
188,160,219628,1,8,0:0:0:0:
200,205,219703,1,8,0:0:0:0:
230,238,219778,1,8,0:0:0:0:
416,192,219928,1,8,0:0:0:0:
296,60,220078,5,8,0:0:0:0:
296,60,220153,1,8,0:0:0:0:
296,60,220228,2,0,B|296:136|296:136|308:129,1,90,6|0,0:0|2:0,0:0:0:0:
360,16,220528,1,8,0:0:0:0:
216,68,220678,2,0,B|140:68|140:68|147:56,1,90,6|0,0:0|2:0,0:0:0:0:
360,16,220978,1,4,0:0:0:0:
408,224,221128,1,8,0:0:0:0:
443,13,221278,6,0,P|401:1|360:16,1,90,6|0,0:0|2:0,0:0:0:0:
256,192,221578,1,0,0:0:0:0:
404,80,221728,1,8,0:0:0:0:
196,140,221878,1,8,0:0:0:0:
180,181,221953,1,8,0:0:0:0:
187,226,222028,1,8,0:0:0:0:
395,166,222178,1,8,0:0:0:0:
411,125,222253,1,8,0:0:0:0:
404,80,222328,1,8,0:0:0:0:
196,140,222478,5,8,0:0:0:0:
196,140,222553,1,8,0:0:0:0:
196,140,222628,2,0,B|96:140|96:140|128:112,1,125.999996154785,6|0,0:0|2:0,0:0:0:0:
256,56,222928,1,8,0:0:0:0:
256,232,223078,1,0,0:0:0:0:
357,55,223228,5,2,0:0:0:0:
155,55,223378,1,0,0:0:0:0:
256,232,223528,1,8,0:0:0:0:
256,28,223678,5,0,0:0:0:0:
110,141,223828,2,0,P|153:152|196:140,1,90,6|0,0:0|2:0,0:0:0:0:
401,141,224128,2,0,P|357:130|315:142,1,90,8|0,0:0|2:0,0:0:0:0:
256,308,224428,1,2,0:0:0:0:
256,104,224578,1,0,0:0:0:0:
364,216,224728,2,0,P|408:227|450:215,1,90,8|0,0:0|2:0,0:0:0:0:
148,216,225028,6,0,P|104:205|62:217,1,90,6|0,0:0|2:0,0:0:0:0:
256,308,225328,1,8,0:0:0:0:
364,216,225478,1,8,0:0:0:0:
364,216,225553,1,8,0:0:0:0:
364,216,225628,2,0,P|372:168|356:132,1,90,6|0,0:0|2:0,0:0:0:0:
208,72,225928,1,8,0:0:0:0:
355,131,226078,2,0,B|480:128|480:128|428:84,1,180,6|0,0:0|0:0,0:0:0:0:
256,24,226528,5,8,0:0:0:0:
288,232,226678,1,2,0:0:0:0:
80,92,226828,1,8,0:0:0:0:
330,54,226978,1,2,0:0:0:0:
152,276,227128,1,8,0:0:0:0:
114,26,227278,5,8,0:0:0:0:
114,26,227353,1,8,0:0:0:0:
114,26,227428,2,0,P|145:58|151:101,1,90,6|0,0:0|2:0,0:0:0:0:
20,204,227728,1,8,0:0:0:0:
188,204,227878,1,0,0:0:0:0:
80,92,228028,1,2,0:0:0:0:
68,272,228178,1,0,0:0:0:0:
240,264,228328,1,8,0:0:0:0:
132,148,228478,1,2,0:0:0:0:
208,332,228628,6,0,P|251:339|292:320,1,90,6|0,0:0|2:0,0:0:0:0:
352,180,228928,1,8,0:0:0:0:
224,124,229078,1,0,0:0:0:0:
240,264,229228,1,2,0:0:0:0:
404,294,229378,5,0,0:0:0:0:
423,123,229528,1,8,0:0:0:0:
268,192,229678,1,0,0:0:0:0:
433,308,229828,6,0,P|391:359|402:294,1,180,6|8,0:0|0:0,0:0:0:0:
488,188,230278,1,4,0:0:0:0:
508,148,230353,1,0,0:0:0:0:
507,103,230428,1,8,0:0:0:0:
256,32,230578,1,0,0:0:0:0:
423,123,230728,1,8,0:0:0:0:
168,124,230878,1,0,0:0:0:0:
168,124,230953,1,0,0:0:0:0:
168,124,231028,5,12,0:0:0:0:
368,192,231178,1,8,0:0:0:0:
77,209,231328,5,8,0:0:0:0:
91,260,231403,1,0,0:0:0:0:
135,291,231478,1,0,0:0:0:0:
188,290,231553,1,0,0:0:0:0:
231,259,231628,5,8,0:0:0:0:
256,211,231703,1,0,0:0:0:0:
273,161,231778,1,0,0:0:0:0:
321,137,231853,1,0,0:0:0:0:
373,157,231928,1,8,0:0:0:0:
480,332,232078,6,0,B|396:379|396:291|309:335,1,180,6|0,0:0|0:0,0:0:0:0:
136,372,232528,1,8,0:0:0:0:
93,357,232603,1,0,0:0:0:0:
61,326,232678,1,0,0:0:0:0:
47,284,232753,1,0,0:0:0:0:
52,240,232828,2,0,P|64:196|48:148,1,90,2|0,0:0|2:0,0:0:0:0:
4,24,233128,1,8,0:0:0:0:
145,104,233278,6,0,B|228:152|228:60|315:100,1,180,6|0,0:0|0:0,0:0:0:0:
424,192,233728,2,0,L|424:288,1,90,8|0,0:0|2:0,0:0:0:0:
487,139,234028,2,0,P|453:112|409:111,1,90,2|0,0:0|2:0,0:0:0:0:
328,244,234328,1,8,0:0:0:0:
487,139,234478,6,0,B|488:0|488:0|456:52,1,180,6|0,0:0|0:0,0:0:0:0:
383,144,234928,2,0,P|341:156|297:145,1,90,8|0,0:0|2:0,0:0:0:0:
128,144,235228,2,0,P|170:131|214:142,1,90,2|0,0:0|2:0,0:0:0:0:
256,380,235528,5,8,0:0:0:0:
256,380,235678,2,0,B|220:292|292:292|256:205,1,180,6|0,0:0|0:0,0:0:0:0:
332,336,236128,1,8,0:0:0:0:
168,248,236278,1,2,0:0:0:0:
342,303,236428,1,8,0:0:0:0:
157,280,236578,1,2,0:0:0:0:
339,266,236728,1,8,0:0:0:0:
160,317,236878,6,0,B|84:352|32:320|32:320|88:300,1,180,6|0,0:0|0:0,0:0:0:0:
249,266,237328,2,0,B|339:266,1,90,8|0,0:0|2:0,0:0:0:0:
160,317,237628,2,0,P|148:268|160:216,1,90,2|0,0:0|2:0,0:0:0:0:
296,192,237928,1,8,0:0:0:0:
160,317,238078,6,0,L|68:317,1,90,6|0,0:0|2:0,0:0:0:0:
249,266,238378,1,0,0:0:0:0:
249,266,238528,2,0,P|264:312|248:368,1,90,8|0,0:0|2:0,0:0:0:0:
168,236,238828,2,0,P|153:190|169:134,1,90,2|0,0:0|2:0,0:0:0:0:
256,40,239128,1,8,0:0:0:0:
160,149,239278,6,0,L|64:149,1,90,6|0,0:0|2:0,0:0:0:0:
236,188,239578,1,0,0:0:0:0:
132,72,239728,1,8,0:0:0:0:
132,72,239803,1,0,0:0:0:0:
132,72,239878,1,0,0:0:0:0:
88,223,240028,2,0,P|74:265|91:306,1,90,2|0,0:0|2:0,0:0:0:0:
200,376,240328,1,8,0:0:0:0:
159,200,240478,6,0,P|104:150|88:223,1,180,6|0,0:0|0:0,0:0:0:0:
256,308,240928,1,8,0:0:0:0:
298,321,241003,1,0,0:0:0:0:
341,311,241078,1,0,0:0:0:0:
373,279,241153,1,0,0:0:0:0:
384,236,241228,1,8,0:0:0:0:
344,76,241378,1,0,0:0:0:0:
304,236,241528,1,8,0:0:0:0:
452,164,241678,6,0,B|524:164|524:164|511:176,1,90,6|0,0:0|2:0,0:0:0:0:
304,236,241978,1,0,0:0:0:0:
344,76,242128,1,8,0:0:0:0:
344,76,242203,1,0,0:0:0:0:
344,76,242278,1,0,0:0:0:0:
304,236,242428,2,0,B|232:236|232:236|245:224,1,90,2|0,0:0|2:0,0:0:0:0:
452,164,242728,5,8,0:0:0:0:
452,164,242803,1,0,0:0:0:0:
452,164,242878,2,0,P|464:204|452:264,1,90,6|0,0:0|2:0,0:0:0:0:
368,356,243178,1,0,0:0:0:0:
304,236,243328,1,8,0:0:0:0:
261,224,243403,1,0,0:0:0:0:
219,237,243478,1,0,0:0:0:0:
368,356,243628,2,0,P|410:368|452:354,1,90,2|0,0:0|2:0,0:0:0:0:
452,164,243928,1,8,0:0:0:0:
261,224,244078,6,0,L|260:320,1,90,6|0,0:0|2:0,0:0:0:0:
340,192,244378,1,0,0:0:0:0:
176,236,244528,1,8,0:0:0:0:
220,72,244678,1,0,0:0:0:0:
340,192,244828,2,0,P|384:200|432:188,1,90,2|0,0:0|2:0,0:0:0:0:
220,72,245128,1,8,0:0:0:0:
220,72,245203,1,0,0:0:0:0:
220,72,245278,2,0,P|176:64|128:76,1,90,6|0,0:0|2:0,0:0:0:0:
53,238,245578,5,12,0:0:0:0:
346,279,245728,1,12,0:0:0:0:
132,73,245878,1,12,0:0:0:0:
184,365,246028,1,12,0:0:0:0:
313,100,246178,2,0,P|355:86|403:98,1,90,12|0,0:0|2:0,0:0:0:0:
346,279,246478,6,0,B|260:332|260:244|175:288,1,180,6|0,0:0|0:0,0:0:0:0:
296,220,246928,1,8,0:0:0:0:
220,356,247078,1,0,0:0:0:0:
152,216,247228,2,0,B|144:120,1,90,2|0,0:0|2:0,0:0:0:0:
84,292,247528,1,8,0:0:0:0:
296,220,247678,6,0,B|368:220|368:220|352:248,1,90,6|0,0:0|2:0,0:0:0:0:
212,280,247978,1,0,0:0:0:0:
244,120,248128,1,8,0:0:0:0:
244,120,248203,1,0,0:0:0:0:
244,120,248278,1,0,0:0:0:0:
359,235,248428,2,0,P|371:280|356:336,1,90,2|0,0:0|2:0,0:0:0:0:
220,356,248728,1,8,0:0:0:0:
359,235,248878,6,0,B|455:235,1,90,6|0,0:0|2:0,0:0:0:0:
244,120,249178,1,0,0:0:0:0:
204,276,249328,1,8,0:0:0:0:
359,235,249478,1,0,0:0:0:0:
196,192,249628,2,0,L|104:192,1,90,2|0,0:0|2:0,0:0:0:0:
204,276,249928,1,8,0:0:0:0:
244,120,250078,6,0,B|236:44|236:44|271:72,1,90,4|0,0:0|2:0,0:0:0:0:
272,212,250378,1,0,0:0:0:0:
156,92,250528,1,8,0:0:0:0:
156,92,250603,1,0,0:0:0:0:
156,92,250678,1,0,0:0:0:0:
316,48,250828,1,8,0:0:0:0:
353,72,250903,1,0,0:0:0:0:
397,76,250978,1,0,0:0:0:0:
439,59,251053,1,0,0:0:0:0:
467,25,251128,1,8,0:0:0:0:
316,48,251278,6,0,L|316:156,1,90,6|0,0:0|2:0,0:0:0:0:
256,308,251578,1,0,0:0:0:0:
140,172,251728,1,8,0:0:0:0:
140,172,251803,1,0,0:0:0:0:
140,172,251878,1,0,0:0:0:0:
316,138,252028,1,2,0:0:0:0:
160,268,252178,5,0,0:0:0:0:
44,132,252328,1,8,0:0:0:0:
220,98,252478,2,0,L|316:80,1,90,6|0,0:0|2:0,0:0:0:0:
478,141,252778,5,0,0:0:0:0:
342,257,252928,1,8,0:0:0:0:
308,81,253078,1,0,0:0:0:0:
308,81,253153,1,0,0:0:0:0:
308,81,253228,1,8,0:0:0:0:
420,272,253378,5,0,0:0:0:0:
398,310,253453,1,0,0:0:0:0:
359,332,253528,1,8,0:0:0:0:
315,331,253603,1,0,0:0:0:0:
278,306,253678,1,0,0:0:0:0:
259,266,253753,1,0,0:0:0:0:
265,222,253828,6,0,L|364:216,1,90,6|0,0:0|0:0,0:0:0:0:
512,28,254278,2,0,L|413:34,1,90,6|0,0:0|0:0,0:0:0:0:
224,144,254728,6,0,B|192:144|160:96|64:96|32:256|112:304|112:352|175:359|175:359|202:372|215:332|256:318|296:332|309:372|336:359|336:359|384:352|384:304|464:256|432:96|336:96|304:144|272:144|272:144|224:96|288:19|288:19|213:60|141:26,1,1200,6|2,0:0|0:0,0:0:0:0:
