osu file format v14

[General]
AudioFilename: mitani nana shiroi yuki no princess wa.mp3
AudioLeadIn: 0
PreviewTime: 190153
Countdown: 0
SampleSet: Normal
StackLeniency: 0.5
Mode: 0
LetterboxInBreaks: 0
WidescreenStoryboard: 1

[Editor]
Bookmarks: 6478,21028,42628,61831,80878,90628,112228,131428,150478,160081,171028,181828,191428,208228,213028,232078,246478,259228,61478
DistanceSpacing: 0.9
BeatDivisor: 4
GridSize: 4
TimelineZoom: 1.2

[Metadata]
Title:Shiroi Yuki no Princess wa
TitleUnicode:白い雪のプリンセスは
Artist:Noboru feat.Mitani Nana
ArtistUnicode:のぼる↑ feat.実谷なな
Creator:Natsu
Version:Normal
Source:
Tags:vocaloid vocaloid2 hatsune miku Noboru-P blanca nieves apple poison Momochikun SnowNiNo_
BeatmapID:951907
BeatmapSetID:439609

[Difficulty]
HPDrainRate:4
CircleSize:3.5
OverallDifficulty:4
ApproachRate:5
SliderMultiplier:1.15
SliderTickRate:1

[Events]
//Background and Video events
0,0,"K.jpg",0,0
//Break Periods
2,84778,89428
2,191628,207028
//Storyboard Layer 0 (Background)
//Storyboard Layer 1 (Fail)
//Storyboard Layer 2 (Pass)
//Storyboard Layer 3 (Foreground)
//Storyboard Sound Samples

[TimingPoints]
628,300,4,1,1,15,1,0
1678,-100,4,1,1,15,0,0
6478,-100,4,1,2,70,0,0
6553,-100,4,1,2,50,0,0
18628,-100,4,1,2,60,0,0
20128,-100,4,3,1,60,0,0
20728,-100,4,1,2,60,0,0
21028,-100,4,1,2,40,0,0
37828,-100,4,1,2,50,0,0
58528,-100,4,1,2,60,0,0
58978,-100,4,3,1,80,0,0
59428,-100,4,1,2,50,0,0
60628,-100,4,1,1,50,0,0
61828,-100,4,1,1,50,0,1
62128,-100,4,1,2,45,0,1
63028,-100,4,1,2,60,0,1
70678,-100,4,3,1,50,0,1
71353,-100,4,3,1,50,0,0
71428,-100,4,1,2,60,0,1
74278,-100,4,3,1,50,0,1
74578,-100,4,1,2,60,0,1
76078,-100,4,3,1,60,0,1
76228,-100,4,1,2,60,0,1
79078,-100,4,1,3,40,0,1
79828,-100,4,1,2,60,0,1
80878,-100,4,1,2,60,0,0
80953,-100,4,1,2,50,0,0
90628,-100,4,1,2,40,0,0
98128,-100,4,1,3,25,0,0
98578,-100,4,1,2,40,0,0
99028,-100,4,1,1,40,0,0
100228,-100,4,1,2,50,0,0
104578,-100,4,3,1,40,0,0
104728,-100,4,1,2,50,0,0
120628,-100,4,1,2,60,0,0
121828,-100,4,1,2,50,0,0
124978,-100,4,3,1,50,0,0
125128,-100,4,1,2,50,0,0
128128,-100,4,1,2,60,0,0
128578,-100,4,3,1,80,0,0
129028,-100,4,1,2,50,0,0
130228,-100,4,1,1,50,0,0
131428,-100,4,1,1,50,0,1
131728,-100,4,1,2,45,0,1
132628,-100,4,1,2,60,0,1
140278,-100,4,3,1,50,0,1
140953,-100,4,3,1,50,0,0
141028,-100,4,1,2,60,0,1
145678,-100,4,3,1,50,0,1
145828,-100,4,1,2,60,0,1
148678,-100,4,1,3,40,0,1
149428,-100,4,1,2,60,0,1
150478,-100,4,1,2,60,0,0
150778,-100,4,1,3,50,0,0
162778,-100,4,1,3,40,0,0
164728,-100,4,1,3,50,0,0
167428,-100,4,1,3,40,0,0
171028,-100,4,1,1,40,0,0
172228,-100,4,1,1,50,0,0
172528,-100,4,1,2,60,0,0
172603,-100,4,1,2,20,0,0
172828,-100,4,1,2,60,0,0
172903,-100,4,1,2,20,0,0
173128,-100,4,1,2,60,0,0
173428,-100,4,1,1,50,0,0
173728,-100,4,1,2,60,0,0
173803,-100,4,1,2,20,0,0
174028,-100,4,1,2,60,0,0
174103,-100,4,1,2,20,0,0
174328,-100,4,1,2,60,0,0
174628,-100,4,1,1,50,0,0
174928,-100,4,1,2,60,0,0
175003,-100,4,1,2,20,0,0
175228,-100,4,1,2,60,0,0
175303,-100,4,1,2,20,0,0
175528,-100,4,1,2,60,0,0
175828,-100,4,1,1,50,0,0
176128,-100,4,1,2,60,0,0
176203,-100,4,1,2,20,0,0
176428,-100,4,1,2,60,0,0
176503,-100,4,1,2,20,0,0
176728,-100,4,1,2,60,0,0
177028,-100,4,1,1,50,0,0
177328,-100,4,1,2,60,0,0
177403,-100,4,1,2,20,0,0
177628,-100,4,1,2,60,0,0
177703,-100,4,1,2,20,0,0
177928,-100,4,1,2,60,0,0
178228,-100,4,1,1,50,0,0
178528,-100,4,1,2,60,0,0
178603,-100,4,1,2,20,0,0
178828,-100,4,1,2,60,0,0
178903,-100,4,1,2,20,0,0
179128,-100,4,1,2,60,0,0
179428,-100,4,1,1,50,0,0
179728,-100,4,1,2,60,0,0
179803,-100,4,1,2,20,0,0
180028,-100,4,1,2,60,0,0
180103,-100,4,1,2,20,0,0
180328,-100,4,1,2,60,0,0
180628,-100,4,1,2,50,0,0
181828,-100,4,1,2,50,0,0
184978,-100,4,3,1,40,0,0
185128,-100,4,1,2,50,0,0
186928,-100,4,3,1,40,0,0
187078,-100,4,1,2,50,0,0
188128,-100,4,1,2,60,0,0
188578,-100,4,1,3,40,0,0
189028,-100,4,1,2,50,0,0
190228,-100,4,1,1,25,0,0
191428,-100,4,1,1,35,0,0
208228,-100,4,1,2,50,0,0
210778,-100,4,1,2,40,0,0
211078,-100,4,1,2,50,0,0
211228,-100,4,1,2,40,0,0
211528,-100,4,1,2,60,0,0
211828,-100,4,1,1,50,0,0
213028,-100,4,1,1,50,0,1
213328,-100,4,1,2,45,0,1
214228,-100,4,1,2,60,0,1
221878,-100,4,3,1,50,0,1
222553,-100,4,3,1,50,0,0
222628,-100,4,1,2,60,0,1
227278,-100,4,3,1,50,0,1
227428,-100,4,1,2,60,0,1
230278,-100,4,1,3,40,0,1
232078,-100,4,1,2,50,0,0
239728,-100,4,1,3,40,0,0
240028,-100,4,1,2,50,0,0
240928,-100,4,1,3,40,0,0
241378,-100,4,1,2,50,0,0
242128,-100,4,1,3,40,0,0
242428,-100,4,1,2,50,0,0
242728,-100,4,1,3,40,0,0
242878,-100,4,1,2,50,0,0
243328,-100,4,1,3,40,0,0
243628,-100,4,1,2,50,0,0
245128,-100,4,1,3,40,0,0
245278,-100,4,1,2,50,0,0
248128,-100,4,1,3,40,0,0
248428,-100,4,1,2,50,0,0
250528,-100,4,1,3,40,0,0
251278,-100,4,1,2,50,0,0
251728,-100,4,1,3,40,0,0
252028,-100,4,1,2,50,0,0
253078,-100,4,1,3,40,0,0
253828,-100,4,1,2,50,0,0
254728,-142.857142857143,4,1,2,50,0,0
254803,-100,4,1,2,5,0,0
259228,-100,4,1,2,20,0,0

[Colours]
Combo1 : 255,136,139
Combo2 : 204,0,5

[HitObjects]
40,352,1678,6,0,P|56:292|32:236,1,115,2|2,0:0|0:0,0:0:0:0:
12,200,2128,2,0,L|136:200,1,115,2|0,0:0|0:0,0:0:0:0:
280,172,2878,2,0,P|296:112|272:56,1,115,2|2,0:0|0:0,0:0:0:0:
252,20,3328,2,0,L|380:20,1,115,2|0,0:0|0:0,0:0:0:0:
484,120,4078,6,0,P|468:180|492:236,1,115,2|2,0:0|0:0,0:0:0:0:
512,272,4528,2,0,L|384:272,1,115,2|0,0:0|0:0,0:0:0:0:
248,308,5278,2,0,P|264:248|240:192,1,115,2|2,0:0|0:0,0:0:0:0:
220,156,5728,2,0,L|344:156,1,115,2|0,0:0|0:0,0:0:0:0:
484,108,6478,6,0,P|535:57|467:33,1,172.5,6|8,0:0|0:0,0:0:0:0:
368,60,7228,2,0,P|313:76|258:62,1,115,2|8,0:0|0:0,0:0:0:0:
208,44,7678,2,0,B|240:124|176:124|208:212,1,172.5,6|8,0:0|0:0,0:0:0:0:
280,288,8428,2,0,L|396:288,1,115,2|8,0:0|0:0,0:0:0:0:
448,280,8878,6,0,B|415:191|479:191|447:111,1,172.5,6|8,0:0|0:0,0:0:0:0:
352,72,9628,2,0,L|228:72,1,115,2|8,0:0|0:0,0:0:0:0:
192,96,10078,2,0,P|212:148|191:200,1,115,6|0,0:0|0:0,0:0:0:0:
104,256,10678,2,0,P|83:308|103:360,1,115,6|0,0:0|0:0,0:0:0:0:
156,372,11128,1,8,0:0:0:0:
156,372,11278,6,0,B|272:372|272:372|324:336,1,172.5,6|12,0:0|0:0,0:0:0:0:
368,248,12028,2,0,P|351:193|369:139,1,115,2|8,0:0|0:0,0:0:0:0:
408,104,12478,2,0,L|235:104,1,172.5,6|8,0:0|0:0,0:0:0:0:
160,172,13228,2,0,P|179:224|159:276,1,115,2|8,0:0|0:0,0:0:0:0:
120,312,13678,6,0,L|292:312,1,172.5,6|8,0:0|0:0,0:0:0:0:
375,251,14428,2,0,P|359:197|379:144,1,115,2|8,0:0|0:0,0:0:0:0:
412,104,14878,2,0,L|288:104,1,115,6|0,0:0|0:0,0:0:0:0:
200,135,15478,2,0,P|212:80|189:29,1,115,6|0,0:0|0:0,0:0:0:0:
108,92,16078,1,6,0:0:0:0:
256,192,16228,12,4,18628,0:0:0:0:
256,24,19678,6,0,L|256:152,1,115,4|0,0:0|0:0,0:0:0:0:
256,192,20128,2,0,P|196:176|144:192,2,115,8|8|12,0:0|0:0|0:0,0:0:0:0:
328,268,21028,6,0,L|396:268,2,57.5,6|0|8,0:0|0:0|0:0,0:0:0:0:
372,172,21628,2,0,L|432:172,2,57.5,2|0|8,0:0|0:0|0:0,0:0:0:0:
412,76,22228,2,0,L|476:76,2,57.5,2|0|8,0:0|0:0|0:0,0:0:0:0:
380,36,22678,2,0,L|260:36,1,115,2|4,0:0|0:0,0:0:0:0:
168,68,23278,6,0,P|188:124|164:176,1,115,6|0,0:0|0:0,0:0:0:0:
132,208,23728,2,0,L|16:208,2,115,8|2|8,0:0|0:0|0:0,0:0:0:0:
176,300,24628,2,0,L|304:300,1,115,4|8,0:0|0:0,0:0:0:0:
336,276,25078,2,0,P|315:223|331:168,1,115,6|4,0:0|0:0,0:0:0:0:
392,84,25678,6,0,P|464:84|412:148,1,172.5,6|8,0:0|0:0,0:0:0:0:
330,169,26428,2,0,L|215:169,1,115,2|8,0:0|0:0,0:0:0:0:
164,168,26878,2,0,B|199:250|123:250|156:333,1,172.5,6|8,0:0|0:0,0:0:0:0:
252,368,27628,2,0,L|372:368,1,115,2|8,0:0|0:0,0:0:0:0:
420,368,28078,6,0,P|404:313|418:258,1,115,6|0,0:0|0:0,0:0:0:0:
460,228,28528,2,0,P|475:173|461:118,1,115,8|2,0:0|0:0,0:0:0:0:
388,44,29128,1,8,0:0:0:0:
312,116,29428,2,0,P|259:136|205:119,1,115,6|8,0:0|0:0,0:0:0:0:
168,80,29878,2,0,L|168:212,1,115,2|0,0:0|0:0,0:0:0:0:
168,248,30328,1,8,0:0:0:0:
136,348,30628,6,0,P|80:332|20:356,1,115,6|8,0:0|0:0,0:0:0:0:
12,248,31228,2,0,L|12:128,1,115,2|8,0:0|0:0,0:0:0:0:
12,28,31828,1,2,0:0:0:0:
116,24,32128,2,0,B|176:8|176:44|228:21,2,115,8|2|8,0:0|0:0|0:0,0:0:0:0:
104,76,32878,6,0,L|104:192,1,115,6|0,0:0|0:0,0:0:0:0:
136,232,33328,1,8,0:0:0:0:
224,175,33628,2,0,P|278:159|333:174,1,115,2|8,0:0|0:0,0:0:0:0:
284,264,34228,2,0,P|229:280|174:265,1,115,2|8,0:0|0:0,0:0:0:0:
136,232,34678,2,0,L|112:116,1,115,6|6,0:0|0:0,0:0:0:0:
160,28,35278,6,0,B|244:56|244:0|328:27,1,172.5,6|8,0:0|0:0,0:0:0:0:
420,72,36028,2,0,L|480:72,2,57.5,2|0|8,0:0|0:0|0:0,0:0:0:0:
399,119,36478,2,0,P|432:197|400:275,1,172.5,2|8,0:0|0:0,0:0:0:0:
308,324,37228,2,0,L|184:324,1,115,2|12,0:0|0:0,0:0:0:0:
104,268,37828,6,0,P|120:213|100:160,1,115,6|8,0:0|0:0,0:0:0:0:
56,136,38278,2,0,L|232:136,1,172.5,0|8,0:0|0:0,0:0:0:0:
328,172,39028,2,0,P|311:226|331:279,1,115,6|8,0:0|0:0,0:0:0:0:
376,304,39478,2,0,L|200:304,1,172.5,2|8,0:0|0:0,0:0:0:0:
115,355,40228,6,0,P|100:301|117:247,1,115,4|8,0:0|0:0,0:0:0:0:
160,216,40678,2,0,B|192:164|152:108|152:108|207:94,1,172.5,2|8,0:0|0:0,0:0:0:0:
308,64,41428,1,6,0:0:0:0:
368,148,41728,1,8,0:0:0:0:
392,248,42028,2,0,P|328:244|280:196,1,115,2|12,0:0|0:0,0:0:0:0:
232,128,42628,6,0,P|176:113|119:136,2,115,6|8|2,0:0|0:0|0:0,0:0:0:0:
180,220,43528,1,8,0:0:0:0:
224,312,43828,2,0,P|279:326|337:304,2,115,6|8|0,0:0|0:0|2:0,0:0:0:0:
180,220,44728,1,8,0:0:0:0:
256,152,45028,6,0,P|277:99|258:46,2,115,6|8|2,0:0|0:0|0:0,0:0:0:0:
180,220,45928,1,8,0:0:0:0:
96,276,46228,2,0,P|77:329|97:381,1,115,6|8,0:0|0:0,0:0:0:0:
148,376,46678,2,0,L|268:376,1,115,2|0,0:0|0:0,0:0:0:0:
308,348,47128,1,8,0:0:0:0:
380,276,47428,6,0,P|364:220|388:160,2,115,6|8|0,0:0|0:0|2:0,0:0:0:0:
468,224,48328,1,8,0:0:0:0:
472,120,48628,2,0,P|488:64|464:4,2,115,6|8|0,0:0|0:0|2:0,0:0:0:0:
384,68,49528,1,8,0:0:0:0:
296,124,49828,6,0,P|241:140|187:122,2,115,6|8|2,0:0|0:0|0:0,0:0:0:0:
384,68,50728,1,8,0:0:0:0:
472,120,51028,1,6,0:0:0:0:
384,172,51328,2,0,L|384:296,2,115,12|6|12,0:0|0:0|0:0,0:0:0:0:
384,68,52228,6,0,P|440:52|500:72,2,115,6|8|2,0:0|0:0|0:0,0:0:0:0:
300,128,53128,1,8,0:0:0:0:
212,184,53428,2,0,P|156:200|96:180,2,115,6|8|2,0:0|0:0|0:0,0:0:0:0:
300,128,54328,1,8,0:0:0:0:
412,144,54628,6,0,L|412:264,1,115,6|8,0:0|0:0,0:0:0:0:
452,356,55228,2,0,P|480:351|508:356,2,57.5,2|0|8,0:0|0:0|0:0,0:0:0:0:
352,380,55828,1,6,0:0:0:0:
280,304,56128,1,8,0:0:0:0:
280,304,56278,2,0,P|244:216|280:144,1,172.5,2|12,0:0|0:0,0:0:0:0:
364,96,57028,5,6,0:0:0:0:
272,52,57328,2,0,B|217:83|217:83|141:23|63:82,1,230,8|8,0:0|0:0,0:0:0:0:
24,180,58228,1,6,0:0:0:0:
84,264,58528,2,0,L|96:328,2,57.5,8|8|10,0:0|0:0|0:0,0:0:0:0:
136,272,58978,2,0,L|176:316,2,57.5,8|8|8,0:0|0:0|0:0,0:0:0:0:
184,252,59428,5,6,0:0:0:0:
256,56,60028,1,6,0:0:0:0:
328,252,60628,2,0,P|384:272|440:244,2,115,6|2|2,0:0|0:0|0:0,0:0:0:0:
256,176,61528,1,2,0:0:0:0:
168,124,61828,6,0,P|112:104|56:132,1,115,6|8,0:0|0:0,0:0:0:0:
40,172,62278,1,0,0:0:0:0:
40,172,62428,2,0,L|40:288,1,115,2|8,0:0|0:0,0:0:0:0:
124,344,63028,2,0,P|177:325|229:345,1,115,6|8,0:0|0:0,0:0:0:0:
328,376,63628,2,0,L|328:248,1,115,2|8,0:0|0:0,0:0:0:0:
260,184,64228,6,0,P|204:204|152:184,2,115,6|8|2,0:0|0:0|0:0,0:0:0:0:
360,156,65128,1,8,0:0:0:0:
444,96,65428,2,0,P|464:149|452:204,1,115,6|8,0:0|0:0,0:0:0:0:
360,156,66028,2,0,L|284:68,1,115,6|12,0:0|0:0,0:0:0:0:
224,156,66628,6,0,P|166:173|116:156,1,115,6|8,0:0|0:0,0:0:0:0:
28,104,67228,2,0,L|28:224,1,115,2|8,0:0|0:0,0:0:0:0:
76,236,67678,2,0,L|76:308,1,57.5,0|2,0:0|0:0,0:0:0:0:
148,368,68128,1,8,0:0:0:0:
148,368,68278,2,0,B|232:400|232:336|320:368,1,172.5,0|8,0:0|0:0,0:0:0:0:
420,380,69028,5,6,0:0:0:0:
380,284,69328,2,0,L|380:216,1,57.5,2|6,0:0|0:0,0:0:0:0:
480,192,69778,2,0,L|480:116,1,57.5,6|8,0:0|0:0,0:0:0:0:
468,83,70078,2,0,P|392:119|315:87,1,172.5,6|8,0:0|0:0,0:0:0:0:
236,24,70828,1,8,0:0:0:0:
160,96,71128,2,0,L|160:164,1,57.5,8|8,0:0|0:0,0:0:0:0:
160,204,71428,6,0,P|106:223|51:210,1,115,6|8,0:0|0:0,0:0:0:0:
32,160,71878,1,0,0:0:0:0:
32,160,72028,2,0,L|16:32,1,115,2|8,0:0|0:0,0:0:0:0:
120,40,72628,2,0,P|174:56|228:38,1,115,6|8,0:0|0:0,0:0:0:0:
332,32,73228,2,0,P|385:14|440:30,1,115,2|8,0:0|0:0,0:0:0:0:
496,120,73828,6,0,L|496:240,1,115,6|8,0:0|0:0,0:0:0:0:
496,340,74428,1,8,0:0:0:0:
408,284,74728,1,8,0:0:0:0:
408,284,74878,2,0,P|320:252|256:288,1,172.5,6|8,0:0|0:0,0:0:0:0:
188,364,75628,1,8,0:0:0:0:
160,264,75928,2,0,L|160:196,1,57.5,8|8,0:0|0:0,0:0:0:0:
164,155,76228,6,0,P|111:175|57:158,1,115,6|8,0:0|0:0,0:0:0:0:
0,72,76828,2,0,P|52:51|106:68,1,115,2|8,0:0|0:0,0:0:0:0:
164,155,77428,2,0,P|218:171|270:151,1,115,6|8,0:0|0:0,0:0:0:0:
308,116,77878,2,0,L|308:292,1,172.5,0|8,0:0|0:0,0:0:0:0:
216,336,78628,6,0,P|162:318|109:338,1,115,6|0,0:0|1:0,0:0:0:0:
64,360,79078,2,0,L|64:244,1,115,4|0,0:0|0:0,0:0:0:0:
64,192,79528,1,0,0:0:0:0:
168,192,79828,2,0,P|222:208|276:190,1,115,12|10,0:0|0:0,0:0:0:0:
348,116,80428,1,10,0:0:0:0:
384,212,80728,2,0,L|384:284,1,57.5,10|12,0:0|0:0,0:0:0:0:
256,192,80953,12,6,84478,0:0:0:0:
76,356,90628,6,0,L|4:356,2,57.5,6|0|8,0:0|0:0|0:0,0:0:0:0:
148,284,91228,2,0,L|208:284,2,57.5,2|0|8,0:0|0:0|0:0,0:0:0:0:
76,208,91828,2,0,L|18:208,2,57.5,2|0|8,0:0|0:0|0:0,0:0:0:0:
119,180,92278,2,0,P|140:127|121:74,1,115,2|4,0:0|0:0,0:0:0:0:
215,35,92878,6,0,P|270:52|326:40,1,115,6|0,0:0|0:0,0:0:0:0:
376,28,93328,2,0,P|431:15|486:32,2,115,8|2|8,0:0|0:0|0:0,0:0:0:0:
352,128,94228,2,0,L|352:252,1,115,6|8,0:0|0:0,0:0:0:0:
348,296,94678,2,0,P|293:280|241:301,1,115,6|4,0:0|0:0,0:0:0:0:
152,355,95278,6,0,P|73:346|76:267,1,172.5,6|8,0:0|0:0,0:0:0:0:
152,196,96028,2,0,P|168:141|152:86,1,115,2|8,0:0|0:0,0:0:0:0:
124,44,96478,2,0,B|206:79|206:3|289:36,1,172.5,6|8,0:0|0:0,0:0:0:0:
304,139,97228,2,0,P|287:194|304:248,1,115,2|8,0:0|0:0,0:0:0:0:
336,288,97678,6,0,L|456:288,1,115,6|0,0:0|0:0,0:0:0:0:
488,252,98128,2,0,P|504:197|488:143,1,115,8|0,0:0|0:0,0:0:0:0:
416,72,98728,1,8,0:0:0:0:
319,112,99028,2,0,P|254:145|247:72,1,172.5,2|2,0:0|0:0,0:0:0:0:
492,160,100228,6,0,L|492:284,1,115,6|8,0:0|0:0,0:0:0:0:
412,340,100828,2,0,P|353:325|296:344,1,115,2|8,0:0|0:0,0:0:0:0:
204,368,101428,1,2,0:0:0:0:
124,304,101728,2,0,P|69:289|14:303,2,115,8|2|8,0:0|0:0|0:0,0:0:0:0:
172,284,102478,6,0,L|172:169,1,115,6|0,0:0|0:0,0:0:0:0:
172,116,102928,1,8,0:0:0:0:
260,168,103228,2,0,P|314:184|369:169,1,115,2|8,0:0|0:0,0:0:0:0:
368,64,103828,2,0,P|313:48|258:63,1,115,6|8,0:0|0:0,0:0:0:0:
216,92,104278,2,0,L|96:92,1,115,6|12,0:0|0:0,0:0:0:0:
44,180,104878,6,0,B|72:264|16:264|43:348,1,172.5,6|8,0:0|0:0,0:0:0:0:
144,372,105628,2,0,L|204:384,2,57.5,2|0|8,0:0|0:0|0:0,0:0:0:0:
172,328,106078,2,0,P|205:250|173:172,1,172.5,6|8,0:0|0:0,0:0:0:0:
120,84,106828,2,0,L|235:84,1,115,2|12,0:0|0:0,0:0:0:0:
332,124,107428,6,0,P|316:179|336:232,1,115,6|8,0:0|0:0,0:0:0:0:
376,264,107878,2,0,L|203:264,1,172.5,0|8,0:0|0:0,0:0:0:0:
136,184,108628,2,0,P|152:129|132:76,1,115,6|8,0:0|0:0,0:0:0:0:
92,44,109078,2,0,L|264:44,1,172.5,2|8,0:0|0:0,0:0:0:0:
348,108,109828,6,0,P|333:162|350:216,1,115,6|8,0:0|0:0,0:0:0:0:
396,244,110278,2,0,P|418:315|343:319,1,172.5,2|8,0:0|0:0,0:0:0:0:
244,296,111028,1,6,0:0:0:0:
168,364,111328,1,12,0:0:0:0:
144,264,111628,2,0,L|132:148,1,115,2|12,0:0|0:0,0:0:0:0:
204,76,112228,6,0,P|260:91|317:68,2,115,6|8|2,0:0|0:0|0:0,0:0:0:0:
108,40,113128,1,8,0:0:0:0:
32,112,113428,2,0,P|46:167|24:225,2,115,6|8|0,0:0|0:0|2:0,0:0:0:0:
108,40,114328,1,8,0:0:0:0:
204,76,114628,6,0,L|324:76,2,115,6|8|2,0:0|0:0|0:0,0:0:0:0:
144,160,115528,1,8,0:0:0:0:
76,240,115828,2,0,P|57:293|77:345,1,115,6|8,0:0|0:0,0:0:0:0:
128,360,116278,2,0,L|248:360,1,115,2|0,0:0|0:0,0:0:0:0:
284,332,116728,1,8,0:0:0:0:
260,232,117028,6,0,P|244:176|268:116,2,115,6|8|0,0:0|0:0|2:0,0:0:0:0:
360,260,117928,1,8,0:0:0:0:
284,332,118228,2,0,L|160:332,2,115,6|8|0,0:0|0:0|2:0,0:0:0:0:
360,260,119128,1,8,0:0:0:0:
440,192,119428,6,0,P|456:137|438:83,2,115,6|8|2,0:0|0:0|0:0,0:0:0:0:
360,260,120328,1,8,0:0:0:0:
256,252,120628,1,6,0:0:0:0:
172,192,120928,2,0,P|111:175|64:192,2,115,12|6|12,0:0|0:0|0:0,0:0:0:0:
256,252,121828,6,0,P|240:308|260:368,2,115,6|8|2,0:0|0:0|0:0,0:0:0:0:
340,192,122728,1,8,0:0:0:0:
424,132,123028,2,0,P|440:76|420:16,2,115,6|8|2,0:0|0:0|0:0,0:0:0:0:
340,192,123928,1,8,0:0:0:0:
256,252,124228,6,0,L|140:252,1,115,6|8,0:0|0:0,0:0:0:0:
48,296,124828,2,0,P|53:324|48:352,2,57.5,2|8|8,0:0|0:0|0:0,0:0:0:0:
48,192,125428,1,6,0:0:0:0:
12,96,125728,1,8,0:0:0:0:
12,96,125878,2,0,B|96:128|96:56|200:88,1,172.5,2|8,0:0|0:0,0:0:0:0:
256,152,126628,5,6,0:0:0:0:
304,244,126928,2,0,B|380:302|456:242|456:242|511:273,1,230,8|8,0:0|0:0,0:0:0:0:
480,372,127828,1,6,0:0:0:0:
376,376,128128,2,0,L|308:376,2,57.5,8|8|8,0:0|0:0|0:0,0:0:0:0:
360,328,128578,2,0,L|296:308,2,57.5,8|8|8,0:0|0:0|0:0,0:0:0:0:
360,276,129028,5,6,0:0:0:0:
256,96,129628,1,6,0:0:0:0:
152,276,130228,2,0,P|96:296|40:268,2,115,6|2|2,0:0|0:0|0:0,0:0:0:0:
216,192,131128,1,2,0:0:0:0:
312,232,131428,6,0,L|432:232,1,115,6|8,0:0|0:0,0:0:0:0:
464,192,131878,1,0,0:0:0:0:
500,156,132028,2,0,P|516:104|496:44,1,115,2|10,0:0|0:0,0:0:0:0:
400,16,132628,2,0,P|384:68|404:128,1,115,6|8,0:0|0:0,0:0:0:0:
500,156,133228,2,0,L|500:271,1,115,2|8,0:0|0:0,0:0:0:0:
436,352,133828,6,0,P|380:372|328:360,2,115,6|8|2,0:0|0:0|0:0,0:0:0:0:
376,268,134728,1,8,0:0:0:0:
284,220,135028,2,0,L|168:220,1,115,6|8,0:0|0:0,0:0:0:0:
68,192,135628,2,0,P|48:140|68:80,1,115,6|12,0:0|0:0,0:0:0:0:
168,88,136228,6,0,P|221:105|275:87,1,115,6|8,0:0|0:0,0:0:0:0:
372,52,136828,2,0,L|404:164,1,115,2|8,0:0|0:0,0:0:0:0:
456,164,137278,2,0,L|477:230,1,57.5,0|6,0:0|0:0,0:0:0:0:
508,316,137728,1,8,0:0:0:0:
508,316,137878,2,0,B|424:348|424:284|336:316,1,172.5,2|8,0:0|0:0,0:0:0:0:
256,376,138628,5,6,0:0:0:0:
176,312,138928,2,0,L|152:256,1,57.5,8|6,0:0|0:0,0:0:0:0:
236,196,139378,2,0,L|260:140,1,57.5,4|8,0:0|0:0,0:0:0:0:
280,96,139678,2,0,P|356:132|433:100,1,172.5,6|8,0:0|0:0,0:0:0:0:
508,28,140428,1,8,0:0:0:0:
508,132,140728,2,0,L|508:200,1,57.5,8|8,0:0|0:0,0:0:0:0:
508,240,141028,6,0,P|454:221|399:234,1,115,6|8,0:0|0:0,0:0:0:0:
364,272,141478,1,0,0:0:0:0:
364,272,141628,2,0,L|348:144,1,115,2|8,0:0|0:0,0:0:0:0:
248,132,142228,2,0,L|264:260,1,115,6|8,0:0|0:0,0:0:0:0:
280,348,142828,2,0,P|227:330|172:346,1,115,2|8,0:0|0:0,0:0:0:0:
72,372,143428,6,0,L|72:257,1,115,6|8,0:0|0:0,0:0:0:0:
16,168,144028,1,2,0:0:0:0:
92,96,144328,1,8,0:0:0:0:
92,96,144478,2,0,P|180:64|244:100,1,172.5,6|8,0:0|0:0,0:0:0:0:
276,200,145228,1,8,0:0:0:0:
316,296,145528,2,0,L|376:296,1,57.5,8|8,0:0|0:0,0:0:0:0:
424,292,145828,6,0,P|404:239|421:185,1,115,6|8,0:0|0:0,0:0:0:0:
444,84,146428,2,0,P|392:105|338:88,1,115,2|8,0:0|0:0,0:0:0:0:
248,32,147028,2,0,P|194:14|141:35,1,115,2|8,0:0|0:0,0:0:0:0:
112,80,147478,2,0,B|148:160|68:160|112:256,1,172.5,0|8,0:0|0:0,0:0:0:0:
168,332,148228,6,0,P|222:314|275:334,1,115,6|0,0:0|2:0,0:0:0:0:
316,364,148678,2,0,L|316:248,1,115,4|0,0:0|0:0,0:0:0:0:
316,196,149128,1,0,0:0:0:0:
236,128,149428,2,0,P|182:112|128:130,1,115,12|10,0:0|0:0,0:0:0:0:
44,192,150028,1,10,0:0:0:0:
100,280,150328,2,0,L|164:280,1,57.5,10|12,0:0|0:0,0:0:0:0:
256,192,150553,12,8,153328,0:0:0:0:
32,320,154378,5,12,0:0:0:0:
32,320,154528,2,0,L|12:380,2,57.5,12|12|12,0:0|0:0|0:0,0:0:0:0:
84,316,154978,2,0,P|114:324|152:316,2,57.5,12|12|12,0:0|0:0|0:0,0:0:0:0:
72,212,155578,6,0,P|41:203|4:212,2,57.5,0|8|0,0:0|0:0|0:0,0:0:0:0:
124,224,156028,2,0,L|240:224,1,115,2|8,0:0|0:0,0:0:0:0:
288,204,156478,2,0,P|272:148|296:92,1,115,6|2,0:0|0:0,0:0:0:0:
380,40,157078,2,0,B|496:36|496:36|480:104,1,172.5,2|8,0:0|0:0,0:0:0:0:
460,136,157678,1,6,0:0:0:0:
392,216,157978,5,0,0:0:0:0:
392,216,158128,2,0,L|404:280,2,57.5,8|0|2,0:0|0:0|0:0,0:0:0:0:
292,196,158728,2,0,L|280:132,1,57.5,8|6,0:0|0:0,0:0:0:0:
208,68,159178,1,2,0:0:0:0:
208,68,159328,2,0,P|148:88|96:72,1,115,8|8,0:0|0:0,0:0:0:0:
16,16,159928,1,12,0:0:0:0:
16,16,160078,6,0,L|16:188,1,172.5,6|8,0:0|0:0,0:0:0:0:
44,232,160678,1,0,0:0:0:0:
44,232,160828,2,0,P|96:212|164:236,1,115,2|8,0:0|0:0,0:0:0:0:
188,264,161278,1,6,0:0:0:0:
256,184,161578,2,0,P|251:150|260:116,2,57.5,0|8|2,0:0|0:0|0:0,0:0:0:0:
296,280,162178,2,0,P|329:275|364:284,2,57.5,0|8|2,0:0|0:0|0:0,0:0:0:0:
228,360,162778,5,2,0:0:0:0:
228,360,162928,2,0,L|104:360,1,115,10|2,0:0|0:0,0:0:0:0:
68,336,163378,1,0,0:0:0:0:
68,336,163528,2,0,P|85:276|68:228,1,115,10|2,0:0|0:0,0:0:0:0:
32,192,163978,1,0,0:0:0:0:
32,192,164128,2,0,P|14:132|32:84,1,115,10|2,0:0|0:0,0:0:0:0:
120,32,164728,1,8,0:0:0:0:
120,32,164878,6,0,B|236:32,1,115,6|0,0:0|0:0,0:0:0:0:
284,52,165328,1,10,0:0:0:0:
256,152,165628,1,10,0:0:0:0:
356,128,165928,1,10,0:0:0:0:
356,128,166078,2,0,P|359:169|320:236,1,115,4|0,0:0|0:0,0:0:0:0:
276,248,166528,1,10,0:0:0:0:
176,220,166828,1,10,0:0:0:0:
204,320,167128,1,10,0:0:0:0:
276,248,167428,6,0,L|276:128,1,115,6|10,0:0|0:0,0:0:0:0:
272,80,167878,1,0,0:0:0:0:
272,80,168028,2,0,P|328:96|400:72,1,115,2|10,0:0|0:0,0:0:0:0:
424,52,168478,1,0,0:0:0:0:
424,52,168628,2,0,L|424:172,1,115,6|10,0:0|0:0,0:0:0:0:
420,220,169078,1,0,0:0:0:0:
420,220,169228,2,0,P|360:204|312:224,1,115,2|10,0:0|0:0,0:0:0:0:
256,308,169828,5,6,0:0:0:0:
196,224,170128,1,10,0:0:0:0:
256,140,170428,1,2,0:0:0:0:
312,223,170728,1,10,0:0:0:0:
256,308,171028,1,6,0:0:0:0:
32,128,172228,5,6,0:0:0:0:
32,128,172528,2,0,L|12:8,2,115,0|0|0,0:0|0:0|0:0,0:0:0:0:
120,180,173428,1,6,0:0:0:0:
120,180,173728,2,0,L|100:60,2,115,0|0|0,0:0|0:0|0:0,0:0:0:0:
216,216,174628,5,6,0:0:0:0:
216,216,174928,2,0,L|236:336,2,115,0|0|0,0:0|0:0|0:0,0:0:0:0:
304,268,175828,1,6,0:0:0:0:
304,268,176128,2,0,L|324:388,2,115,0|0|0,0:0|0:0|0:0,0:0:0:0:
360,180,177028,5,6,0:0:0:0:
360,180,177328,2,0,L|340:60,2,115,0|0|0,0:0|0:0|0:0,0:0:0:0:
448,232,178228,1,6,0:0:0:0:
448,232,178528,2,0,L|428:112,2,115,0|0|0,0:0|0:0|0:0,0:0:0:0:
380,312,179428,5,6,0:0:0:0:
380,312,179728,2,0,P|320:328|268:312,2,115,0|0|0,0:0|0:0|0:0,0:0:0:0:
448,232,180628,1,10,0:0:0:0:
448,128,180928,1,10,0:0:0:0:
356,180,181228,1,10,0:0:0:0:
448,232,181528,1,10,0:0:0:0:
448,128,181828,6,0,P|427:67|456:16,2,115,6|8|2,0:0|0:0|0:0,0:0:0:0:
448,232,182728,1,8,0:0:0:0:
356,180,183028,2,0,P|294:165|240:188,2,115,6|8|2,0:0|0:0|0:0,0:0:0:0:
448,232,183928,1,8,0:0:0:0:
356,276,184228,6,0,P|294:290|240:268,1,115,6|8,0:0|0:0,0:0:0:0:
164,216,184828,2,0,L|96:216,2,57.5,2|8|8,0:0|0:0|0:0,0:0:0:0:
248,156,185428,2,0,P|268:100|244:40,1,115,6|8,0:0|0:0,0:0:0:0:
296,20,185878,2,0,B|413:20,1,115,2|0,0:0|0:0,0:0:0:0:
464,20,186328,1,12,0:0:0:0:
436,120,186628,6,0,P|427:160|480:228,2,115,6|8|0,0:0|0:0|2:0,0:0:0:0:
464,20,187528,1,8,0:0:0:0:
364,48,187828,1,6,0:0:0:0:
296,124,188128,2,0,L|296:188,2,57.5,8|8|8,0:0|0:0|0:0,0:0:0:0:
248,144,188578,2,0,L|212:196,2,57.5,0|0|0,0:0|0:0|0:0,0:0:0:0:
196,128,189028,5,6,0:0:0:0:
20,20,189628,1,6,0:0:0:0:
124,200,190228,5,6,0:0:0:0:
196,128,190528,1,2,0:0:0:0:
96,104,190828,1,2,0:0:0:0:
124,200,191128,1,2,0:0:0:0:
224,232,191428,1,6,0:0:0:0:
24,360,208228,5,6,0:0:0:0:
200,248,208828,1,8,0:0:0:0:
112,192,209128,1,8,0:0:0:0:
200,136,209428,1,8,0:0:0:0:
112,84,209728,2,0,P|52:68|0:92,1,115,8|8,0:0|0:0,0:0:0:0:
16,192,210328,1,8,0:0:0:0:
52,288,210628,6,0,P|59:315|55:343,2,57.5,12|8|8,0:0|0:0|0:0,0:0:0:0:
92,256,211078,2,0,L|216:256,1,115,12|8,0:0|0:0,0:0:0:0:
256,276,211528,1,12,0:0:0:0:
316,192,211828,2,0,P|296:136|324:80,2,115,6|2|2,0:0|0:0|0:0,0:0:0:0:
420,196,212728,1,2,0:0:0:0:
504,256,213028,6,0,P|524:308|504:360,1,115,6|10,0:0|0:0,0:0:0:0:
452,364,213478,1,0,0:0:0:0:
452,364,213628,2,0,L|336:364,1,115,2|10,0:0|0:0,0:0:0:0:
256,300,214228,2,0,P|275:247|255:195,1,115,6|8,0:0|0:0,0:0:0:0:
168,136,214828,2,0,P|149:189|169:241,1,115,2|8,0:0|0:0,0:0:0:0:
256,300,215428,6,0,L|376:300,2,115,6|8|2,0:0|0:0|0:0,0:0:0:0:
172,360,216328,1,12,0:0:0:0:
72,332,216628,2,0,P|59:276|79:223,1,115,6|8,0:0|0:0,0:0:0:0:
140,140,217228,2,0,L|16:140,1,115,6|12,0:0|0:0,0:0:0:0:
64,44,217828,6,0,L|188:44,1,115,6|8,0:0|0:0,0:0:0:0:
259,108,218428,2,0,P|247:163|270:214,1,115,2|8,0:0|0:0,0:0:0:0:
316,240,218878,2,0,L|384:240,1,57.5,0|6,0:0|0:0,0:0:0:0:
464,192,219328,1,8,0:0:0:0:
464,192,219478,2,0,B|496:108|432:108|464:20,1,172.5,0|8,0:0|0:0,0:0:0:0:
360,40,220228,5,6,0:0:0:0:
280,108,220528,2,0,L|212:108,1,57.5,8|6,0:0|0:0,0:0:0:0:
256,208,220978,2,0,L|324:208,1,57.5,4|8,0:0|0:0,0:0:0:0:
364,208,221278,2,0,P|328:284|360:361,1,172.5,6|8,0:0|0:0,0:0:0:0:
436,288,222028,1,8,0:0:0:0:
472,192,222328,2,0,L|472:124,1,57.5,8|8,0:0|0:0,0:0:0:0:
440,96,222628,6,0,P|386:115|332:96,1,115,6|8,0:0|0:0,0:0:0:0:
284,80,223078,1,0,0:0:0:0:
284,80,223228,2,0,L|268:208,1,115,2|8,0:0|0:0,0:0:0:0:
256,296,223828,2,0,P|202:280|148:298,1,115,6|8,0:0|0:0,0:0:0:0:
56,344,224428,2,0,L|56:212,1,115,2|8,0:0|0:0,0:0:0:0:
60,124,225028,6,0,P|116:144|172:120,1,115,6|8,0:0|0:0,0:0:0:0:
256,72,225628,1,6,0:0:0:0:
256,176,225928,1,8,0:0:0:0:
256,176,226078,2,0,P|224:264|260:328,1,172.5,6|8,0:0|0:0,0:0:0:0:
356,360,226828,1,8,0:0:0:0:
448,308,227128,2,0,L|460:240,1,57.5,8|8,0:0|0:0,0:0:0:0:
464,200,227428,6,0,P|411:220|357:203,1,115,6|8,0:0|0:0,0:0:0:0:
300,116,228028,2,0,P|246:98|193:119,1,115,2|8,0:0|0:0,0:0:0:0:
250,207,228628,2,0,P|304:223|356:203,1,115,6|8,0:0|0:0,0:0:0:0:
394,168,229078,2,0,L|394:344,1,172.5,0|8,0:0|0:0,0:0:0:0:
292,368,229828,6,0,P|238:350|185:370,1,115,6|8,0:0|0:0,0:0:0:0:
132,364,230278,2,0,L|96:240,1,115,4|0,0:0|0:0,0:0:0:0:
80,204,230728,1,8,0:0:0:0:
156,136,231028,2,0,P|210:120|264:138,1,115,12|8,0:0|0:0,0:0:0:0:
352,192,231628,1,8,0:0:0:0:
396,288,231928,2,0,L|396:360,1,57.5,8|6,0:0|0:0,0:0:0:0:
256,192,232153,12,8,233728,0:0:0:0:
256,348,234478,6,0,L|256:228,1,115,6|0,0:0|0:0,0:0:0:0:
256,180,234928,2,0,P|312:196|368:176,1,115,8|2,0:0|0:0,0:0:0:0:
448,116,235528,1,8,0:0:0:0:
448,116,235678,2,0,L|448:248,1,115,6|0,0:0|0:0,0:0:0:0:
444,284,236128,1,8,0:0:0:0:
356,340,236428,2,0,P|301:323|247:341,1,115,8|8,0:0|0:0,0:0:0:0:
200,364,236878,6,0,B|176:244,1,115,6|0,0:0|0:0,0:0:0:0:
164,200,237328,1,8,0:0:0:0:
148,96,237628,2,0,P|204:108|260:72,1,115,2|8,0:0|0:0,0:0:0:0:
292,48,238078,2,0,B|316:168,1,115,6|0,0:0|0:0,0:0:0:0:
328,212,238528,1,8,0:0:0:0:
352,312,238828,2,0,P|299:332|245:315,1,115,2|8,0:0|0:0,0:0:0:0:
208,280,239278,6,0,P|155:259|101:276,1,115,6|0,0:0|0:0,0:0:0:0:
56,300,239728,2,0,L|36:172,1,115,8|2,0:0|0:0,0:0:0:0:
20,84,240328,1,8,0:0:0:0:
20,84,240478,2,0,P|80:100|132:72,1,115,6|0,0:0|0:0,0:0:0:0:
168,44,240928,1,8,0:0:0:0:
256,100,241228,2,0,L|256:224,1,115,8|8,0:0|0:0,0:0:0:0:
256,268,241678,6,0,P|311:256|362:280,1,115,6|0,0:0|0:0,0:0:0:0:
408,308,242128,2,0,L|408:180,1,115,8|2,0:0|0:0,0:0:0:0:
408,88,242728,1,8,0:0:0:0:
408,88,242878,2,0,P|352:108|296:88,1,115,6|0,0:0|0:0,0:0:0:0:
256,68,243328,2,0,P|200:48|144:68,1,115,8|2,0:0|0:0,0:0:0:0:
80,144,243928,1,8,0:0:0:0:
80,144,244078,6,0,L|80:264,1,115,6|0,0:0|0:0,0:0:0:0:
48,300,244528,1,8,0:0:0:0:
132,360,244828,2,0,P|187:371|242:356,1,115,2|8,0:0|0:0,0:0:0:0:
280,320,245278,1,6,0:0:0:0:
232,228,245578,1,12,0:0:0:0:
232,228,245728,2,0,P|212:168|236:116,1,115,12|12,0:0|0:0,0:0:0:0:
276,96,246178,1,12,0:0:0:0:
360,156,246478,6,0,L|484:156,1,115,6|0,0:0|0:0,0:0:0:0:
504,200,246928,1,8,0:0:0:0:
416,256,247228,2,0,P|397:312|419:370,1,115,2|8,0:0|0:0,0:0:0:0:
364,364,247678,2,0,L|240:364,1,115,6|0,0:0|0:0,0:0:0:0:
216,324,248128,1,8,0:0:0:0:
280,240,248428,2,0,P|300:184|280:124,1,115,2|8,0:0|0:0,0:0:0:0:
236,112,248878,6,0,B|116:112,1,115,6|0,0:0|0:0,0:0:0:0:
80,80,249328,1,8,0:0:0:0:
24,168,249628,2,0,P|3:220|22:274,1,115,2|8,0:0|0:0,0:0:0:0:
64,304,250078,2,0,L|184:304,1,115,4|0,0:0|0:0,0:0:0:0:
212,344,250528,1,8,0:0:0:0:
256,252,250828,2,0,P|272:200|256:144,1,115,8|8,0:0|0:0,0:0:0:0:
216,112,251278,6,0,L|332:112,1,115,6|0,0:0|0:0,0:0:0:0:
384,116,251728,2,0,P|367:170|383:224,1,115,8|2,0:0|0:0,0:0:0:0:
452,304,252328,1,8,0:0:0:0:
452,304,252478,2,0,B|328:304,1,115,6|0,0:0|0:0,0:0:0:0:
296,336,252928,1,8,0:0:0:0:
220,268,253228,2,0,B|252:184|192:184|236:96,1,172.5,8|0,0:0|0:0,0:0:0:0:
284,108,253828,1,6,0:0:0:0:
332,256,254278,1,6,0:0:0:0:
224,144,254728,6,0,B|192:144|160:96|64:96|32:256|112:304|112:352|175:359|175:359|202:372|215:332|256:318|296:332|309:372|336:359|336:359|384:352|384:304|464:256|432:96|336:96|304:144|272:144|272:144|224:96|288:19|288:19|213:60|140:24,1,1207.49996315003,6|2,0:0|0:0,0:0:0:0:
