osu file format v14

[General]
AudioFilename: mitani nana shiroi yuki no princess wa.mp3
AudioLeadIn: 0
PreviewTime: 190153
Countdown: 0
SampleSet: Normal
StackLeniency: 0.5
Mode: 0
LetterboxInBreaks: 0
WidescreenStoryboard: 1

[Editor]
Bookmarks: 6478,21028,42628,61831,80878,90628,112228,131428,150478,160081,171028,181828,191428,208228,213028,232078,246478,259228,61478
DistanceSpacing: 1
BeatDivisor: 4
GridSize: 4
TimelineZoom: 1.2

[Metadata]
Title:Shiroi Yuki no Princess wa
TitleUnicode:白い雪のプリンセスは
Artist:Noboru feat.Mitani Nana
ArtistUnicode:のぼる↑ feat.実谷なな
Creator:Natsu
Version:Extra
Source:
Tags:vocaloid vocaloid2 hatsune miku Noboru-P blanca nieves apple poison Momochikun SnowNiNo_
BeatmapID:949736
BeatmapSetID:439609

[Difficulty]
HPDrainRate:5.7
CircleSize:4
OverallDifficulty:8
ApproachRate:9.2
SliderMultiplier:1.7
SliderTickRate:2

[Events]
//Background and Video events
0,0,"K.jpg",0,0
//Break Periods
2,84678,87658
//Storyboard Layer 0 (Background)
//Storyboard Layer 1 (Fail)
//Storyboard Layer 2 (Pass)
//Storyboard Layer 3 (Foreground)
//Storyboard Sound Samples

[TimingPoints]
628,300,4,1,1,15,1,0
1678,-125,4,1,1,15,0,0
6478,-100,4,1,2,70,0,0
6553,-100,4,1,2,50,0,0
7828,-100,4,2,2,50,0,0
7978,-100,4,1,2,50,0,0
10078,-76.9230769230769,4,1,2,50,0,0
11278,-100,4,1,2,50,0,0
14878,-76.9230769230769,4,1,2,50,0,0
16078,-100,4,1,2,50,0,0
17128,-100,4,3,1,50,0,0
17428,-100,4,1,2,40,0,0
17578,-100,4,3,1,30,0,0
18628,-100,4,1,2,60,0,0
18928,-200,4,1,1,45,0,0
19228,-100,4,1,1,35,0,0
19528,-100,4,1,1,25,0,0
19678,-100,4,1,2,60,0,0
20128,-100,4,3,1,60,0,0
20728,-100,4,1,2,60,0,0
21028,-100,4,1,2,40,0,0
30478,-100,4,3,1,40,0,0
30628,-100,4,1,2,40,0,0
36778,-100,4,3,1,40,0,0
36928,-100,4,1,2,40,0,0
37828,-100,4,1,2,50,0,0
38878,-100,4,3,1,40,0,0
39028,-100,4,1,2,50,0,0
40078,-100,4,3,1,40,0,0
40228,-100,4,1,2,50,0,0
42628,-111.111111111111,4,1,2,50,0,0
51028,-76.9230769230769,4,1,2,50,0,0
52228,-111.111111111111,4,1,2,50,0,0
58528,-111.111111111111,4,1,2,60,0,0
58978,-111.111111111111,4,3,1,80,0,0
59428,-111.111111111111,4,1,2,50,0,0
60328,-111.111111111111,4,3,1,70,0,0
60628,-100,4,1,1,50,0,0
60928,-90.9090909090909,4,1,1,50,0,0
61228,-83.3333333333333,4,1,1,50,0,0
61528,-76.9230769230769,4,1,1,50,0,0
61828,-71.4285714285714,4,1,1,50,0,1
62128,-100,4,1,2,45,0,1
63028,-100,4,1,2,60,0,1
66028,-90.9090909090909,4,1,2,60,0,1
66328,-83.3333333333333,4,1,2,60,0,1
66628,-76.9230769230769,4,1,2,60,0,1
66928,-100,4,1,2,60,0,1
68428,-100,4,3,1,50,0,1
68728,-100,4,1,2,60,0,1
68878,-100,4,3,1,50,0,1
69028,-100,4,1,2,60,0,1
70678,-100,4,3,1,50,0,1
71353,-100,4,3,1,50,0,0
71428,-100,4,1,2,60,0,1
74278,-100,4,3,1,50,0,1
74578,-100,4,1,2,60,0,1
76078,-100,4,3,1,60,0,1
76228,-100,4,1,2,60,0,1
79078,-100,4,1,3,40,0,1
79828,-100,4,1,2,60,0,1
80878,-100,4,1,2,60,0,0
80953,-100,4,1,2,50,0,0
88228,-83.3333333333333,4,1,2,70,0,0
88378,-83.3333333333333,4,1,2,20,0,0
88678,-83.3333333333333,4,1,2,70,0,0
88828,-83.3333333333333,4,1,2,20,0,0
89128,-83.3333333333333,4,1,2,70,0,0
89278,-83.3333333333333,4,1,2,20,0,0
89578,-83.3333333333333,4,1,2,70,0,0
89728,-83.3333333333333,4,1,2,20,0,0
89878,-83.3333333333333,4,3,1,20,0,0
90028,-83.3333333333333,4,1,2,70,0,0
90478,-83.3333333333333,4,1,2,20,0,0
90628,-100,4,1,2,40,0,0
98128,-100,4,1,3,25,0,0
98578,-100,4,1,2,40,0,0
98878,-100,4,3,1,40,0,0
99028,-200,4,1,1,40,0,0
99103,-200,4,1,1,10,0,0
99478,-200,4,1,1,40,0,0
99553,-200,4,1,1,10,0,0
99928,-200,4,1,1,30,0,0
100228,-100,4,1,2,50,0,0
104578,-100,4,3,1,40,0,0
104728,-100,4,1,2,50,0,0
108478,-100,4,3,1,40,0,0
108628,-100,4,1,2,50,0,0
109678,-100,4,3,1,40,0,0
109828,-100,4,1,2,50,0,0
112228,-111.111111111111,4,1,2,50,0,0
120628,-76.9230769230769,4,1,2,60,0,0
121828,-111.111111111111,4,1,2,50,0,0
124978,-111.111111111111,4,3,1,50,0,0
125128,-111.111111111111,4,1,2,50,0,0
128128,-111.111111111111,4,1,2,60,0,0
128578,-111.111111111111,4,3,1,80,0,0
129028,-111.111111111111,4,1,2,50,0,0
129928,-111.111111111111,4,3,1,70,0,0
130228,-99.9999999999999,4,1,1,50,0,0
130528,-90.9090909090909,4,1,1,50,0,0
130828,-83.3333333333333,4,1,1,50,0,0
131128,-76.9230769230769,4,1,1,50,0,0
131428,-71.4285714285714,4,1,1,50,0,1
131728,-100,4,1,2,45,0,1
132628,-100,4,1,2,60,0,1
135628,-90.9090909090909,4,1,2,60,0,1
135928,-83.3333333333333,4,1,2,60,0,1
136228,-76.9230769230769,4,1,2,60,0,1
136528,-100,4,1,2,60,0,1
138028,-100,4,3,1,50,0,1
138328,-100,4,1,2,60,0,1
138478,-100,4,3,1,50,0,1
138628,-100,4,1,2,60,0,1
140278,-100,4,3,1,50,0,1
140953,-100,4,3,1,50,0,0
141028,-100,4,1,2,60,0,1
143878,-100,4,3,1,50,0,1
144028,-100,4,1,2,60,0,1
145678,-100,4,3,1,50,0,1
145828,-100,4,1,2,60,0,1
148678,-100,4,1,3,40,0,1
149428,-100,4,1,2,60,0,1
150478,-100,4,1,2,60,0,0
150778,-100,4,1,3,50,0,0
162778,-100,4,1,3,40,0,0
164728,-100,4,1,3,50,0,0
167428,-100,4,1,3,40,0,0
171028,-100,4,1,1,40,0,0
172228,-142.857142857143,4,1,1,50,0,0
172528,-142.857142857143,4,1,2,60,0,0
172603,-142.857142857143,4,1,2,20,0,0
172828,-142.857142857143,4,1,2,60,0,0
172903,-142.857142857143,4,1,2,20,0,0
173128,-142.857142857143,4,1,2,60,0,0
173428,-142.857142857143,4,1,1,50,0,0
173728,-142.857142857143,4,1,2,60,0,0
173803,-142.857142857143,4,1,2,20,0,0
174028,-142.857142857143,4,1,2,60,0,0
174103,-142.857142857143,4,1,2,20,0,0
174328,-142.857142857143,4,1,2,60,0,0
174628,-142.857142857143,4,1,1,50,0,0
174928,-142.857142857143,4,1,2,60,0,0
175003,-142.857142857143,4,1,2,20,0,0
175228,-142.857142857143,4,1,2,60,0,0
175303,-142.857142857143,4,1,2,20,0,0
175528,-142.857142857143,4,1,2,60,0,0
175828,-142.857142857143,4,1,1,50,0,0
176128,-142.857142857143,4,1,2,60,0,0
176203,-142.857142857143,4,1,2,20,0,0
176428,-142.857142857143,4,1,2,60,0,0
176503,-142.857142857143,4,1,2,20,0,0
176728,-142.857142857143,4,1,2,60,0,0
177028,-142.857142857143,4,1,1,50,0,0
177328,-142.857142857143,4,1,2,60,0,0
177403,-142.857142857143,4,1,2,20,0,0
177628,-142.857142857143,4,1,2,60,0,0
177703,-142.857142857143,4,1,2,20,0,0
177928,-142.857142857143,4,1,2,60,0,0
178228,-142.857142857143,4,1,1,50,0,0
178528,-142.857142857143,4,1,2,60,0,0
178603,-142.857142857143,4,1,2,20,0,0
178828,-142.857142857143,4,1,2,60,0,0
178903,-142.857142857143,4,1,2,20,0,0
179128,-142.857142857143,4,1,2,60,0,0
179428,-142.857142857143,4,1,1,50,0,0
179728,-142.857142857143,4,1,2,60,0,0
179803,-142.857142857143,4,1,2,20,0,0
180028,-142.857142857143,4,1,2,60,0,0
180103,-142.857142857143,4,1,2,20,0,0
180328,-142.857142857143,4,1,2,60,0,0
180628,-142.857142857143,4,1,2,50,0,0
181828,-111.111111111111,4,1,2,50,0,0
184978,-111.111111111111,4,3,1,40,0,0
185128,-111.111111111111,4,1,2,50,0,0
186928,-111.111111111111,4,3,1,40,0,0
187078,-111.111111111111,4,1,2,50,0,0
188128,-111.111111111111,4,1,2,60,0,0
188578,-111.111111111111,4,1,3,40,0,0
189028,-111.111111111111,4,1,2,50,0,0
189928,-111.111111111111,4,3,1,70,0,0
190228,-111.111111111111,4,1,1,25,0,0
190528,-125,4,1,1,25,0,0
190828,-142.857142857143,4,1,1,25,0,0
191128,-142.857142857143,4,1,2,25,0,0
191428,-166.666666666666,4,1,1,35,0,0
191503,-166.666666666666,4,1,1,5,0,0
191728,-166.666666666666,4,1,1,20,0,0
192103,-166.666666666666,4,1,1,5,0,0
192253,-166.666666666666,4,1,1,20,0,0
195103,-166.666666666666,4,1,1,5,0,0
195253,-166.666666666666,4,1,1,20,0,0
196303,-166.666666666666,4,1,1,5,0,0
196453,-166.666666666666,4,1,1,20,0,0
199753,-166.666666666666,4,1,1,5,0,0
200053,-166.666666666666,4,1,1,20,0,0
201103,-166.666666666666,4,1,1,5,0,0
201253,-166.666666666666,4,1,1,20,0,0
201703,-166.666666666666,4,1,1,5,0,0
201853,-166.666666666666,4,1,1,20,0,0
204553,-166.666666666666,4,1,1,5,0,0
204703,-166.666666666666,4,1,1,20,0,0
205903,-166.666666666666,4,1,1,5,0,0
206053,-166.666666666666,4,1,1,20,0,0
208228,-99.9999999999998,4,1,2,50,0,0
210778,-99.9999999999998,4,1,2,40,0,0
211078,-99.9999999999998,4,1,2,50,0,0
211228,-99.9999999999998,4,1,2,40,0,0
211528,-99.9999999999998,4,1,2,60,0,0
211828,-99.9999999999998,4,1,1,50,0,0
212128,-90.9090909090909,4,1,1,50,0,0
212428,-83.3333333333333,4,1,1,50,0,0
212728,-76.9230769230769,4,1,1,50,0,0
213028,-71.4285714285714,4,1,1,50,0,1
213328,-100,4,1,2,45,0,1
214228,-100,4,1,2,60,0,1
217228,-90.9090909090909,4,1,2,60,0,1
217528,-83.3333333333333,4,1,2,60,0,1
217828,-76.9230769230769,4,1,2,60,0,1
218128,-100,4,1,2,60,0,1
219628,-100,4,3,1,50,0,1
219928,-100,4,1,2,60,0,1
220078,-100,4,3,1,50,0,1
220228,-100,4,1,2,60,0,1
221878,-100,4,3,1,50,0,1
222553,-100,4,3,1,50,0,0
222628,-100,4,1,2,60,0,1
225478,-100,4,3,1,50,0,1
225628,-100,4,1,2,60,0,1
227278,-100,4,3,1,50,0,1
227428,-100,4,1,2,60,0,1
230278,-100,4,1,3,40,0,1
232078,-100,4,1,2,50,0,0
232528,-100,4,1,3,40,0,0
232828,-100,4,1,2,50,0,0
239728,-100,4,1,3,40,0,0
240028,-100,4,1,2,50,0,0
240928,-100,4,1,3,40,0,0
241378,-100,4,1,2,50,0,0
242128,-100,4,1,3,40,0,0
242428,-100,4,1,2,50,0,0
242728,-100,4,1,3,40,0,0
242878,-100,4,1,2,50,0,0
243328,-100,4,1,3,40,0,0
243628,-100,4,1,2,50,0,0
245128,-100,4,1,3,40,0,0
245278,-100,4,1,2,50,0,0
248128,-100,4,1,3,40,0,0
248428,-100,4,1,2,50,0,0
250528,-100,4,1,3,40,0,0
251278,-100,4,1,2,50,0,0
251728,-100,4,1,3,40,0,0
252028,-100,4,1,2,50,0,0
253078,-100,4,1,3,40,0,0
253828,-100,4,1,2,50,0,0
253978,-100,4,1,2,20,0,0
254278,-100,4,1,2,50,0,0
254428,-100,4,1,2,20,0,0
254728,-212.765957446809,4,1,2,50,0,0
254803,-100,4,1,2,5,0,0
259228,-100,4,1,2,20,0,0

[Colours]
Combo1 : 255,136,139
Combo2 : 204,0,5

[HitObjects]
40,32,1678,5,2,0:0:0:0:
40,32,1978,1,2,0:0:0:0:
112,96,2128,2,0,L|188:96,1,68,2|0,0:0|0:0,0:0:0:0:
40,32,2428,2,0,P|16:96|44:164,1,136,2|0,0:0|0:0,0:0:0:0:
188,192,2878,5,2,0:0:0:0:
188,192,3178,1,2,0:0:0:0:
116,256,3328,2,0,L|40:256,1,68,2|0,0:0|0:0,0:0:0:0:
188,192,3628,2,0,P|212:256|184:324,1,136,2|0,0:0|0:0,0:0:0:0:
324,368,4078,5,2,0:0:0:0:
324,368,4378,1,2,0:0:0:0:
396,304,4528,2,0,L|472:304,1,68,2|0,0:0|0:0,0:0:0:0:
324,368,4828,2,0,P|300:304|328:236,1,136,2|0,0:0|0:0,0:0:0:0:
484,192,5278,5,2,0:0:0:0:
484,192,5578,1,2,0:0:0:0:
412,128,5728,2,0,L|336:128,1,68,2|0,0:0|0:0,0:0:0:0:
484,192,6028,2,0,P|508:128|480:60,1,136,2|0,0:0|0:0,0:0:0:0:
316,28,6478,6,0,B|236:80|236:8|152:44,1,170,6|0,0:0|0:0,0:0:0:0:
68,116,6928,2,0,L|68:208,1,85,8|0,0:0|0:0,0:0:0:0:
153,43,7228,1,2,0:0:0:0:
48,8,7378,1,0,0:0:0:0:
68,116,7528,1,8,0:0:0:0:
200,296,7678,6,0,L|200:204,1,85,6|0,0:0|0:0,0:0:0:0:
124,332,7978,1,0,0:0:0:0:
280,264,8128,2,0,P|320:256|364:264,1,85,8|0,0:0|0:0,0:0:0:0:
465,303,8428,1,2,0:0:0:0:
377,371,8578,1,0,0:0:0:0:
363,263,8728,1,8,0:0:0:0:
444,118,8878,6,0,P|454:159|444:200,1,85,6|0,0:0|2:0,0:0:0:0:
363,263,9178,1,0,0:0:0:0:
284,184,9328,2,0,L|196:184,1,85,8|0,0:0|0:0,0:0:0:0:
363,263,9628,1,2,0:0:0:0:
391,155,9778,1,0,0:0:0:0:
284,184,9928,1,8,0:0:0:0:
464,196,10078,6,0,P|476:140|448:92,1,110.499994941712,6|0,0:0|2:0,0:0:0:0:
300,44,10378,1,0,0:0:0:0:
391,155,10528,1,8,0:0:0:0:
227,3,10678,6,0,P|215:59|243:107,1,110.499994941712,6|0,0:0|2:0,0:0:0:0:
391,155,10978,1,0,0:0:0:0:
300,44,11128,1,8,0:0:0:0:
176,192,11278,6,0,B|104:192|104:192|136:168,1,85,6|0,0:0|2:0,0:0:0:0:
256,136,11578,1,0,0:0:0:0:
256,248,11728,2,0,L|256:340,1,85,12|0,0:0|0:0,0:0:0:0:
354,194,12028,1,2,0:0:0:0:
256,136,12178,1,0,0:0:0:0:
256,248,12328,1,8,0:0:0:0:
340,112,12478,6,0,L|428:112,1,85,6|0,0:0|2:0,0:0:0:0:
288,192,12778,1,0,0:0:0:0:
220,72,12928,2,0,L|136:72,1,85,8|0,0:0|0:0,0:0:0:0:
4,116,13228,1,2,0:0:0:0:
80,24,13378,1,0,0:0:0:0:
80,160,13528,1,8,0:0:0:0:
220,72,13678,6,0,L|308:72,1,85,6|0,0:0|2:0,0:0:0:0:
444,132,13978,1,0,0:0:0:0:
444,132,14128,2,0,L|360:132,1,85,8|0,0:0|0:0,0:0:0:0:
492,68,14428,1,2,0:0:0:0:
492,204,14578,1,0,0:0:0:0:
492,56,14728,1,8,0:0:0:0:
492,204,14878,6,0,P|483:260|439:295,1,110.499994941712,6|0,0:0|2:0,0:0:0:0:
284,287,15178,1,0,0:0:0:0:
409,216,15328,1,8,0:0:0:0:
201,299,15478,6,0,P|209:242|253:207,1,110.499994941712,6|0,0:0|2:0,0:0:0:0:
409,216,15778,1,0,0:0:0:0:
284,287,15928,1,8,0:0:0:0:
312,144,16078,6,0,L|312:52,1,85,6|0,0:0|2:0,0:0:0:0:
204,96,16378,1,0,0:0:0:0:
204,96,16528,2,0,L|204:188,1,85,8|0,0:0|2:0,0:0:0:0:
92,192,16828,1,2,0:0:0:0:
92,192,16978,2,0,L|92:284,1,85,8|8,0:0|0:0,0:0:0:0:
28,312,17203,2,0,L|28:356,1,42.5,8|8,0:0|0:0,0:0:0:0:
168,256,17428,5,8,0:0:0:0:
232,344,17578,1,8,0:0:0:0:
232,344,17653,1,8,0:0:0:0:
232,344,17728,2,0,L|316:344,1,85,8|8,0:0|0:0,0:0:0:0:
424,368,18028,1,8,0:0:0:0:
388,264,18178,1,8,0:0:0:0:
388,264,18253,1,8,0:0:0:0:
388,264,18328,2,0,P|375:223|384:182,1,85,8|8,0:0|0:0,0:0:0:0:
504,72,18628,5,4,0:0:0:0:
320,128,18778,1,4,0:0:0:0:
448,220,18928,6,0,L|540:220,2,85,2|2|2,0:0|0:0|0:0,0:0:0:0:
320,128,19678,6,0,P|276:96|352:64,1,170,4|0,0:0|0:0,0:0:0:0:
457,243,20128,1,8,0:0:0:0:
280,232,20278,1,8,0:0:0:0:
430,136,20428,1,8,0:0:0:0:
363,302,20578,1,8,0:0:0:0:
320,128,20728,2,0,P|308:88|320:48,1,85,12|0,0:0|0:0,0:0:0:0:
368,204,21028,5,6,0:0:0:0:
288,304,21178,1,0,0:0:0:0:
240,184,21328,2,0,L|140:184,1,85,8|0,0:0|0:0,0:0:0:0:
216,332,21628,5,2,0:0:0:0:
296,232,21778,1,0,0:0:0:0:
344,352,21928,2,0,L|444:352,1,85,8|0,0:0|0:0,0:0:0:0:
288,304,22228,5,2,0:0:0:0:
240,184,22378,1,0,0:0:0:0:
368,204,22528,1,8,0:0:0:0:
224,260,22678,1,0,0:0:0:0:
312,156,22828,2,0,P|323:115|310:76,2,85,2|0|8,0:0|0:0|0:0,0:0:0:0:
356,276,23278,6,0,L|440:276,1,85,6|0,0:0|2:0,0:0:0:0:
296,232,23578,1,0,0:0:0:0:
256,368,23728,1,8,0:0:0:0:
157,265,23878,1,0,0:0:0:0:
280,156,24028,5,2,0:0:0:0:
240,292,24178,1,0,0:0:0:0:
141,189,24328,1,8,0:0:0:0:
141,189,24628,5,4,0:0:0:0:
240,292,24778,1,0,0:0:0:0:
200,124,24928,1,8,0:0:0:0:
296,232,25078,2,0,B|368:224|368:224|352:240,1,85,6|0,0:0|2:0,0:0:0:0:
157,265,25378,2,0,B|85:273|85:273|101:257,1,85,4|8,0:0|0:0,0:0:0:0:
280,156,25678,6,0,B|424:140|424:140|408:188,1,170,6|0,0:0|0:0,0:0:0:0:
216,204,26128,1,8,0:0:0:0:
216,204,26428,1,2,0:0:0:0:
140,120,26578,2,0,P|128:76|140:36,1,85,0|8,0:0|0:0,0:0:0:0:
368,88,26878,6,0,B|284:124|284:60|202:81,1,170,6|0,0:0|0:0,0:0:0:0:
96,184,27328,1,8,0:0:0:0:
96,184,27628,1,2,0:0:0:0:
203,80,27778,2,0,P|216:40|203:0,1,85,0|8,0:0|0:0,0:0:0:0:
96,184,28078,6,0,P|83:224|96:264,1,85,6|0,0:0|2:0,0:0:0:0:
136,120,28378,2,0,P|96:107|56:120,1,85,0|8,0:0|0:0,0:0:0:0:
164,223,28678,5,2,0:0:0:0:
328,170,28828,1,2,0:0:0:0:
227,310,28978,1,0,0:0:0:0:
227,137,29128,1,8,0:0:0:0:
328,277,29278,1,0,0:0:0:0:
164,223,29428,6,0,B|107:253|47:217|47:217|67:258,1,170,6|8,0:0|0:0,0:0:0:0:
238,253,29878,2,0,P|229:172|154:141,1,170,2|0,0:0|0:0,0:0:0:0:
67,258,30328,1,8,0:0:0:0:
169,381,30478,5,8,0:0:0:0:
169,381,30553,1,8,0:0:0:0:
169,381,30628,1,4,0:0:0:0:
164,223,30778,1,0,0:0:0:0:
72,357,30928,1,8,0:0:0:0:
221,296,31078,1,0,0:0:0:0:
67,258,31228,1,2,0:0:0:0:
169,381,31378,2,0,L|265:381,1,85,0|8,0:0|0:0,0:0:0:0:
480,368,31678,5,0,0:0:0:0:
340,296,31828,1,2,0:0:0:0:
480,296,31978,1,0,0:0:0:0:
340,296,32128,1,8,0:0:0:0:
480,220,32278,1,0,0:0:0:0:
340,296,32428,2,0,P|300:308|248:292,2,85,2|2|8,0:0|0:0|0:0,0:0:0:0:
480,135,32878,6,0,L|480:220,1,85,6|0,0:0|2:0,0:0:0:0:
366,370,33178,1,0,0:0:0:0:
408,256,33328,1,8,0:0:0:0:
486,349,33478,1,0,0:0:0:0:
340,296,33628,2,0,P|296:284|256:296,1,85,2|0,0:0|0:0,0:0:0:0:
96,364,33928,2,0,P|140:376|180:364,1,85,8|0,0:0|2:0,0:0:0:0:
256,192,34228,5,2,0:0:0:0:
188,104,34378,1,0,0:0:0:0:
324,48,34528,1,8,0:0:0:0:
188,104,34678,2,0,P|148:116|104:104,1,85,6|0,0:0|2:0,0:0:0:0:
324,48,34978,2,0,P|364:36|408:48,1,85,6|0,0:0|2:0,0:0:0:0:
419,196,35278,6,0,P|345:192|364:120,1,170,6|0,0:0|0:0,0:0:0:0:
496,192,35728,2,0,L|496:276,1,85,8|0,0:0|2:0,0:0:0:0:
408,364,36028,1,2,0:0:0:0:
320,276,36178,2,0,P|278:267|236:275,1,85,0|8,0:0|0:0,0:0:0:0:
40,336,36478,6,0,P|118:364|198:339,1,170,2|8,0:0|0:0,0:0:0:0:
256,184,36928,1,8,0:0:0:0:
256,184,37228,5,2,0:0:0:0:
206,86,37378,1,0,0:0:0:0:
158,235,37528,1,12,0:0:0:0:
107,136,37678,1,0,0:0:0:0:
256,288,37828,6,0,B|296:308|296:308|344:264|413:284,1,170,6|8,0:0|0:0,0:0:0:0:
448,180,38278,2,0,P|436:139|444:98,1,85,0|2,0:0|0:0,0:0:0:0:
512,16,38578,1,0,0:0:0:0:
364,52,38728,1,8,0:0:0:0:
448,180,38878,5,8,0:0:0:0:
448,180,38953,1,8,0:0:0:0:
448,180,39028,2,0,P|480:264|448:332,1,170,6|8,0:0|0:0,0:0:0:0:
320,364,39478,2,0,B|208:364|208:364|260:328,1,170,2|0,0:0|0:0,0:0:0:0:
376,256,39928,1,8,0:0:0:0:
184,192,40078,5,8,0:0:0:0:
184,192,40153,1,8,0:0:0:0:
184,192,40228,2,0,P|152:108|184:40,1,170,4|8,0:0|0:0,0:0:0:0:
312,8,40678,2,0,B|424:8|424:8|372:44,1,170,2|0,0:0|0:0,0:0:0:0:
256,116,41128,1,8,0:0:0:0:
256,116,41428,6,0,L|152:100,1,85,6|0,0:0|0:0,0:0:0:0:
256,268,41728,2,0,L|360:284,1,85,8|0,0:0|0:0,0:0:0:0:
304,51,42028,2,0,P|271:77|256:116,1,85,2|0,0:0|0:0,0:0:0:0:
208,334,42328,2,0,P|240:307|256:268,1,85,12|0,0:0|0:0,0:0:0:0:
188,144,42628,6,0,L|108:144,1,76.4999976654053,6|0,0:0|2:0,0:0:0:0:
324,240,42928,2,0,L|404:240,1,76.4999976654053,8|0,0:0|0:0,0:0:0:0:
296,168,43228,1,2,0:0:0:0:
256,267,43378,1,0,0:0:0:0:
372,160,43528,1,8,0:0:0:0:
372,160,43828,6,0,L|459:160,1,76.4999976654053,6|0,0:0|0:0,0:0:0:0:
280,84,44128,2,0,L|193:84,1,76.4999976654053,8|2,0:0|0:0,0:0:0:0:
372,160,44428,1,0,2:0:0:0:
392,42,44578,1,0,0:0:0:0:
280,84,44728,2,0,P|268:116|280:168,1,76.4999976654053,8|0,0:0|2:0,0:0:0:0:
427,239,45028,6,0,P|439:171|372:160,1,152.999995330811,6|8,0:0|0:0,0:0:0:0:
356,288,45478,2,0,P|350:324|356:364,1,76.4999976654053,0|2,0:0|0:0,0:0:0:0:
427,239,45778,1,0,0:0:0:0:
272,292,45928,2,0,L|196:292,1,76.4999976654053,8|0,0:0|2:0,0:0:0:0:
240,92,46228,6,0,L|316:92,1,76.4999976654053,6|0,0:0|2:0,0:0:0:0:
168,28,46528,1,8,0:0:0:0:
152,124,46678,2,0,P|140:159|147:196,1,76.4999976654053,2|0,0:0|2:0,0:0:0:0:
168,28,46978,2,0,P|128:28|88:56,1,76.4999976654053,0|8,0:0|0:0,0:0:0:0:
48,148,47278,1,0,0:0:0:0:
224,164,47428,6,0,L|377:164,1,152.999995330811,6|8,0:0|0:0,0:0:0:0:
372,299,47878,2,0,P|344:230|377:164,1,152.999995330811,2|0,0:0|0:0,0:0:0:0:
504,60,48328,1,8,0:0:0:0:
504,60,48628,6,0,L|351:60,1,152.999995330811,6|8,0:0|0:0,0:0:0:0:
355,196,49078,2,0,P|383:127|350:60,1,152.999995330811,2|0,0:0|0:0,0:0:0:0:
355,196,49528,2,0,L|444:196,1,76.4999976654053,8|0,0:0|2:0,0:0:0:0:
312,276,49828,6,0,P|266:217|280:144,1,152.999995330811,6|8,0:0|0:0,0:0:0:0:
460,128,50278,1,0,0:0:0:0:
355,196,50428,1,2,0:0:0:0:
352,76,50578,1,0,0:0:0:0:
444,224,50728,2,0,P|454:260|447:297,1,76.4999976654053,8|0,0:0|2:0,0:0:0:0:
256,320,51028,6,0,B|200:324|200:324|218:272,1,110.499994941712,6|0,0:0|2:0,0:0:0:0:
256,64,51328,2,0,B|312:60|312:60|294:112,1,110.499994941712,12|0,0:0|2:0,0:0:0:0:
128,192,51628,2,0,B|124:136|124:136|176:154,1,110.499994941712,6|0,0:0|2:0,0:0:0:0:
336,230,51928,2,0,B|388:248|388:248|384:192,1,110.499994941712,12|0,0:0|2:0,0:0:0:0:
256,64,52228,6,0,L|256:160,1,76.4999976654053,6|0,0:0|2:0,0:0:0:0:
256,320,52528,2,0,L|256:224,1,76.4999976654053,8|0,0:0|0:0,0:0:0:0:
184,148,52828,1,2,0:0:0:0:
184,148,52978,1,0,0:0:0:0:
324,192,53128,2,0,L|404:192,1,76.4999976654053,8|0,0:0|2:0,0:0:0:0:
256,64,53428,6,0,L|176:64,1,76.4999976654053,6|0,0:0|2:0,0:0:0:0:
328,100,53728,2,0,P|335:62|327:25,2,76.4999976654053,8|0|2,0:0|2:0|0:0,0:0:0:0:
184,148,54178,1,0,0:0:0:0:
184,148,54328,2,0,P|176:185|184:222,1,76.4999976654053,8|0,0:0|2:0,0:0:0:0:
324,288,54628,6,0,B|388:288|388:288|368:312,1,76.4999976654053,6|0,0:0|2:0,0:0:0:0:
188,348,54928,2,0,B|124:348|124:348|144:324,1,76.4999976654053,8|0,0:0|2:0,0:0:0:0:
208,204,55228,1,2,0:0:0:0:
324,288,55378,1,0,0:0:0:0:
188,348,55528,1,8,0:0:0:0:
208,204,55678,1,0,0:0:0:0:
324,288,55828,6,0,L|408:288,1,76.4999976654053,6|0,0:0|2:0,0:0:0:0:
240,280,56128,1,8,0:0:0:0:
336,192,56278,2,0,P|368:125|336:58,1,152.999995330811,2|0,0:0|0:0,0:0:0:0:
216,28,56728,2,0,L|139:28,1,76.4999976654053,12|0,0:0|2:0,0:0:0:0:
288,124,57028,6,0,L|452:124,1,152.999995330811,6|8,0:0|0:0,0:0:0:0:
436,280,57478,2,0,P|375:253|417:203,1,152.999995330811,2|0,0:0|0:0,0:0:0:0:
512,332,57928,1,8,0:0:0:0:
512,332,58078,1,0,0:0:0:0:
344,352,58228,6,0,L|248:352,1,76.4999976654053,6|0,0:0|2:0,0:0:0:0:
104,248,58528,1,8,0:0:0:0:
248,261,58678,1,8,0:0:0:0:
165,379,58828,1,10,0:0:0:0:
36,168,58978,5,8,0:0:0:0:
220,116,59128,1,8,0:0:0:0:
172,301,59278,1,8,0:0:0:0:
144,108,59428,6,0,P|184:48|264:52,1,152.999995330811,6|0,0:0|2:0,0:0:0:0:
328,148,59878,1,0,0:0:0:0:
328,148,60028,2,0,L|328:228,1,76.4999976654053,6|0,0:0|2:0,0:0:0:0:
400,104,60328,5,8,0:0:0:0:
248,188,60478,1,8,0:0:0:0:
400,288,60628,6,0,L|400:196,1,85,6|0,0:0|0:0,0:0:0:0:
324,288,60928,6,0,L|324:176,1,93.5000028533936,2|0,0:0|0:0,0:0:0:0:
248,290,61228,6,0,L|248:183,1,101.999996887207,2|0,0:0|0:0,0:0:0:0:
172,288,61528,6,0,L|172:172,1,110.499994941712,2|0,0:0|0:0,0:0:0:0:
96,288,61828,6,0,L|96:156,1,118.999996368408,6|0,0:0|0:0,0:0:0:0:
144,72,62128,5,8,0:0:0:0:
16,132,62278,1,0,0:0:0:0:
204,32,62428,2,0,P|244:20|296:36,2,85,2|0|8,0:0|0:0|0:0,0:0:0:0:
80,104,62878,1,0,0:0:0:0:
244,180,63028,6,0,P|255:139|246:97,1,85,6|0,0:0|2:0,0:0:0:0:
98,205,63328,2,0,P|87:246|96:288,1,85,8|0,0:0|2:0,0:0:0:0:
325,184,63628,2,0,P|285:172|244:180,1,85,2|0,0:0|0:0,0:0:0:0:
96,288,63928,2,0,P|136:300|177:292,1,85,8|0,0:0|2:0,0:0:0:0:
325,184,64228,6,0,B|324:96,1,85,6|0,0:0|2:0,0:0:0:0:
448,192,64528,2,0,B|449:280,1,85,8|0,0:0|2:0,0:0:0:0:
243,188,64828,2,0,P|283:176|325:184,1,85,2|0,0:0|0:0,0:0:0:0:
448,276,65128,2,0,P|407:288|366:280,1,85,8|0,0:0|2:0,0:0:0:0:
243,188,65428,6,0,P|230:147|238:106,1,85,6|0,0:0|2:0,0:0:0:0:
366,280,65728,2,0,P|378:320|370:361,1,85,8|0,0:0|2:0,0:0:0:0:
156,368,66028,6,0,L|56:368,1,93.5000028533936,6|0,0:0|2:0,0:0:0:0:
156,296,66328,6,0,L|40:296,1,101.999996887207,12|0,0:0|2:0,0:0:0:0:
156,220,66628,6,0,L|44:220,1,110.499994941712,6|0,0:0|2:0,0:0:0:0:
216,160,66928,5,8,0:0:0:0:
216,160,67078,1,0,0:0:0:0:
156,296,67228,2,0,L|72:296,1,85,2|0,0:0|0:0,0:0:0:0:
156,368,67528,1,8,0:0:0:0:
228,240,67678,2,0,B|356:240|356:240|316:212,1,170,0|0,0:0|2:0,0:0:0:0:
156,120,68128,5,8,0:0:0:0:
156,296,68278,1,0,0:0:0:0:
216,160,68428,1,8,0:0:0:0:
216,160,68503,1,8,0:0:0:0:
216,160,68578,1,8,0:0:0:0:
64,160,68728,1,8,0:0:0:0:
224,80,68878,5,8,0:0:0:0:
224,80,68953,1,8,0:0:0:0:
224,80,69028,2,0,B|328:80,1,85,6|0,0:0|2:0,0:0:0:0:
464,16,69328,1,2,0:0:0:0:
411,144,69478,2,0,P|403:185|418:224,1,85,6|0,0:0|2:0,0:0:0:0:
492,356,69778,2,0,L|408:356,1,85,6|8,0:0|0:0,0:0:0:0:
216,284,70078,6,0,P|148:292|204:328,1,170,6|0,0:0|0:0,0:0:0:0:
324,264,70528,1,8,0:0:0:0:
216,152,70678,1,8,0:0:0:0:
188,140,70753,1,8,0:0:0:0:
160,128,70828,1,8,0:0:0:0:
56,48,70978,1,8,0:0:0:0:
84,36,71053,1,8,0:0:0:0:
112,24,71128,1,8,0:0:0:0:
256,72,71278,5,8,0:0:0:0:
256,72,71353,1,8,0:0:0:0:
256,72,71428,2,0,P|336:104|408:72,1,170,6|8,0:0|0:0,0:0:0:0:
492,192,71878,1,0,0:0:0:0:
492,192,72028,2,0,L|492:284,2,85,2|0|8,0:0|0:0|0:0,0:0:0:0:
368,256,72478,5,0,0:0:0:0:
260,344,72628,2,0,L|168:356,1,85,6|0,0:0|2:0,0:0:0:0:
104,196,72928,2,0,L|92:104,1,85,8|0,0:0|2:0,0:0:0:0:
252,40,73228,2,0,L|344:28,1,85,2|0,0:0|0:0,0:0:0:0:
408,188,73528,2,0,L|420:280,1,85,8|0,0:0|2:0,0:0:0:0:
340,148,73828,6,0,P|368:117|409:107,1,85,6|0,0:0|2:0,0:0:0:0:
512,188,74128,1,8,0:0:0:0:
418,272,74278,1,8,0:0:0:0:
418,272,74353,1,8,0:0:0:0:
418,272,74428,2,0,B|332:272,1,85,8|0,0:0|2:0,0:0:0:0:
224,360,74728,1,8,0:0:0:0:
200,224,74878,2,0,B|229:141|162:141|197:60,1,170,6|0,0:0|2:0,0:0:0:0:
392,16,75328,5,8,0:0:0:0:
408,168,75478,1,2,0:0:0:0:
268,104,75628,1,8,0:0:0:0:
392,16,75778,1,2,0:0:0:0:
408,168,75928,1,8,0:0:0:0:
268,104,76078,5,8,0:0:0:0:
268,104,76153,1,8,0:0:0:0:
268,104,76228,2,0,B|128:104|128:104|168:80,1,170,6|8,0:0|0:0,0:0:0:0:
474,26,76828,5,2,0:0:0:0:
511,130,76978,1,0,0:0:0:0:
370,64,77128,1,8,0:0:0:0:
408,168,77278,1,0,0:0:0:0:
474,26,77428,6,0,L|432:116,1,85,6|0,0:0|2:0,0:0:0:0:
356,232,77728,1,8,0:0:0:0:
256,116,77878,2,0,B|140:116|140:116|196:156,1,170,0|0,0:0|0:0,0:0:0:0:
356,232,78328,1,8,0:0:0:0:
356,232,78478,1,0,0:0:0:0:
284,44,78628,6,0,L|110:43,1,170,6|0,0:0|1:0,0:0:0:0:
64,192,79078,1,0,0:0:0:0:
64,192,79153,1,0,0:0:0:0:
64,192,79228,1,0,0:0:0:0:
256,116,79378,1,0,0:0:0:0:
140,264,79528,1,8,0:0:0:0:
316,244,79678,1,0,0:0:0:0:
316,244,79753,1,0,0:0:0:0:
316,244,79828,5,12,0:0:0:0:
253,382,79978,1,8,0:0:0:0:
345,174,80128,5,10,0:0:0:0:
281,311,80278,1,8,0:0:0:0:
379,106,80428,5,10,0:0:0:0:
316,244,80578,1,8,0:0:0:0:
407,35,80728,5,10,0:0:0:0:
345,174,80878,1,12,0:0:0:0:
256,192,80953,12,8,82528,0:0:0:0:
256,192,82828,6,0,P|300:228|296:148,1,170,6|8,0:0|0:0,0:0:0:0:
172,120,83278,1,2,0:0:0:0:
256,192,83353,12,6,84478,0:0:0:0:
424,192,88228,6,0,L|316:216,1,101.999996887207,6|0,0:0|2:0,0:0:0:0:
88,192,88678,2,0,L|196:168,1,101.999996887207,6|0,0:0|2:0,0:0:0:0:
256,24,89128,2,0,L|280:132,1,101.999996887207,6|0,0:0|2:0,0:0:0:0:
256,360,89578,2,0,L|232:252,1,101.999996887207,6|0,0:0|2:0,0:0:0:0:
278,123,89878,5,8,0:0:0:0:
278,123,89953,1,8,0:0:0:0:
278,123,90028,1,6,0:0:0:0:
233,260,90178,2,0,P|164:292|184:204,1,203.999993774414,6|0,0:0|0:0,0:0:0:0:
348,148,90628,5,6,0:0:0:0:
396,28,90778,1,0,0:0:0:0:
268,48,90928,2,0,L|176:48,1,85,8|0,0:0|0:0,0:0:0:0:
326,243,91228,5,2,0:0:0:0:
278,123,91378,1,0,0:0:0:0:
406,143,91528,2,0,L|498:143,1,85,8|0,0:0|0:0,0:0:0:0:
336,168,91828,5,2,0:0:0:0:
260,275,91978,1,0,0:0:0:0:
391,284,92128,1,8,0:0:0:0:
336,168,92278,2,0,P|328:124|340:84,1,85,0|2,0:0|0:0,0:0:0:0:
391,284,92578,2,0,P|399:328|387:368,1,85,0|8,0:0|0:0,0:0:0:0:
200,356,92878,6,0,L|112:356,1,85,6|0,0:0|2:0,0:0:0:0:
16,253,93178,1,0,0:0:0:0:
155,220,93328,1,8,0:0:0:0:
115,356,93478,1,0,2:0:0:0:
74,202,93628,5,2,0:0:0:0:
172,105,93778,1,0,0:0:0:0:
172,300,93928,1,8,0:0:0:0:
268,202,94078,1,0,0:0:0:0:
74,202,94228,5,6,0:0:0:0:
268,202,94378,1,0,0:0:0:0:
74,202,94528,1,8,0:0:0:0:
268,202,94678,2,0,P|310:192|352:204,1,85,6|0,0:0|2:0,0:0:0:0:
74,202,94978,2,0,P|32:211|-7:201,1,85,4|8,0:0|0:0,0:0:0:0:
156,80,95278,6,0,L|180:280,1,170,6|0,0:0|0:0,0:0:0:0:
120,348,95728,1,8,0:0:0:0:
120,348,96028,1,2,0:0:0:0:
260,280,96178,2,0,L|348:260,1,85,0|8,0:0|0:0,0:0:0:0:
211,351,96478,6,0,P|171:281|207:207,1,170,6|0,0:0|0:0,0:0:0:0:
342,261,96928,1,8,0:0:0:0:
342,261,97228,1,2,0:0:0:0:
207,207,97378,2,0,L|111:207,1,85,0|8,0:0|0:0,0:0:0:0:
342,261,97678,6,0,L|438:261,1,85,6|0,0:0|2:0,0:0:0:0:
300,164,97978,1,0,0:0:0:0:
246,299,98128,1,8,0:0:0:0:
376,188,98278,5,0,0:0:0:0:
404,176,98353,1,0,0:0:0:0:
432,164,98428,1,0,0:0:0:0:
512,68,98578,1,0,0:0:0:0:
512,236,98728,1,8,0:0:0:0:
384,104,98878,1,8,0:0:0:0:
384,104,98953,1,8,0:0:0:0:
384,104,99028,6,0,B|328:104|328:104|304:116|304:116|252:116,2,127.5,2|2|2,0:0|0:0|0:0,0:0:0:0:
512,232,100228,5,6,0:0:0:0:
420,348,100378,1,0,0:0:0:0:
364,212,100528,1,8,0:0:0:0:
492,380,100678,5,0,0:0:0:0:
344,360,100828,1,2,0:0:0:0:
364,212,100978,1,0,0:0:0:0:
512,232,101128,1,8,0:0:0:0:
304,288,101278,5,0,0:0:0:0:
369,120,101428,1,2,0:0:0:0:
413,292,101578,1,0,0:0:0:0:
275,178,101728,1,8,0:0:0:0:
453,190,101878,2,0,B|524:184|524:184|496:212,1,85,0|2,0:0|0:0,0:0:0:0:
304,288,102178,2,0,B|233:294|233:294|261:266,1,85,4|8,0:0|0:0,0:0:0:0:
369,120,102478,6,0,P|372:64|328:120,1,170,6|0,0:0|0:0,0:0:0:0:
413,292,102928,1,8,0:0:0:0:
275,178,103078,1,0,0:0:0:0:
453,190,103228,1,2,0:0:0:0:
304,288,103378,1,0,0:0:0:0:
204,140,103528,1,8,0:0:0:0:
132,296,103678,1,0,0:0:0:0:
304,288,103828,6,0,L|396:288,1,85,6|0,0:0|0:0,0:0:0:0:
220,352,104128,1,8,0:0:0:0:
256,224,104278,2,0,P|264:180|252:140,1,85,6|0,0:0|2:0,0:0:0:0:
156,28,104578,2,0,P|148:72|160:112,1,85,12|8,0:0|0:0,0:0:0:0:
256,224,104878,6,0,B|392:224|392:224|364:196,1,170,6|0,0:0|0:0,0:0:0:0:
192,183,105328,2,0,P|180:224|192:263,1,85,8|0,0:0|2:0,0:0:0:0:
256,152,105628,1,2,0:0:0:0:
256,152,105778,2,0,P|268:111|255:72,1,85,0|8,0:0|0:0,0:0:0:0:
24,116,106078,6,0,B|104:136|104:72|188:108,1,170,6|0,0:0|0:0,0:0:0:0:
256,224,106528,1,8,0:0:0:0:
256,224,106828,5,2,0:0:0:0:
306,322,106978,1,0,0:0:0:0:
354,173,107128,1,12,0:0:0:0:
405,272,107278,1,0,0:0:0:0:
256,224,107428,6,0,B|124:224|124:224|168:252,1,170,6|8,0:0|0:0,0:0:0:0:
306,322,107878,2,0,L|392:324,1,85,0|2,0:0|0:0,0:0:0:0:
256,224,108178,1,0,0:0:0:0:
256,376,108328,1,8,0:0:0:0:
390,323,108478,5,8,0:0:0:0:
390,323,108553,1,8,0:0:0:0:
390,323,108628,2,0,P|357:246|389:170,1,170,6|8,0:0|0:0,0:0:0:0:
464,96,109078,2,0,P|496:172|464:248,1,170,2|0,0:0|0:0,0:0:0:0:
306,322,109528,1,8,0:0:0:0:
160,236,109678,5,8,0:0:0:0:
160,236,109753,1,8,0:0:0:0:
160,236,109828,2,0,P|192:159|160:83,1,170,6|8,0:0|0:0,0:0:0:0:
86,9,110278,2,0,P|53:85|85:161,1,170,2|0,0:0|0:0,0:0:0:0:
244,235,110728,1,8,0:0:0:0:
319,87,111028,6,0,P|281:70|240:75,1,85,6|0,0:0|2:0,0:0:0:0:
192,296,111328,2,0,P|230:313|271:308,1,85,12|0,0:0|2:0,0:0:0:0:
151,128,111628,2,0,P|134:166|139:207,1,85,2|0,0:0|0:0,0:0:0:0:
360,255,111928,2,0,P|377:217|372:176,1,85,12|0,0:0|0:0,0:0:0:0:
151,128,112228,6,0,L|71:128,1,76.4999976654053,6|0,0:0|2:0,0:0:0:0:
240,56,112528,2,0,L|320:56,1,76.4999976654053,8|0,0:0|0:0,0:0:0:0:
440,116,112828,1,2,0:0:0:0:
376,4,112978,1,0,0:0:0:0:
440,116,113128,1,8,0:0:0:0:
440,116,113428,6,0,P|428:155|440:196,1,76.4999976654053,6|0,0:0|2:0,0:0:0:0:
488,296,113728,2,0,L|401:296,1,76.4999976654053,8|2,0:0|0:0,0:0:0:0:
308,352,114028,1,0,2:0:0:0:
352,240,114178,1,0,0:0:0:0:
236,276,114328,2,0,L|148:276,1,76.4999976654053,8|0,0:0|2:0,0:0:0:0:
20,352,114628,6,0,P|44:284|8:208,1,152.999995330811,6|8,0:0|0:0,0:0:0:0:
0,92,115078,2,0,L|80:92,1,76.4999976654053,2|0,0:0|0:0,0:0:0:0:
152,192,115378,1,0,0:0:0:0:
244,108,115528,2,0,P|250:71|244:32,1,76.4999976654053,8|0,0:0|2:0,0:0:0:0:
152,192,115828,6,0,P|145:228|152:268,1,76.4999976654053,6|0,0:0|2:0,0:0:0:0:
256,352,116128,1,8,0:0:0:0:
256,352,116278,2,0,L|344:352,1,76.4999976654053,2|0,0:0|2:0,0:0:0:0:
151,266,116578,2,0,L|63:266,1,76.4999976654053,0|8,0:0|0:0,0:0:0:0:
256,352,116878,1,0,0:0:0:0:
256,204,117028,6,0,B|232:160|252:124|252:124|208:72,1,152.999995330811,6|8,0:0|0:0,0:0:0:0:
320,160,117478,2,0,P|388:188|460:148,1,152.999995330811,2|0,0:0|0:0,0:0:0:0:
512,60,117928,1,8,0:0:0:0:
512,60,118228,6,0,L|512:232,1,152.999995330811,6|8,0:0|0:0,0:0:0:0:
504,332,118678,2,0,P|435:304|368:337,1,152.999995330811,2|0,0:0|0:0,0:0:0:0:
256,376,119128,2,0,L|191:328,1,76.4999976654053,8|0,0:0|0:0,0:0:0:0:
88,200,119428,6,0,P|34:236|90:248,1,152.999995330811,6|8,0:0|0:0,0:0:0:0:
208,192,119878,1,0,0:0:0:0:
256,292,120028,1,2,0:0:0:0:
304,192,120178,1,0,0:0:0:0:
207,117,120328,2,0,P|201:154|208:192,1,76.4999976654053,8|0,0:0|2:0,0:0:0:0:
347,279,120628,6,0,P|399:295|450:277,1,110.499994941712,6|0,0:0|2:0,0:0:0:0:
450,106,120928,2,0,P|399:88|347:104,1,110.499994941712,12|0,0:0|2:0,0:0:0:0:
164,279,121228,2,0,P|112:295|61:277,1,110.499994941712,6|0,0:0|2:0,0:0:0:0:
61,106,121528,2,0,P|112:88|164:104,1,110.499994941712,12|0,0:0|2:0,0:0:0:0:
256,256,121828,6,0,P|251:288|256:332,1,76.4999976654053,6|0,0:0|2:0,0:0:0:0:
256,128,122128,2,0,P|260:95|256:52,1,76.4999976654053,8|0,0:0|0:0,0:0:0:0:
168,192,122428,1,2,0:0:0:0:
168,192,122578,1,0,0:0:0:0:
344,192,122728,2,0,L|436:192,1,76.4999976654053,8|0,0:0|2:0,0:0:0:0:
512,340,123028,6,0,L|432:340,1,76.4999976654053,6|0,0:0|2:0,0:0:0:0:
292,340,123328,2,0,P|299:302|291:265,2,76.4999976654053,8|0|2,0:0|2:0|0:0,0:0:0:0:
164,372,123778,1,0,0:0:0:0:
164,372,123928,2,0,L|76:372,1,76.4999976654053,8|0,0:0|2:0,0:0:0:0:
292,340,124228,6,0,B|376:340,1,76.4999976654053,6|0,0:0|2:0,0:0:0:0:
480,264,124528,2,0,P|488:228|476:188,1,76.4999976654053,8|0,0:0|2:0,0:0:0:0:
388,80,124828,1,2,0:0:0:0:
252,140,124978,1,0,0:0:0:0:
368,224,125128,1,8,0:0:0:0:
388,80,125278,1,0,0:0:0:0:
252,140,125428,6,0,L|168:140,1,76.4999976654053,6|0,0:0|2:0,0:0:0:0:
336,148,125728,1,8,0:0:0:0:
256,240,125878,2,0,P|224:307|256:374,1,152.999995330811,2|0,0:0|0:0,0:0:0:0:
256,240,126328,2,0,L|179:240,1,76.4999976654053,8|0,0:0|2:0,0:0:0:0:
312,304,126628,6,0,L|476:304,1,152.999995330811,6|8,0:0|0:0,0:0:0:0:
376,192,127078,2,0,P|315:165|364:128,1,152.999995330811,2|0,0:0|0:0,0:0:0:0:
465,304,127528,1,8,0:0:0:0:
465,304,127678,1,0,0:0:0:0:
292,372,127828,6,0,L|196:372,1,76.4999976654053,6|0,0:0|2:0,0:0:0:0:
56,252,128128,1,8,0:0:0:0:
200,265,128278,1,8,0:0:0:0:
117,383,128428,1,8,0:0:0:0:
136,164,128578,5,8,0:0:0:0:
320,112,128728,1,8,0:0:0:0:
272,297,128878,1,8,0:0:0:0:
320,112,129028,6,0,B|372:88|428:108|428:108|384:132,1,152.999995330811,6|0,0:0|2:0,0:0:0:0:
183,184,129628,2,0,L|260:184,1,76.4999976654053,6|0,0:0|2:0,0:0:0:0:
203,28,129928,5,8,0:0:0:0:
95,164,130078,1,8,0:0:0:0:
48,56,130228,6,0,L|128:82,1,85,6|0,0:0|0:0,0:0:0:0:
256,112,130528,6,0,L|167:142,1,93.5000028533936,2|0,0:0|0:0,0:0:0:0:
48,176,130828,6,0,L|144:209,1,101.999996887207,2|0,0:0|0:0,0:0:0:0:
256,248,131128,6,0,L|152:284,1,110.499994941712,2|0,0:0|0:0,0:0:0:0:
48,328,131428,6,0,L|160:367,1,118.999996368408,6|0,0:0|0:0,0:0:0:0:
356,332,131728,5,8,0:0:0:0:
304,192,131878,1,0,0:0:0:0:
424,356,132028,2,0,P|464:368|516:352,2,85,2|0|8,0:0|0:0|0:0,0:0:0:0:
328,260,132478,1,0,0:0:0:0:
444,192,132628,6,0,P|455:151|446:109,1,85,6|0,0:0|2:0,0:0:0:0:
328,260,132928,2,0,P|317:301|326:343,1,85,8|0,0:0|2:0,0:0:0:0:
480,308,133228,2,0,P|440:296|399:304,1,85,2|0,0:0|0:0,0:0:0:0:
241,370,133528,2,0,P|199:378|159:366,1,85,8|0,0:0|2:0,0:0:0:0:
8,304,133828,6,0,P|50:296|90:308,1,85,6|0,0:0|2:0,0:0:0:0:
241,370,134128,2,0,P|281:381|322:373,1,85,8|0,0:0|2:0,0:0:0:0:
496,328,134428,2,0,P|455:316|414:324,1,85,2|0,0:0|0:0,0:0:0:0:
241,370,134728,2,0,L|212:288,1,85,8|0,0:0|0:0,0:0:0:0:
280,108,135028,6,0,L|309:190,1,85,6|0,0:0|2:0,0:0:0:0:
316,36,135328,2,0,P|274:27|234:39,1,85,8|0,0:0|2:0,0:0:0:0:
308,188,135628,6,0,L|408:188,1,93.5000028533936,6|0,0:0|2:0,0:0:0:0:
508,264,135928,6,0,L|392:264,1,101.999996887207,12|0,0:0|2:0,0:0:0:0:
292,344,136228,6,0,L|402:344,1,110.499994941712,6|0,0:0|2:0,0:0:0:0:
508,264,136528,5,8,0:0:0:0:
508,264,136678,1,0,0:0:0:0:
404,192,136828,2,0,P|390:152|404:112,1,85,2|0,0:0|0:0,0:0:0:0:
512,24,137128,1,8,0:0:0:0:
403,113,137278,2,0,B|275:113|275:113|315:85,1,170,2|0,0:0|2:0,0:0:0:0:
512,24,137728,5,8,0:0:0:0:
512,200,137878,1,2,0:0:0:0:
436,44,138028,1,8,0:0:0:0:
436,44,138103,1,8,0:0:0:0:
436,44,138178,1,8,0:0:0:0:
436,236,138328,1,8,0:0:0:0:
364,72,138478,5,8,0:0:0:0:
364,72,138553,1,8,0:0:0:0:
364,72,138628,2,0,B|260:72,1,85,6|0,0:0|2:0,0:0:0:0:
120,24,138928,1,8,0:0:0:0:
216,180,139078,2,0,P|224:221|209:260,1,85,6|0,0:0|2:0,0:0:0:0:
20,352,139378,2,0,L|105:352,1,85,4|8,0:0|0:0,0:0:0:0:
267,321,139678,6,0,P|281:250|209:258,1,170,6|0,0:0|0:0,0:0:0:0:
105,352,140128,1,8,0:0:0:0:
80,216,140278,1,8,0:0:0:0:
68,188,140353,1,8,0:0:0:0:
56,160,140428,1,8,0:0:0:0:
8,16,140578,1,8,0:0:0:0:
37,21,140653,1,8,0:0:0:0:
67,26,140728,1,8,0:0:0:0:
184,120,140878,5,8,0:0:0:0:
184,120,140953,1,8,0:0:0:0:
184,120,141028,2,0,P|256:160|328:120,1,170,6|8,0:0|0:0,0:0:0:0:
424,28,141478,1,0,0:0:0:0:
424,28,141628,2,0,P|464:16|512:28,2,85,2|0|8,0:0|0:0|0:0,0:0:0:0:
392,192,142078,5,0,0:0:0:0:
256,271,142228,2,0,B|231:311|231:311|213:268,1,85,6|0,0:0|2:0,0:0:0:0:
256,112,142528,2,0,B|280:72|280:72|298:115,1,85,8|0,0:0|2:0,0:0:0:0:
176,192,142828,2,0,B|136:167|136:167|179:149,1,85,2|0,0:0|0:0,0:0:0:0:
335,192,143128,2,0,B|375:216|375:216|332:234,1,85,8|0,0:0|2:0,0:0:0:0:
160,276,143428,6,0,L|64:276,1,85,6|0,0:0|2:0,0:0:0:0:
224,336,143728,1,8,0:0:0:0:
220,200,143878,1,8,0:0:0:0:
220,200,143953,1,8,0:0:0:0:
220,200,144028,2,0,P|208:156|220:114,1,85,2|0,0:0|0:0,0:0:0:0:
340,20,144328,1,8,0:0:0:0:
217,118,144478,2,0,B|134:147|134:80|53:115,1,170,6|0,0:0|2:0,0:0:0:0:
180,44,144928,5,8,0:0:0:0:
96,192,145078,1,2,0:0:0:0:
195,55,145228,1,8,0:0:0:0:
80,180,145378,1,2,0:0:0:0:
212,76,145528,1,8,0:0:0:0:
63,159,145678,1,8,0:0:0:0:
63,159,145753,1,8,0:0:0:0:
63,159,145828,2,0,P|24:236|60:312,1,170,6|8,0:0|0:0,0:0:0:0:
325,336,146428,5,2,0:0:0:0:
288,232,146578,1,0,0:0:0:0:
222,374,146728,1,8,0:0:0:0:
184,270,146878,1,0,0:0:0:0:
325,336,147028,6,0,L|424:336,1,85,2|0,0:0|2:0,0:0:0:0:
256,304,147328,1,8,0:0:0:0:
348,192,147478,2,0,B|384:144|344:84|344:84|420:44,1,170,0|0,0:0|0:0,0:0:0:0:
496,120,147928,1,8,0:0:0:0:
496,120,148078,1,0,0:0:0:0:
284,136,148228,6,0,L|112:136,1,170,6|0,0:0|2:0,0:0:0:0:
32,252,148678,1,4,0:0:0:0:
32,252,148753,1,0,0:0:0:0:
32,252,148828,1,0,0:0:0:0:
228,208,148978,1,0,0:0:0:0:
88,180,149128,1,8,0:0:0:0:
250,112,149278,1,0,0:0:0:0:
237,72,149353,1,0,0:0:0:0:
208,40,149428,5,12,0:0:0:0:
51,115,149578,1,8,0:0:0:0:
230,264,149728,5,10,0:0:0:0:
145,109,149878,1,8,0:0:0:0:
0,290,150028,5,10,0:0:0:0:
154,204,150178,1,8,0:0:0:0:
128,383,150328,5,10,0:0:0:0:
25,209,150478,1,12,0:0:0:0:
256,192,150553,12,2,152878,0:0:0:0:
256,296,153178,5,2,0:0:0:0:
352,237,153328,2,0,L|448:240,1,85,8|0,0:0|0:0,0:0:0:0:
160,237,153628,2,0,L|64:234,1,85,2|0,0:0|0:0,0:0:0:0:
320,109,153928,2,0,P|392:104|352:156,1,170,8|0,0:0|0:0,0:0:0:0:
160,237,154378,5,12,0:0:0:0:
320,109,154528,1,12,0:0:0:0:
160,145,154678,1,12,0:0:0:0:
361,192,154828,1,12,0:0:0:0:
232,293,154978,1,12,0:0:0:0:
232,89,155128,1,12,0:0:0:0:
320,273,155278,1,12,0:0:0:0:
276,28,155578,5,2,0:0:0:0:
392,128,155728,1,8,0:0:0:0:
256,192,155878,1,0,0:0:0:0:
256,192,156028,2,0,B|224:276|288:276|256:356,1,170,2|8,0:0|0:0,0:0:0:0:
104,360,156478,6,0,B|-4:360|-4:360|48:320,1,170,6|2,0:0|0:0,0:0:0:0:
168,272,156928,1,8,0:0:0:0:
80,192,157078,2,0,B|32:116|88:56|88:56|-24:56,1,255,2|8,0:0|0:0,0:0:0:0:
152,128,157678,5,6,0:0:0:0:
152,128,157978,1,0,0:0:0:0:
264,48,158128,1,8,0:0:0:0:
288,200,158278,1,0,0:0:0:0:
208,88,158428,1,2,0:0:0:0:
208,88,158728,1,8,0:0:0:0:
288,200,158878,1,6,0:0:0:0:
288,200,159178,6,0,L|316:244,2,42.5,2|0|8,0:0|0:0|0:0,0:0:0:0:
208,88,159478,1,2,0:0:0:0:
180,80,159553,1,0,0:0:0:0:
152,68,159628,1,8,0:0:0:0:
96,192,159778,1,2,0:0:0:0:
124,200,159853,1,0,0:0:0:0:
152,212,159928,1,12,0:0:0:0:
288,200,160078,6,0,P|328:191|372:200,1,85,6|0,0:0|2:0,0:0:0:0:
468,296,160378,1,0,0:0:0:0:
468,160,160528,1,8,0:0:0:0:
328,268,160678,5,0,0:0:0:0:
468,296,160828,1,2,0:0:0:0:
316,340,160978,1,0,0:0:0:0:
344,200,161128,1,8,0:0:0:0:
396,339,161278,6,0,P|356:351|316:340,1,85,6|0,0:0|2:0,0:0:0:0:
256,244,161578,1,0,0:0:0:0:
256,380,161728,1,8,0:0:0:0:
344,200,161878,2,0,P|384:187|424:199,1,85,2|0,0:0|2:0,0:0:0:0:
484,295,162178,5,0,0:0:0:0:
484,159,162328,1,8,0:0:0:0:
396,339,162478,2,0,P|356:352|316:340,1,85,2|0,0:0|2:0,0:0:0:0:
220,232,162778,5,2,0:0:0:0:
184,208,162853,1,0,0:0:0:0:
144,197,162928,1,10,0:0:0:0:
101,199,163003,1,0,0:0:0:0:
62,215,163078,1,0,0:0:0:0:
30,242,163153,1,0,0:0:0:0:
8,278,163228,6,0,L|16:340,3,42.5,2|0|0|0,0:0|0:0|0:0|0:0,0:0:0:0:
90,356,163528,1,10,0:0:0:0:
132,353,163603,1,0,0:0:0:0:
171,337,163678,1,0,0:0:0:0:
203,310,163753,1,0,0:0:0:0:
225,274,163828,6,0,L|217:212,3,42.5,2|0|0|0,0:0|0:0|0:0|0:0,0:0:0:0:
288,192,164128,2,0,L|280:130,3,42.5,10|0|0|0,0:0|0:0|0:0|0:0,0:0:0:0:
360,120,164428,2,0,B|348:56|348:56|404:72|447:37,1,170,2|8,0:0|0:0,0:0:0:0:
492,196,164878,6,0,B|457:239|473:295|473:295|409:283,1,170,6|0,0:0|0:0,0:0:0:0:
279,247,165328,2,0,P|292:288|280:328,1,85,10|0,0:0|0:0,0:0:0:0:
232,136,165628,2,0,P|219:95|231:55,1,85,10|0,0:0|0:0,0:0:0:0:
336,164,165928,5,10,0:0:0:0:
190,212,166078,2,0,B|108:252|108:184|20:212,1,170,4|0,0:0|0:0,0:0:0:0:
64,364,166528,2,0,P|76:323|66:282,1,85,10|0,0:0|0:0,0:0:0:0:
20,136,166828,2,0,P|7:95|17:54,1,85,10|0,0:0|0:0,0:0:0:0:
88,28,167053,1,0,0:0:0:0:
88,28,167128,2,0,L|176:28,1,85,10|0,0:0|0:0,0:0:0:0:
288,120,167428,5,6,0:0:0:0:
268,157,167503,1,0,0:0:0:0:
263,199,167578,1,0,0:0:0:0:
272,240,167653,1,0,0:0:0:0:
295,276,167728,1,10,0:0:0:0:
328,301,167803,1,0,0:0:0:0:
369,314,167878,1,0,0:0:0:0:
411,312,167953,1,0,0:0:0:0:
450,295,168028,6,0,L|496:264,3,42.5,2|0|0|0,0:0|0:0|0:0|0:0,0:0:0:0:
456,172,168328,2,0,L|421:196,3,42.5,10|0|0|0,0:0|0:0|0:0|0:0,0:0:0:0:
344,232,168628,5,6,0:0:0:0:
307,252,168703,1,0,0:0:0:0:
265,257,168778,1,0,0:0:0:0:
224,248,168853,1,0,0:0:0:0:
188,225,168928,1,10,0:0:0:0:
163,192,169003,1,0,0:0:0:0:
150,151,169078,1,0,0:0:0:0:
152,109,169153,1,0,0:0:0:0:
169,70,169228,6,0,L|200:24,3,42.5,2|0|0|0,0:0|0:0|0:0|0:0,0:0:0:0:
264,72,169528,2,0,L|296:27,3,42.5,10|0|0|0,0:0|0:0|0:0|0:0,0:0:0:0:
256,192,169828,6,0,L|225:238,3,42.5,6|0|0|0,0:0|0:0|0:0|0:0,0:0:0:0:
384,188,170128,2,0,L|408:153,3,42.5,10|0|0|0,0:0|0:0|0:0|0:0,0:0:0:0:
356,304,170428,2,0,L|325:350,3,42.5,2|0|0|0,0:0|0:0|0:0|0:0,0:0:0:0:
484,300,170728,2,0,L|508:265,3,42.5,10|0|0|0,0:0|0:0|0:0|0:0,0:0:0:0:
480,180,171028,5,6,0:0:0:0:
32,180,172228,5,6,0:0:0:0:
32,180,172528,2,0,L|8:52,2,118.999996368408,0|0|0,0:0|0:0|0:0,0:0:0:0:
176,244,173428,1,6,0:0:0:0:
176,244,173728,2,0,L|200:372,2,118.999996368408,0|0|0,0:0|0:0|0:0,0:0:0:0:
336,140,174628,5,6,0:0:0:0:
336,140,174928,2,0,L|312:12,2,118.999996368408,0|0|0,0:0|0:0|0:0,0:0:0:0:
480,204,175828,1,6,0:0:0:0:
480,204,176128,2,0,L|504:332,2,118.999996368408,0|0|0,0:0|0:0|0:0,0:0:0:0:
256,76,177028,5,6,0:0:0:0:
256,76,177328,2,0,L|136:60,2,118.999996368408,0|0|0,0:0|0:0|0:0,0:0:0:0:
256,308,178228,1,6,0:0:0:0:
256,308,178528,2,0,L|376:324,2,118.999996368408,0|0|0,0:0|0:0|0:0,0:0:0:0:
120,192,179428,5,6,0:0:0:0:
120,192,179728,2,0,L|-4:192,2,118.999996368408,0|0|0,0:0|0:0|0:0,0:0:0:0:
405,192,180628,5,10,0:0:0:0:
484,95,180778,1,8,0:0:0:0:
300,24,180928,5,10,0:0:0:0:
405,111,181078,1,8,0:0:0:0:
229,218,181228,5,10,0:0:0:0:
324,101,181378,1,8,0:0:0:0:
432,284,181528,5,10,0:0:0:0:
303,179,181678,1,8,0:0:0:0:
239,356,181828,6,0,P|310:329|343:263,1,152.999995330811,6|8,0:0|0:0,0:0:0:0:
200,152,182278,1,0,0:0:0:0:
200,152,182428,2,0,L|108:160,1,76.4999976654053,2|0,0:0|0:0,0:0:0:0:
312,152,182728,2,0,L|404:144,1,76.4999976654053,8|0,0:0|2:0,0:0:0:0:
252,24,183028,6,0,P|240:59|252:95,1,76.4999976654053,6|0,0:0|2:0,0:0:0:0:
348,224,183328,2,0,P|304:276|288:204,1,152.999995330811,8|2,0:0|0:0,0:0:0:0:
320,60,183778,1,0,0:0:0:0:
320,60,183928,2,0,L|404:60,1,76.4999976654053,8|0,0:0|2:0,0:0:0:0:
192,124,184228,6,0,L|108:124,1,76.4999976654053,6|0,0:0|2:0,0:0:0:0:
0,192,184528,2,0,L|76:192,1,76.4999976654053,8|0,0:0|2:0,0:0:0:0:
192,260,184828,2,0,L|108:260,1,76.4999976654053,2|0,0:0|0:0,0:0:0:0:
0,328,185128,2,0,L|76:328,1,76.4999976654053,8|0,0:0|0:0,0:0:0:0:
264,292,185428,6,0,P|273:252|256:216,1,76.4999976654053,6|0,0:0|2:0,0:0:0:0:
152,128,185728,1,8,0:0:0:0:
259,220,185878,2,0,B|331:248|331:188|407:218,1,152.999995330811,2|0,0:0|0:0,0:0:0:0:
364,360,186328,2,0,P|355:320|372:284,1,76.4999976654053,12|0,0:0|2:0,0:0:0:0:
484,192,186628,6,0,P|493:152|476:116,1,76.4999976654053,6|0,0:0|2:0,0:0:0:0:
376,48,186928,1,8,0:0:0:0:
376,48,187003,1,8,0:0:0:0:
376,48,187078,2,0,L|300:48,1,76.4999976654053,2|0,0:0|2:0,0:0:0:0:
143,118,187378,1,0,0:0:0:0:
268,132,187528,1,8,0:0:0:0:
219,18,187678,1,0,0:0:0:0:
196,188,187828,6,0,L|196:268,1,76.4999976654053,6|0,0:0|2:0,0:0:0:0:
143,118,188128,1,8,0:0:0:0:
329,213,188278,1,8,0:0:0:0:
154,327,188428,1,8,0:0:0:0:
143,118,188578,5,0,0:0:0:0:
177,101,188653,1,0,0:0:0:0:
215,102,188728,1,0,0:0:0:0:
249,118,188803,1,0,0:0:0:0:
272,148,188878,1,0,0:0:0:0:
280,186,188953,1,0,0:0:0:0:
270,222,189028,6,0,B|152:224|152:224|188:192,1,152.999995330811,6|0,0:0|2:0,0:0:0:0:
348,152,189478,1,0,0:0:0:0:
348,152,189628,2,0,L|428:152,1,76.4999976654053,6|0,0:0|2:0,0:0:0:0:
270,222,189928,5,8,0:0:0:0:
372,72,190078,1,8,0:0:0:0:
372,240,190228,5,6,0:0:0:0:
312,288,190528,1,2,0:0:0:0:
252,336,190828,1,2,0:0:0:0:
188,376,191128,2,0,L|148:376,3,29.7499990921021,2|2|2|2,0:0|0:0|0:0|0:0,0:0:0:0:
158,376,191428,6,0,L|48:376,1,101.999996887207,6|0,0:0|0:0,0:0:0:0:
24,304,191878,1,2,0:0:0:0:
24,304,192028,2,0,P|38:252|21:202,1,107.999996704102,2|0,0:0|0:0,0:0:0:0:
124,104,192628,5,2,0:0:0:0:
248,196,192928,1,2,0:0:0:0:
264,44,193228,1,2,0:0:0:0:
124,104,193528,1,2,0:0:0:0:
188,244,193828,5,2,0:0:0:0:
312,336,194128,1,2,0:0:0:0:
328,184,194428,1,2,0:0:0:0:
188,244,194728,1,2,0:0:0:0:
340,260,195028,2,0,L|448:260,1,101.999996887207,2|0,0:0|0:0,0:0:0:0:
312,336,195628,5,2,0:0:0:0:
188,244,195928,1,2,0:0:0:0:
328,184,196228,2,0,P|344:136|328:88,1,101.999996887207,2|0,0:0|0:0,0:0:0:0:
184,36,196828,5,2,0:0:0:0:
40,92,197128,1,2,0:0:0:0:
184,148,197428,1,2,0:0:0:0:
40,196,197728,1,2,0:0:0:0:
40,196,197878,2,0,L|40:248,1,50.9999984436036,2|2,0:0|0:0,0:0:0:0:
244,352,198478,6,0,L|296:336,1,50.9999984436036,2|2,0:0|0:0,0:0:0:0:
324,188,198928,2,0,L|272:204,1,50.9999984436036,2|2,0:0|0:0,0:0:0:0:
128,240,199378,1,2,0:0:0:0:
152,88,199678,2,0,P|197:147|198:223,1,152.999995330811,2|0,0:0|0:0,0:0:0:0:
64,296,200428,5,2,0:0:0:0:
216,300,200728,1,2,0:0:0:0:
84,224,201028,2,0,P|68:176|80:128,1,101.999996887207,2|0,0:0|0:0,0:0:0:0:
208,48,201628,2,0,P|224:96|212:144,1,101.999996887207,2|0,0:0|0:0,0:0:0:0:
84,224,202228,5,2,0:0:0:0:
180,344,202528,1,2,0:0:0:0:
236,200,202828,1,2,0:0:0:0:
116,296,203128,1,2,0:0:0:0:
168,152,203428,5,2,0:0:0:0:
264,272,203728,1,2,0:0:0:0:
320,128,204028,1,2,0:0:0:0:
200,224,204328,1,2,0:0:0:0:
200,224,204478,2,0,L|84:224,1,101.999996887207,2|0,0:0|0:0,0:0:0:0:
28,192,204928,5,2,0:0:0:0:
136,84,205228,1,2,0:0:0:0:
200,224,205528,1,2,0:0:0:0:
75,135,205828,2,0,P|56:89|68:41,1,101.999996887207,2|0,0:0|0:0,0:0:0:0:
220,16,206428,5,2,0:0:0:0:
308,140,206728,1,2,0:0:0:0:
156,156,207028,1,2,0:0:0:0:
280,68,207328,2,0,L|336:40,2,50.9999984436036,2|2|2,0:0|0:0|0:0,0:0:0:0:
256,362,208228,6,0,B|256:192,1,170,6|0,0:0|2:0,0:0:0:0:
368,80,208828,5,8,0:0:0:0:
144,304,209128,1,8,0:0:0:0:
256,33,209428,1,8,0:0:0:0:
256,350,209728,1,8,0:0:0:0:
144,80,210028,1,8,0:0:0:0:
368,304,210328,1,8,0:0:0:0:
98,192,210628,5,12,0:0:0:0:
256,108,210778,1,8,0:0:0:0:
252,288,210928,1,8,0:0:0:0:
136,96,211078,5,12,0:0:0:0:
294,12,211228,1,8,0:0:0:0:
290,192,211378,1,8,0:0:0:0:
136,96,211528,6,0,L|0:96,1,127.5,12|0,0:0|0:0,0:0:0:0:
8,96,211828,6,0,P|18:140|0:192,1,85,6|0,0:0|0:0,0:0:0:0:
16,316,212128,6,0,L|124:316,1,93.5000028533936,2|0,0:0|0:0,0:0:0:0:
252,288,212428,6,0,P|235:332|284:340,1,101.999996887207,2|0,0:0|0:0,0:0:0:0:
283,211,212728,6,0,P|229:209|185:240,1,110.499994941712,2|0,0:0|0:0,0:0:0:0:
331,276,213028,6,0,P|363:227|352:170,1,118.999996368408,6|0,0:0|0:0,0:0:0:0:
212,64,213328,5,8,0:0:0:0:
352,12,213478,1,0,0:0:0:0:
144,88,213628,2,0,P|132:128|148:180,2,85,2|0|10,0:0|0:0|0:0,0:0:0:0:
284,36,214078,1,0,0:0:0:0:
356,160,214228,6,0,P|364:201|353:241,1,85,6|0,0:0|2:0,0:0:0:0:
308,100,214528,2,0,P|346:84|388:91,1,85,8|0,0:0|2:0,0:0:0:0:
276,280,214828,2,0,P|267:238|278:198,1,85,2|0,0:0|0:0,0:0:0:0:
324,340,215128,2,0,P|285:355|243:348,1,85,8|0,0:0|2:0,0:0:0:0:
115,279,215428,6,0,B|43:279|43:279|51:267,1,85,6|0,0:0|2:0,0:0:0:0:
220,192,215728,2,0,B|292:192|292:192|284:204,1,85,8|0,0:0|2:0,0:0:0:0:
125,358,216028,2,0,P|107:320|115:279,1,85,2|0,0:0|0:0,0:0:0:0:
209,113,216328,2,0,P|228:151|220:192,1,85,12|2,0:0|0:0,0:0:0:0:
115,279,216628,6,0,L|27:279,1,85,6|0,0:0|2:0,0:0:0:0:
220,192,216928,2,0,L|308:192,1,85,8|0,0:0|2:0,0:0:0:0:
472,192,217228,6,0,L|378:192,1,93.5000028533936,6|0,0:0|2:0,0:0:0:0:
220,192,217528,6,0,P|204:140|224:84,1,101.999996887207,12|0,0:0|2:0,0:0:0:0:
363,24,217828,6,0,P|410:36|388:79,1,110.499994941712,6|0,0:0|2:0,0:0:0:0:
256,24,218128,5,8,0:0:0:0:
256,24,218278,1,0,0:0:0:0:
388,78,218428,2,0,L|388:174,1,85,2|0,0:0|0:0,0:0:0:0:
500,216,218728,1,8,0:0:0:0:
400,288,218878,2,0,B|344:320|284:288|284:288|328:268,1,170,2|0,0:0|0:0,0:0:0:0:
500,216,219328,5,8,0:0:0:0:
432,372,219478,1,0,0:0:0:0:
380,192,219628,1,8,0:0:0:0:
352,184,219703,1,8,0:0:0:0:
324,176,219778,1,8,0:0:0:0:
252,316,219928,1,8,0:0:0:0:
148,192,220078,5,8,0:0:0:0:
148,192,220153,1,8,0:0:0:0:
148,192,220228,2,0,B|44:192,1,85,6|0,0:0|2:0,0:0:0:0:
240,108,220528,1,8,0:0:0:0:
260,236,220678,2,0,P|268:277|253:316,1,85,6|0,0:0|2:0,0:0:0:0:
148,192,220978,2,0,P|140:151|155:112,1,85,4|8,0:0|0:0,0:0:0:0:
402,92,221278,6,0,B|322:144|322:72|238:108,1,170,6|0,0:0|0:0,0:0:0:0:
148,192,221728,1,8,0:0:0:0:
224,328,221878,1,8,0:0:0:0:
252,316,221953,1,8,0:0:0:0:
280,304,222028,1,8,0:0:0:0:
148,192,222178,1,8,0:0:0:0:
120,204,222253,1,8,0:0:0:0:
92,216,222328,1,8,0:0:0:0:
224,328,222478,5,8,0:0:0:0:
224,328,222553,1,8,0:0:0:0:
224,328,222628,2,0,B|352:328|352:328|308:304,1,170,6|8,0:0|0:0,0:0:0:0:
148,192,223078,1,0,0:0:0:0:
148,192,223228,2,0,P|106:181|64:192,2,85,2|0|8,0:0|0:0|0:0,0:0:0:0:
332,228,223678,5,0,0:0:0:0:
260,60,223828,2,0,P|243:98|251:139,1,85,6|0,0:0|2:0,0:0:0:0:
252,324,224128,2,0,P|268:285|260:244,1,85,8|0,0:0|2:0,0:0:0:0:
124,188,224428,2,0,P|162:204|203:196,1,85,2|0,0:0|0:0,0:0:0:0:
388,196,224728,2,0,P|349:179|308:187,1,85,8|0,0:0|2:0,0:0:0:0:
160,292,225028,6,0,L|72:292,1,85,6|0,0:0|2:0,0:0:0:0:
252,324,225328,1,8,0:0:0:0:
192,192,225478,1,8,0:0:0:0:
192,192,225553,1,8,0:0:0:0:
192,192,225628,2,0,P|180:148|192:106,1,85,6|0,0:0|2:0,0:0:0:0:
353,113,225928,1,8,0:0:0:0:
353,113,226078,2,0,B|270:142|270:75|189:110,1,170,6|0,0:0|0:0,0:0:0:0:
36,108,226528,5,8,0:0:0:0:
120,256,226678,1,2,0:0:0:0:
21,119,226828,1,8,0:0:0:0:
136,244,226978,1,2,0:0:0:0:
4,140,227128,1,8,0:0:0:0:
184,140,227278,1,8,0:0:0:0:
184,140,227353,1,8,0:0:0:0:
184,140,227428,2,0,B|240:160|240:160|284:124|352:152,1,170,6|8,0:0|0:0,0:0:0:0:
512,376,228028,5,2,0:0:0:0:
475,272,228178,1,0,0:0:0:0:
364,376,228328,1,8,0:0:0:0:
326,272,228478,1,2,0:0:0:0:
472,189,228628,6,0,P|482:229|474:271,1,85,6|0,0:0|2:0,0:0:0:0:
364,376,228928,1,8,0:0:0:0:
248,263,229078,2,0,P|293:196|373:205,1,170,0|0,0:0|0:0,0:0:0:0:
364,376,229528,1,8,0:0:0:0:
364,376,229678,1,0,0:0:0:0:
248,263,229828,6,0,P|191:205|215:128,1,170,6|8,0:0|0:0,0:0:0:0:
396,96,230278,1,4,0:0:0:0:
385,137,230353,1,0,0:0:0:0:
357,168,230428,1,8,0:0:0:0:
214,128,230578,1,0,0:0:0:0:
248,263,230728,1,8,0:0:0:0:
128,120,230878,1,0,0:0:0:0:
128,120,230953,1,0,0:0:0:0:
128,120,231028,2,0,L|40:120,1,85,12|8,0:0|0:0,0:0:0:0:
24,276,231328,5,8,0:0:0:0:
62,293,231403,1,0,0:0:0:0:
104,299,231478,1,0,0:0:0:0:
145,289,231553,1,0,0:0:0:0:
182,268,231628,1,8,0:0:0:0:
220,249,231703,1,0,0:0:0:0:
261,242,231778,1,0,0:0:0:0:
303,251,231853,1,0,0:0:0:0:
341,270,231928,1,8,0:0:0:0:
444,352,232078,6,0,B|399:272|482:272|441:191,1,170,6|0,0:0|0:0,0:0:0:0:
357,99,232528,2,0,L|313:99,3,42.5,8|0|0|0,0:0|0:0|0:0|0:0,0:0:0:0:
264,40,232828,2,0,B|144:40|144:40|188:72,1,170,2|8,0:0|0:0,0:0:0:0:
256,184,233278,6,0,B|297:265|214:265|258:344,1,170,6|0,0:0|0:0,0:0:0:0:
384,372,233728,2,0,L|472:372,1,85,8|0,0:0|2:0,0:0:0:0:
508,248,234028,2,0,B|463:168|546:168|505:87,1,170,2|8,0:0|0:0,0:0:0:0:
339,76,234478,6,0,P|265:108|200:59,1,170,6|0,0:0|0:0,0:0:0:0:
339,76,234928,2,0,L|352:160,1,85,8|0,0:0|2:0,0:0:0:0:
268,276,235228,2,0,L|255:192,1,85,2|0,0:0|2:0,0:0:0:0:
339,76,235528,5,8,0:0:0:0:
339,76,235678,2,0,B|416:100|460:48|460:48|404:48,1,170,6|0,0:0|0:0,0:0:0:0:
256,40,236128,1,8,0:0:0:0:
256,208,236278,1,2,0:0:0:0:
339,76,236428,1,8,0:0:0:0:
220,194,236578,1,2,0:0:0:0:
367,168,236728,1,8,0:0:0:0:
200,168,236878,6,0,B|116:208|116:136|24:176,1,170,6|0,0:0|0:0,0:0:0:0:
76,316,237328,2,0,P|91:277|78:238,1,85,8|0,0:0|2:0,0:0:0:0:
152,92,237628,2,0,B|236:52|236:124|328:84,1,170,2|8,0:0|0:0,0:0:0:0:
420,40,238078,6,0,P|406:105|462:69,1,170,6|0,0:0|0:0,0:0:0:0:
332,20,238528,2,0,L|244:20,1,85,8|0,0:0|2:0,0:0:0:0:
108,60,238828,2,0,P|164:96|150:30,1,170,2|8,0:0|0:0,0:0:0:0:
68,144,239278,6,0,P|144:176|219:142,1,170,6|0,0:0|0:0,0:0:0:0:
256,12,239728,1,8,0:0:0:0:
256,12,239803,1,0,0:0:0:0:
256,12,239878,1,0,0:0:0:0:
219,142,240028,2,0,L|219:318,1,170,2|8,0:0|0:0,0:0:0:0:
361,313,240478,6,0,P|290:273|219:312,1,170,6|0,0:0|0:0,0:0:0:0:
100,320,240928,2,0,L|44:320,3,42.5,8|0|0|0,0:0|0:0|0:0|0:0,0:0:0:0:
0,360,241228,1,8,0:0:0:0:
84,224,241378,1,0,0:0:0:0:
164,364,241528,1,8,0:0:0:0:
19,267,241678,6,0,P|14:187|83:145,1,170,6|0,0:0|0:0,0:0:0:0:
200,192,242128,1,8,0:0:0:0:
200,192,242203,1,0,0:0:0:0:
200,192,242278,1,0,0:0:0:0:
256,64,242428,2,0,L|348:56,1,85,2|0,0:0|2:0,0:0:0:0:
452,124,242728,5,8,0:0:0:0:
452,124,242803,1,0,0:0:0:0:
452,124,242878,2,0,P|439:205|495:265,1,170,6|0,0:0|0:0,0:0:0:0:
432,364,243328,1,8,0:0:0:0:
432,364,243403,1,0,0:0:0:0:
432,364,243478,1,0,0:0:0:0:
324,316,243628,2,0,B|240:276|240:348|148:308,1,170,2|8,0:0|0:0,0:0:0:0:
36,272,244078,6,0,P|51:233|39:192,1,85,6|0,0:0|2:0,0:0:0:0:
79,44,244378,1,0,0:0:0:0:
188,153,244528,1,8,0:0:0:0:
39,192,244678,1,0,0:0:0:0:
164,72,244828,2,0,L|256:72,1,85,2|0,0:0|2:0,0:0:0:0:
352,192,245128,1,8,0:0:0:0:
352,192,245203,1,0,0:0:0:0:
352,192,245278,2,0,L|267:192,1,85,6|0,0:0|2:0,0:0:0:0:
124,240,245578,5,12,0:0:0:0:
256,92,245728,1,12,0:0:0:0:
260,312,245878,1,12,0:0:0:0:
120,164,246028,1,12,0:0:0:0:
352,192,246178,2,0,L|440:192,1,85,12|0,0:0|2:0,0:0:0:0:
296,124,246478,6,0,P|264:192|316:272,1,170,6|0,0:0|0:0,0:0:0:0:
416,328,246928,2,0,L|504:308,1,85,8|0,0:0|0:0,0:0:0:0:
464,192,247228,2,0,P|444:111|490:43,1,170,2|8,0:0|0:0,0:0:0:0:
344,32,247678,6,0,B|260:72|260:0|168:40,1,170,6|0,0:0|0:0,0:0:0:0:
88,112,248128,1,8,0:0:0:0:
88,112,248203,1,0,0:0:0:0:
88,112,248278,1,0,0:0:0:0:
152,216,248428,2,0,P|227:190|172:144,1,170,2|8,0:0|0:0,0:0:0:0:
56,192,248878,6,0,B|56:280,1,85,6|0,0:0|2:0,0:0:0:0:
172,383,249178,1,0,0:0:0:0:
136,240,249328,1,8,0:0:0:0:
30,345,249478,1,0,0:0:0:0:
172,308,249628,2,0,B|288:308|288:308|244:268,1,170,2|8,0:0|0:0,0:0:0:0:
136,240,250078,6,0,L|40:240,1,85,4|0,0:0|2:0,0:0:0:0:
216,192,250378,1,0,0:0:0:0:
172,308,250528,2,0,L|156:348,2,42.5,8|0|0,0:0|0:0|0:0,0:0:0:0:
216,192,250828,2,0,L|240:136,3,42.5,8|0|0|0,0:0|0:0|0:0|0:0,0:0:0:0:
200,88,251128,1,8,0:0:0:0:
332,152,251278,6,0,B|452:151|452:151|416:112,1,170,6|0,0:0|0:0,0:0:0:0:
296,72,251728,1,8,0:0:0:0:
296,72,251803,1,0,0:0:0:0:
296,72,251878,1,0,0:0:0:0:
216,192,252028,2,0,P|204:232|216:276,1,85,2|0,0:0|0:0,0:0:0:0:
328,344,252328,1,8,0:0:0:0:
200,364,252478,6,0,B|72:364|72:364|108:340,1,170,6|0,0:0|0:0,0:0:0:0:
214,272,252928,1,8,0:0:0:0:
328,344,253078,2,0,L|384:344,2,42.5,0|0|8,0:0|0:0|0:0,0:0:0:0:
214,272,253378,5,0,0:0:0:0:
186,240,253453,1,0,0:0:0:0:
171,200,253528,1,8,0:0:0:0:
171,158,253603,1,0,0:0:0:0:
185,118,253678,1,0,0:0:0:0:
213,86,253753,1,0,0:0:0:0:
250,65,253828,6,0,L|360:52,1,85,6|0,0:0|0:0,0:0:0:0:
512,116,254278,2,0,L|427:126,1,85,6|0,0:0|0:0,0:0:0:0:
224,144,254728,6,0,B|192:144|160:96|64:96|32:256|112:304|112:352|175:359|175:359|202:372|215:332|256:318|296:332|309:372|336:359|336:359|384:352|384:304|464:256|432:96|336:96|304:144|272:144|272:144|224:96|288:19|288:19|213:60|140:24,1,1198.49998171234,6|2,0:0|0:0,0:0:0:0:
