osu file format v14

[General]
AudioFilename: mitani nana shiroi yuki no princess wa.mp3
AudioLeadIn: 0
PreviewTime: 190153
Countdown: 0
SampleSet: Normal
StackLeniency: 0.5
Mode: 0
LetterboxInBreaks: 0
WidescreenStoryboard: 1

[Editor]
Bookmarks: 1678,6478,21028,42628,61831,80878,90628,112228,131428,150478,160081,171028,181828,191428,208228,213028,232078,246478,259228
DistanceSpacing: 1
BeatDivisor: 4
GridSize: 4
TimelineZoom: 1.2

[Metadata]
Title:Shiroi Yuki no Princess wa
TitleUnicode:白い雪のプリンセスは
Artist:Noboru feat.Mitani Nana
ArtistUnicode:のぼる↑ feat.実谷なな
Creator:Natsu
Version:Easy
Source:
Tags:vocaloid vocaloid2 hatsune miku Noboru-P blanca nieves apple poison Momochikun SnowNiNo_
BeatmapID:952683
BeatmapSetID:439609

[Difficulty]
HPDrainRate:2
CircleSize:3
OverallDifficulty:2
ApproachRate:3
SliderMultiplier:0.9
SliderTickRate:1

[Events]
//Background and Video events
0,0,"K.jpg",0,0
//Break Periods
2,18828,19588
2,84778,89188
2,153528,158638
2,191628,206788
//Storyboard Layer 0 (Background)
//Storyboard Layer 1 (Fail)
//Storyboard Layer 2 (Pass)
//Storyboard Layer 3 (Foreground)
//Storyboard Sound Samples

[TimingPoints]
628,300,4,1,1,15,1,0
1678,-100,4,1,1,15,0,0
6478,-100,4,1,2,70,0,0
6553,-100,4,1,2,50,0,0
18628,-100,4,1,2,60,0,0
21028,-100,4,1,2,40,0,0
37828,-100,4,1,2,50,0,0
58528,-100,4,1,2,60,0,0
58978,-100,4,3,1,80,0,0
59428,-100,4,1,2,50,0,0
60628,-100,4,1,1,50,0,0
61828,-100,4,1,1,50,0,1
62128,-100,4,1,2,45,0,1
63028,-100,4,1,2,60,0,1
70678,-100,4,3,1,50,0,1
71353,-100,4,3,1,50,0,0
71428,-100,4,1,2,60,0,1
74278,-100,4,3,1,50,0,1
74578,-100,4,1,2,60,0,1
79078,-100,4,1,3,40,0,1
79828,-100,4,1,2,60,0,1
80878,-100,4,1,2,60,0,0
80953,-100,4,1,2,50,0,0
90628,-100,4,1,2,40,0,0
98128,-100,4,1,3,25,0,0
98578,-100,4,1,2,40,0,0
99028,-100,4,1,1,40,0,0
100228,-100,4,1,2,50,0,0
104578,-100,4,3,1,40,0,0
104728,-100,4,1,2,50,0,0
120628,-100,4,1,2,60,0,0
121828,-100,4,1,2,50,0,0
128128,-100,4,1,2,60,0,0
128578,-100,4,3,1,80,0,0
129028,-100,4,1,2,50,0,0
130228,-100,4,1,1,50,0,0
131428,-100,4,1,1,50,0,1
131728,-100,4,1,2,45,0,1
132628,-100,4,1,2,60,0,1
140278,-100,4,3,1,50,0,1
140953,-100,4,3,1,50,0,0
141028,-100,4,1,2,60,0,1
148678,-100,4,1,3,40,0,1
149428,-100,4,1,2,60,0,1
150478,-100,4,1,2,60,0,0
150778,-100,4,1,3,50,0,0
162778,-100,4,1,3,40,0,0
164728,-100,4,1,3,50,0,0
167428,-100,4,1,3,40,0,0
171028,-100,4,1,1,40,0,0
172228,-100,4,1,1,50,0,0
172528,-100,4,1,2,60,0,0
172603,-100,4,1,2,20,0,0
172828,-100,4,1,2,60,0,0
172903,-100,4,1,2,20,0,0
173128,-100,4,1,2,60,0,0
173428,-100,4,1,1,50,0,0
173728,-100,4,1,2,60,0,0
173803,-100,4,1,2,20,0,0
174028,-100,4,1,2,60,0,0
174103,-100,4,1,2,20,0,0
174328,-100,4,1,2,60,0,0
174628,-100,4,1,1,50,0,0
174928,-100,4,1,2,60,0,0
175003,-100,4,1,2,20,0,0
175228,-100,4,1,2,60,0,0
175303,-100,4,1,2,20,0,0
175528,-100,4,1,2,60,0,0
175828,-100,4,1,1,50,0,0
176128,-100,4,1,2,60,0,0
176203,-100,4,1,2,20,0,0
176428,-100,4,1,2,60,0,0
176503,-100,4,1,2,20,0,0
176728,-100,4,1,2,60,0,0
177028,-100,4,1,1,50,0,0
177328,-100,4,1,2,60,0,0
177403,-100,4,1,2,20,0,0
177628,-100,4,1,2,60,0,0
177703,-100,4,1,2,20,0,0
177928,-100,4,1,2,60,0,0
178228,-100,4,1,1,50,0,0
178528,-100,4,1,2,60,0,0
178603,-100,4,1,2,20,0,0
178828,-100,4,1,2,60,0,0
178903,-100,4,1,2,20,0,0
179128,-100,4,1,2,60,0,0
179428,-100,4,1,1,50,0,0
179728,-100,4,1,2,60,0,0
179803,-100,4,1,2,20,0,0
180028,-100,4,1,2,60,0,0
180103,-100,4,1,2,20,0,0
180328,-100,4,1,2,60,0,0
180628,-100,4,1,2,50,0,0
181828,-100,4,1,2,50,0,0
186928,-100,4,3,1,40,0,0
187078,-100,4,1,2,50,0,0
188128,-100,4,1,2,60,0,0
188578,-100,4,1,3,40,0,0
189028,-100,4,1,2,50,0,0
190228,-100,4,1,1,25,0,0
191428,-100,4,1,1,35,0,0
208228,-100,4,1,2,50,0,0
211528,-100,4,1,2,60,0,0
211828,-100,4,1,1,50,0,0
213028,-100,4,1,1,50,0,1
213328,-100,4,1,2,45,0,1
214228,-100,4,1,2,60,0,1
221878,-100,4,3,1,50,0,1
222553,-100,4,3,1,50,0,0
222628,-100,4,1,2,60,0,1
227278,-100,4,3,1,50,0,1
227428,-100,4,1,2,60,0,1
230278,-100,4,1,3,40,0,1
232078,-100,4,1,2,50,0,0
240928,-100,4,1,3,40,0,0
241378,-100,4,1,2,50,0,0
242128,-100,4,1,3,40,0,0
242428,-100,4,1,2,50,0,0
243328,-100,4,1,3,40,0,0
243628,-100,4,1,2,50,0,0
250528,-100,4,1,3,40,0,0
251278,-100,4,1,2,50,0,0
251728,-100,4,1,3,40,0,0
252028,-100,4,1,2,50,0,0
253078,-100,4,1,3,40,0,0
253828,-100,4,1,2,50,0,0
254803,-100,4,1,2,5,0,0
259228,-100,4,1,2,20,0,0

[Colours]
Combo1 : 255,136,139
Combo2 : 204,0,5

[HitObjects]
292,48,1678,6,0,B|401:-5|401:82|509:34,1,225,2|2,0:0|0:0,0:0:0:0:
509,170,2878,2,0,B|399:116|399:204|291:156,1,225,2|2,0:0|0:0,0:0:0:0:
220,272,4078,6,0,B|110:325|110:237|2:285,1,225,2|2,0:0|0:0,0:0:0:0:
3,150,5278,2,0,B|112:203|112:115|220:163,1,225,2|2,0:0|0:0,0:0:0:0:
332,240,6478,6,0,P|307:301|331:363,2,135,6|8|0,0:0|0:0|0:0,0:0:0:0:
404,184,7678,2,0,P|428:122|404:60,2,135,6|8|0,0:0|0:0|0:0,0:0:0:0:
332,240,8878,6,0,B|184:240,2,135,6|8|0,0:0|0:0|0:0,0:0:0:0:
404,184,10078,2,0,P|415:141|405:97,1,90,6|0,0:0|0:0,0:0:0:0:
320,72,10678,2,0,P|277:84|234:73,1,90,6|0,0:0|0:0,0:0:0:0:
152,40,11278,6,0,P|90:15|28:39,2,135,6|12|0,0:0|0:0|0:0,0:0:0:0:
168,128,12478,2,0,L|168:276,2,135,6|8|0,0:0|0:0|0:0,0:0:0:0:
84,164,13678,6,0,L|84:304,2,135,6|8|0,0:0|0:0|0:0,0:0:0:0:
168,128,14878,2,0,P|210:140|253:128,1,90,6|0,0:0|0:0,0:0:0:0:
324,72,15478,2,0,P|366:59|409:71,1,90,6|0,0:0|0:0,0:0:0:0:
368,152,16078,1,6,0:0:0:0:
256,192,16228,12,4,18628,0:0:0:0:
468,260,21028,6,0,L|468:350,1,90,6|8,0:0|0:0,0:0:0:0:
376,352,21628,2,0,P|332:340|284:352,1,90,2|8,0:0|0:0,0:0:0:0:
200,356,22228,1,2,0:0:0:0:
140,288,22528,2,0,L|124:148,1,135,8|0,0:0|0:0,0:0:0:0:
160,72,23278,6,0,P|220:88|280:52,1,135,6|8,0:0|0:0,0:0:0:0:
364,24,24028,2,0,L|460:24,1,90,2|8,0:0|0:0,0:0:0:0:
496,104,24628,2,0,P|468:160|500:228,1,135,4|6,0:0|0:0,0:0:0:0:
444,300,25378,1,4,0:0:0:0:
364,256,25678,6,0,P|304:236|240:260,1,135,6|8,0:0|0:0,0:0:0:0:
156,296,26428,2,0,P|91:312|27:292,2,135,2|6|8,0:0|0:0|0:0,0:0:0:0:
164,208,27628,2,0,P|147:143|167:79,2,135,2|6|8,0:0|0:0|0:0,0:0:0:0:
244,244,28828,6,0,L|352:244,1,90,2|8,0:0|0:0,0:0:0:0:
424,244,29428,2,0,P|407:308|427:372,2,135,6|2|8,0:0|0:0|0:0,0:0:0:0:
496,188,30628,6,0,P|508:144|488:92,1,90,6|8,0:0|0:0,0:0:0:0:
428,40,31228,2,0,L|332:40,1,90,2|8,0:0|0:0,0:0:0:0:
256,80,31828,1,2,0:0:0:0:
208,156,32128,2,0,P|187:212|212:280,1,135,8|4,0:0|0:0,0:0:0:0:
304,280,32878,6,0,P|328:218|307:156,1,135,6|8,0:0|0:0,0:0:0:0:
256,80,33628,2,0,L|160:56,1,90,2|8,0:0|0:0,0:0:0:0:
79,67,34228,2,0,P|100:130|71:189,1,135,2|6,0:0|0:0,0:0:0:0:
4,252,34978,1,6,0:0:0:0:
68,316,35278,6,0,B|208:316,1,135,6|8,0:0|0:0,0:0:0:0:
268,252,36028,2,0,P|244:192|272:124,2,135,2|2|8,0:0|0:0|0:0,0:0:0:0:
324,320,37228,2,0,L|420:320,1,90,2|12,0:0|0:0,0:0:0:0:
476,256,37828,6,0,P|500:196|472:128,2,135,6|0|8,0:0|0:0|0:0,0:0:0:0:
408,196,39028,2,0,P|384:136|412:68,2,135,6|2|8,0:0|0:0|0:0,0:0:0:0:
368,276,40228,6,0,L|228:276,2,135,4|2|8,0:0|0:0|0:0,0:0:0:0:
332,360,41428,2,0,L|236:360,1,90,6|8,0:0|0:0,0:0:0:0:
160,320,42028,2,0,P|148:280|160:228,1,90,2|12,0:0|0:0,0:0:0:0:
228,176,42628,5,6,0:0:0:0:
288,108,42928,2,0,B|370:151|370:63|458:107,1,180,8|8,0:0|0:0,0:0:0:0:
492,192,43828,1,6,0:0:0:0:
458,276,44128,2,0,B|370:320|370:232|288:276,1,180,8|8,0:0|0:0,0:0:0:0:
220,336,45028,5,6,0:0:0:0:
204,248,45328,2,0,B|200:136|200:136|256:84,1,180,8|8,0:0|0:0,0:0:0:0:
328,48,46228,2,0,L|472:48,2,135,6|2|8,0:0|0:0|0:0,0:0:0:0:
249,89,47428,5,6,0:0:0:0:
296,164,47728,2,0,P|328:248|296:328,1,180,8|8,0:0|0:0,0:0:0:0:
216,364,48628,1,6,0:0:0:0:
132,328,48928,2,0,P|100:246|132:164,1,180,8|8,0:0|0:0,0:0:0:0:
204,112,49828,6,0,P|215:68|208:24,1,90,6|8,0:0|0:0,0:0:0:0:
28,24,50728,1,8,0:0:0:0:
72,104,51028,2,0,P|84:144|68:200,1,90,6|12,0:0|0:0,0:0:0:0:
24,264,51628,2,0,P|12:304|28:360,1,90,6|12,0:0|0:0,0:0:0:0:
108,380,52228,5,6,0:0:0:0:
172,316,52528,2,0,B|256:292|256:344|349:318,1,180,8|8,0:0|0:0,0:0:0:0:
424,272,53428,1,6,0:0:0:0:
368,200,53728,2,0,P|336:118|370:37,1,180,8|8,0:0|0:0,0:0:0:0:
280,20,54628,6,0,L|176:20,1,90,6|8,0:0|0:0,0:0:0:0:
124,80,55228,2,0,P|135:122|126:166,1,90,2|8,0:0|0:0,0:0:0:0:
60,227,55828,2,0,P|40:291|50:357,2,135,6|2|12,0:0|0:0|0:0,0:0:0:0:
126,166,57028,5,6,0:0:0:0:
200,116,57328,2,0,B|284:76|284:148|373:108,1,180,8|8,0:0|0:0,0:0:0:0:
460,84,58228,1,6,0:0:0:0:
440,172,58528,2,0,L|440:264,1,90,8|10,0:0|0:0,0:0:0:0:
488,340,59128,1,8,0:0:0:0:
400,344,59428,5,6,0:0:0:0:
300,196,60028,1,6,0:0:0:0:
163,316,60628,2,0,P|121:327|77:317,1,90,6|2,0:0|0:0,0:0:0:0:
120,240,61228,2,0,P|162:228|206:238,1,90,2|2,0:0|0:0,0:0:0:0:
296,252,61828,6,0,L|296:156,1,90,6|8,0:0|0:0,0:0:0:0:
300,72,62428,2,0,P|342:83|386:73,1,90,2|8,0:0|0:0,0:0:0:0:
456,132,63028,2,0,L|456:228,1,90,6|8,0:0|0:0,0:0:0:0:
452,312,63628,2,0,P|409:300|365:310,1,90,2|8,0:0|0:0,0:0:0:0:
288,356,64228,6,0,L|192:356,2,90,6|8|2,0:0|0:0|0:0,0:0:0:0:
292,264,65128,1,8,0:0:0:0:
228,200,65428,2,0,P|215:157|227:114,1,90,6|8,0:0|0:0,0:0:0:0:
256,28,66028,2,0,L|164:28,1,90,6|12,0:0|0:0,0:0:0:0:
76,32,66628,6,0,P|87:74|72:115,1,90,6|8,0:0|0:0,0:0:0:0:
119,192,67228,2,0,P|78:207|34:198,2,90,2|8|2,0:0|0:0|0:0,0:0:0:0:
192,140,68128,2,0,B|278:106|278:173|369:140,1,180,8|8,0:0|0:0,0:0:0:0:
444,96,69028,5,6,0:0:0:0:
476,180,69328,2,0,L|476:328,1,135,2|6,0:0|0:0,0:0:0:0:
400,364,70078,2,0,P|338:339|276:363,1,135,6|8,0:0|0:0,0:0:0:0:
196,320,70828,2,0,L|196:224,1,90,8|8,0:0|0:0,0:0:0:0:
108,208,71428,6,0,L|108:108,1,90,6|8,0:0|0:0,0:0:0:0:
16,120,72028,2,0,L|16:16,1,90,2|8,0:0|0:0,0:0:0:0:
103,23,72628,2,0,P|146:36|189:24,1,90,6|8,0:0|0:0,0:0:0:0:
280,28,73228,2,0,P|322:16|365:28,1,90,2|8,0:0|0:0,0:0:0:0:
456,32,73828,6,0,L|456:140,1,90,6|8,0:0|0:0,0:0:0:0:
456,212,74428,1,8,0:0:0:0:
384,264,74728,2,0,B|336:280|336:280|276:244|211:265,1,180,8|8,0:0|0:0,0:0:0:0:
144,324,75628,2,0,L|48:324,1,90,8|8,0:0|0:0,0:0:0:0:
24,240,76228,6,0,P|36:196|16:144,1,90,6|8,0:0|0:0,0:0:0:0:
0,68,76828,2,0,L|104:68,1,90,2|8,0:0|0:0,0:0:0:0:
172,28,77428,1,6,0:0:0:0:
224,100,77728,2,0,P|305:132|387:100,1,180,8|8,0:0|0:0,0:0:0:0:
444,168,78628,6,0,L|444:304,2,135,6|4|0,0:0|0:0|0:0,0:0:0:0:
364,208,79828,2,0,L|364:312,2,90,12|10|10,0:0|0:0|0:0,0:0:0:0:
284,248,80728,1,10,0:0:0:0:
256,192,80878,12,6,84478,0:0:0:0:
40,356,90628,6,0,L|40:264,1,90,6|8,0:0|0:0,0:0:0:0:
112,212,91228,2,0,P|156:224|204:212,1,90,2|8,0:0|0:0,0:0:0:0:
256,144,91828,1,2,0:0:0:0:
311,71,92128,2,0,P|342:131|329:195,1,135,8|0,0:0|0:0,0:0:0:0:
296,280,92878,6,0,L|444:280,1,135,6|8,0:0|0:0,0:0:0:0:
500,224,93628,2,0,P|489:180|502:137,1,90,2|8,0:0|0:0,0:0:0:0:
512,48,94228,2,0,L|364:48,1,135,6|6,0:0|0:0,0:0:0:0:
292,20,94978,1,4,0:0:0:0:
316,108,95278,6,0,P|336:168|312:232,1,135,6|8,0:0|0:0,0:0:0:0:
248,168,96028,2,0,P|188:148|124:172,2,135,2|6|8,0:0|0:0|0:0,0:0:0:0:
188,236,97228,2,0,P|168:296|192:360,2,135,2|6|8,0:0|0:0|0:0,0:0:0:0:
248,168,98428,6,0,L|352:168,1,90,0|8,0:0|0:0,0:0:0:0:
404,228,99028,2,0,P|387:292|407:356,2,135,2|2|0,0:0|0:0|0:0,0:0:0:0:
480,180,100228,6,0,L|480:84,1,90,4|10,0:0|0:0,0:0:0:0:
400,52,100828,2,0,P|357:61|312:52,1,90,2|8,0:0|0:0,0:0:0:0:
228,24,101428,1,2,0:0:0:0:
244,112,101728,2,0,P|265:174|240:235,1,135,8|4,0:0|0:0,0:0:0:0:
164,288,102478,6,0,L|24:288,1,135,6|8,0:0|0:0,0:0:0:0:
20,200,103228,2,0,P|32:156|20:108,1,90,2|8,0:0|0:0,0:0:0:0:
32,24,103828,2,0,P|95:44|158:24,1,135,6|6,0:0|0:0,0:0:0:0:
244,52,104578,1,12,0:0:0:0:
184,120,104878,6,0,B|184:268,1,135,6|8,0:0|0:0,0:0:0:0:
256,308,105628,2,0,P|316:284|384:312,2,135,2|6|8,0:0|0:0|0:0,0:0:0:0:
172,344,106828,2,0,L|82:344,1,90,2|12,0:0|0:0,0:0:0:0:
28,272,107428,6,0,P|4:212|36:144,2,135,6|0|8,0:0|0:0|0:0,0:0:0:0:
92,212,108628,2,0,P|152:236|220:204,2,135,6|2|8,0:0|0:0|0:0,0:0:0:0:
152,148,109828,6,0,P|128:88|160:20,2,135,6|2|8,0:0|0:0|0:0,0:0:0:0:
220,88,111028,2,0,L|310:88,1,90,6|12,0:0|0:0,0:0:0:0:
384,36,111628,2,0,L|488:36,1,90,2|12,0:0|0:0,0:0:0:0:
496,124,112228,5,6,0:0:0:0:
436,192,112528,2,0,B|392:280|480:280|437:362,1,180,8|8,0:0|0:0,0:0:0:0:
348,372,113428,1,6,0:0:0:0:
276,320,113728,2,0,B|188:276|188:364|106:320,1,180,8|8,0:0|0:0,0:0:0:0:
44,252,114628,5,6,0:0:0:0:
40,164,114928,2,0,P|111:112|198:123,1,180,8|8,0:0|0:0,0:0:0:0:
272,176,115828,2,0,P|336:192|404:168,2,135,6|2|8,0:0|0:0|0:0,0:0:0:0:
198,123,117028,5,6,0:0:0:0:
188,212,117328,2,0,P|193:299|134:363,1,180,8|8,0:0|0:0,0:0:0:0:
44,364,118228,1,6,0:0:0:0:
12,280,118528,2,0,L|4:92,1,180,8|8,0:0|0:0,0:0:0:0:
92,88,119428,6,0,P|136:99|180:92,1,90,6|8,0:0|0:0,0:0:0:0:
348,28,120328,1,8,0:0:0:0:
416,88,120628,2,0,P|428:128|412:184,1,90,6|12,0:0|0:0,0:0:0:0:
336,208,121228,2,0,P|324:248|340:304,1,90,6|12,0:0|0:0,0:0:0:0:
392,364,121828,5,6,0:0:0:0:
304,372,122128,2,0,B|124:372,1,180,8|8,0:0|0:0,0:0:0:0:
44,328,123028,1,6,0:0:0:0:
120,280,123328,2,0,P|152:198|118:117,1,180,8|8,0:0|0:0,0:0:0:0:
84,36,124228,6,0,L|174:36,1,90,6|8,0:0|0:0,0:0:0:0:
256,76,124828,2,0,P|245:118|256:164,1,90,2|8,0:0|0:0,0:0:0:0:
328,216,125428,2,0,P|348:276|304:323,2,135,6|2|8,0:0|0:0|0:0,0:0:0:0:
255,162,126628,5,6,0:0:0:0:
188,224,126928,2,0,P|104:256|20:224,1,180,8|8,0:0|0:0,0:0:0:0:
56,144,127828,1,6,0:0:0:0:
116,76,128128,2,0,L|212:64,1,90,8|8,0:0|0:0,0:0:0:0:
296,48,128728,1,8,0:0:0:0:
264,132,129028,5,6,0:0:0:0:
176,288,129628,1,6,0:0:0:0:
336,208,130228,2,0,L|428:208,1,90,6|2,0:0|0:0,0:0:0:0:
488,272,130828,2,0,P|476:314|486:358,1,90,2|2,0:0|0:0,0:0:0:0:
396,364,131428,6,0,L|300:364,1,90,6|10,0:0|0:0,0:0:0:0:
232,312,132028,2,0,P|243:270|233:226,1,90,2|10,0:0|0:0,0:0:0:0:
152,184,132628,2,0,P|141:227|152:270,1,90,6|8,0:0|0:0,0:0:0:0:
232,312,133228,2,0,L|328:312,1,90,2|8,0:0|0:0,0:0:0:0:
400,264,133828,6,0,P|413:308|400:360,2,90,6|8|2,0:0|0:0|0:0,0:0:0:0:
324,216,134728,1,8,0:0:0:0:
256,156,135028,2,0,L|256:64,1,90,6|8,0:0|0:0,0:0:0:0:
344,40,135628,2,0,P|386:52|430:42,1,90,6|12,0:0|0:0,0:0:0:0:
496,104,136228,6,0,L|496:204,1,90,6|8,0:0|0:0,0:0:0:0:
420,240,136828,2,0,L|420:340,2,90,2|8|6,0:0|0:0|0:0,0:0:0:0:
344,188,137728,2,0,B|255:220|255:153|169:187,1,180,8|8,0:0|0:0,0:0:0:0:
100,248,138628,5,6,0:0:0:0:
88,160,138928,2,0,L|88:24,1,135,8|4,0:0|0:0,0:0:0:0:
180,32,139678,2,0,P|241:54|302:30,1,135,6|8,0:0|0:0,0:0:0:0:
392,20,140428,2,0,L|392:110,1,90,8|8,0:0|0:0,0:0:0:0:
464,164,141028,6,0,L|464:254,1,90,6|8,0:0|0:0,0:0:0:0:
392,312,141628,2,0,P|349:299|306:311,1,90,2|8,0:0|0:0,0:0:0:0:
224,344,142228,2,0,P|181:355|138:342,1,90,6|8,0:0|0:0,0:0:0:0:
72,284,142828,2,0,L|56:192,1,90,2|8,0:0|0:0,0:0:0:0:
40,108,143428,6,0,P|84:116|128:100,1,90,6|8,0:0|0:0,0:0:0:0:
204,56,144028,1,2,0:0:0:0:
204,144,144328,2,0,L|204:324,1,180,8|8,0:0|0:0,0:0:0:0:
288,356,145228,2,0,P|333:344|378:356,1,90,8|8,0:0|0:0,0:0:0:0:
452,312,145828,6,0,P|440:268|460:216,1,90,6|8,0:0|0:0,0:0:0:0:
492,148,146428,2,0,L|402:148,1,90,2|8,0:0|0:0,0:0:0:0:
324,196,147028,1,2,0:0:0:0:
260,260,147328,2,0,P|236:176|304:108,1,180,8|8,0:0|0:0,0:0:0:0:
364,56,148228,6,0,L|504:56,2,135,6|4|0,0:0|0:0|0:0,0:0:0:0:
400,140,149428,2,0,L|496:140,2,90,12|10|10,0:0|0:0|0:0,0:0:0:0:
440,232,150328,1,10,0:0:0:0:
256,192,150478,12,8,153328,0:0:0:0:
35,359,160078,6,0,P|101:371|163:347,1,135,6|8,0:0|0:0,0:0:0:0:
236,292,160828,2,0,P|298:267|363:279,1,135,2|6,0:0|0:0,0:0:0:0:
448,312,161578,2,0,L|448:208,1,90,0|2,0:0|0:0,0:0:0:0:
500,148,162178,2,0,L|500:52,1,90,0|2,0:0|0:0,0:0:0:0:
411,52,162778,6,0,P|350:75|289:50,1,135,2|2,0:0|0:0,0:0:0:0:
200,32,163528,2,0,L|200:128,1,90,10|2,0:0|0:0,0:0:0:0:
112,144,164128,2,0,L|112:288,1,135,10|2,0:0|0:0,0:0:0:0:
152,360,164878,6,0,P|235:333|292:357,1,135,6|10,0:0|0:0,0:0:0:0:
368,348,165628,2,0,L|516:348,2,135,10|4|10,0:0|0:0|0:0,0:0:0:0:
340,260,166828,2,0,P|328:216|340:168,1,90,10|10,0:0|0:0,0:0:0:0:
416,128,167428,6,0,P|425:79|408:32,1,90,6|10,0:0|0:0,0:0:0:0:
324,28,168028,2,0,L|232:28,1,90,2|10,0:0|0:0,0:0:0:0:
172,92,168628,2,0,P|162:140|180:188,1,90,6|10,0:0|0:0,0:0:0:0:
264,192,169228,2,0,L|356:192,1,90,2|10,0:0|0:0,0:0:0:0:
432,240,169828,6,0,P|441:288|424:336,1,90,6|10,0:0|0:0,0:0:0:0:
348,364,170428,2,0,L|256:364,1,90,2|10,0:0|0:0,0:0:0:0:
176,324,171028,1,6,0:0:0:0:
28,24,172228,5,6,0:0:0:0:
100,80,172528,2,0,L|208:80,2,90,0|0|0,0:0|0:0|0:0,0:0:0:0:
20,120,173428,1,6,0:0:0:0:
92,176,173728,2,0,L|200:176,2,90,0|0|0,0:0|0:0|0:0,0:0:0:0:
12,220,174628,5,6,0:0:0:0:
84,276,174928,2,0,L|192:276,2,90,0|0|0,0:0|0:0|0:0,0:0:0:0:
4,316,175828,1,6,0:0:0:0:
76,372,176128,2,0,L|184:372,2,90,0|0|0,0:0|0:0|0:0,0:0:0:0:
4,316,177028,5,6,0:0:0:0:
11,227,177328,2,0,P|4:184|20:136,2,90,0|0|0,0:0|0:0|0:0,0:0:0:0:
88,280,178228,1,6,0:0:0:0:
148,212,178528,2,0,P|190:200|248:220,2,90,0|0|0,0:0|0:0|0:0,0:0:0:0:
192,292,179428,5,6,0:0:0:0:
252,360,179728,2,0,P|294:371|352:352,2,90,0|0|0,0:0|0:0|0:0,0:0:0:0:
192,292,180628,2,0,L|168:192,1,90,10|10,0:0|0:0,0:0:0:0:
260,192,181228,2,0,L|284:92,1,90,10|10,0:0|0:0,0:0:0:0:
240,24,181828,5,6,0:0:0:0:
172,84,182128,2,0,B|80:132|80:44|-4:88,1,180,8|8,0:0|0:0,0:0:0:0:
40,168,183028,1,6,0:0:0:0:
96,240,183328,2,0,B|188:288|188:200|272:244,1,180,8|8,0:0|0:0,0:0:0:0:
332,304,184228,6,0,L|428:304,1,90,6|8,0:0|0:0,0:0:0:0:
456,220,184828,2,0,L|364:220,1,90,2|8,0:0|0:0,0:0:0:0:
300,156,185428,2,0,P|328:96|296:28,2,135,6|2|12,0:0|0:0|0:0,0:0:0:0:
216,192,186628,5,6,0:0:0:0:
147,132,186928,2,0,P|131:216|190:279,1,180,8|8,0:0|0:0,0:0:0:0:
280,280,187828,1,6,0:0:0:0:
344,216,188128,2,0,P|387:206|440:216,2,90,8|8|0,0:0|0:0|0:0,0:0:0:0:
280,280,189028,5,6,0:0:0:0:
164,144,189628,1,6,0:0:0:0:
344,120,190228,1,6,0:0:0:0:
416,172,190528,2,0,L|416:280,2,90,2|2|2,0:0|0:0|0:0,0:0:0:0:
428,84,191428,1,6,0:0:0:0:
496,340,208228,6,0,P|412:367|332:332,1,180,6|8,0:0|0:0,0:0:0:0:
284,256,209128,1,8,0:0:0:0:
344,188,209428,2,0,P|352:144|340:96,2,90,8|8|8,0:0|0:0|0:0,0:0:0:0:
284,256,210328,1,8,0:0:0:0:
200,224,210628,6,0,P|132:211|60:232,2,135,12|12|12,0:0|0:0|0:0,0:0:0:0:
284,256,211828,2,0,P|273:298|292:352,2,90,6|2|2,0:0|0:0|0:0,0:0:0:0:
344,188,212728,1,2,0:0:0:0:
420,136,213028,6,0,L|520:136,1,90,6|10,0:0|0:0,0:0:0:0:
484,48,213628,2,0,L|384:48,1,90,2|10,0:0|0:0,0:0:0:0:
312,80,214228,2,0,P|324:122|311:165,1,90,6|8,0:0|0:0,0:0:0:0:
232,208,214828,2,0,P|219:165|231:122,1,90,2|8,0:0|0:0,0:0:0:0:
312,80,215428,6,0,L|404:64,2,90,6|8|2,0:0|0:0|0:0,0:0:0:0:
240,24,216328,1,12,0:0:0:0:
164,72,216628,2,0,P|119:83|76:72,1,90,6|8,0:0|0:0,0:0:0:0:
12,136,217228,2,0,L|12:244,1,90,6|12,0:0|0:0,0:0:0:0:
16,316,217828,6,0,P|58:305|99:320,1,90,6|8,0:0|0:0,0:0:0:0:
184,356,218428,2,0,L|280:356,2,90,2|8|6,0:0|0:0|0:0,0:0:0:0:
168,268,219328,2,0,B|134:182|201:182|168:91,1,180,8|8,0:0|0:0,0:0:0:0:
120,20,220228,5,6,0:0:0:0:
208,16,220528,2,0,L|364:16,1,135,8|4,0:0|0:0,0:0:0:0:
408,80,221278,2,0,P|383:142|407:204,1,135,6|8,0:0|0:0,0:0:0:0:
448,284,222028,2,0,L|352:284,1,90,8|8,0:0|0:0,0:0:0:0:
268,268,222628,6,0,P|276:221|264:176,1,90,6|8,0:0|0:0,0:0:0:0:
184,148,223228,2,0,P|175:101|188:56,1,90,2|8,0:0|0:0,0:0:0:0:
272,32,223828,2,0,L|368:32,1,90,6|8,0:0|0:0,0:0:0:0:
384,120,224428,2,0,L|484:120,1,90,2|8,0:0|0:0,0:0:0:0:
475,208,225028,6,0,P|464:250|474:294,1,90,6|8,0:0|0:0,0:0:0:0:
416,364,225628,2,0,L|268:364,2,135,6|4|8,0:0|0:0|0:0,0:0:0:0:
364,280,226828,2,0,L|256:280,1,90,8|8,0:0|0:0,0:0:0:0:
187,231,227428,6,0,P|173:190|183:147,1,90,6|8,0:0|0:0,0:0:0:0:
148,56,228028,2,0,P|190:67|234:57,1,90,2|8,0:0|0:0,0:0:0:0:
328,28,228628,1,6,0:0:0:0:
312,124,228928,2,0,P|280:205|312:287,1,180,8|8,0:0|0:0,0:0:0:0:
384,220,229828,6,0,P|444:200|516:224,2,135,6|4|8,0:0|0:0|0:0,0:0:0:0:
312,287,231028,2,0,L|216:288,2,90,12|8|8,0:0|0:0|0:0,0:0:0:0:
380,360,231928,1,8,0:0:0:0:
256,192,232078,12,0,234628,0:0:0:0:
260,164,236878,6,0,P|280:104|256:32,2,135,6|8|0,0:0|0:0|2:0,0:0:0:0:
176,192,238078,2,0,P|114:167|52:190,1,135,6|8,0:0|0:0,0:0:0:0:
52,280,238828,2,0,P|113:304|175:281,1,135,2|6,0:0|0:0,0:0:0:0:
252,236,239578,6,0,P|315:215|377:238,1,135,0|2,0:0|0:0,0:0:0:0:
508,212,240478,2,0,L|508:76,1,135,6|8,0:0|0:0,0:0:0:0:
436,24,241228,1,8,0:0:0:0:
324,96,241678,6,0,P|256:112|184:92,2,135,6|8|0,0:0|0:0|2:0,0:0:0:0:
392,156,242878,2,0,L|392:296,1,135,6|8,0:0|0:0,0:0:0:0:
332,356,243628,1,2,0:0:0:0:
216,288,244078,2,0,P|152:269|93:299,1,135,4|8,0:0|0:0,0:0:0:0:
28,240,244828,6,0,L|28:104,1,135,2|6,0:0|0:0,0:0:0:0:
112,72,245578,2,0,P|154:84|197:72,1,90,12|12,0:0|0:0,0:0:0:0:
280,40,246178,1,12,0:0:0:0:
356,92,246478,6,0,B|407:190|303:190|358:306,1,225,6|2,0:0|0:0,0:0:0:0:
228,344,247678,2,0,P|122:311|18:349,1,225,6|2,0:0|0:0,0:0:0:0:
16,216,248878,6,0,B|95:137|-3:105|84:12,1,225,6|2,0:0|0:0,0:0:0:0:
220,20,250078,2,0,L|372:20,2,135,4|8|0,0:0|0:0|0:0,0:0:0:0:
256,100,251278,6,0,P|274:163|247:224,1,135,6|8,0:0|0:0,0:0:0:0:
212,308,252028,2,0,L|360:308,1,135,2|6,0:0|0:0,0:0:0:0:
424,356,252778,1,0,0:0:0:0:
468,276,253078,6,0,B|416:157|508:161|472:59,1,225,0|6,0:0|0:0,0:0:0:0:
344,16,254278,1,6,0:0:0:0:
256,192,254728,12,2,259228,0:0:0:0:
