osu file format v4

[General]
AudioFilename: 05.nobodyknows-kokoro-odoru.mp3
AudioLeadIn: 1500
AudioHash: c9bb5cae6b6ce2bb3f7e1bf85b496c6b
PreviewTime: -1
SampleSet: Normal

[Metadata]
Title:Kokoro Odoru
Artist:Nobodyknows+
Creator:kishoslayer
Version:

[Difficulty]
HPDrainRate:5
CircleSize:7
OverallDifficulty:7
SliderMultiplier: 2.2
SliderTickRate: 4

[Events]
//Background and Video events
0,-1,"nobodyknows_pf.jpg"
//Break Periods
//Storyboard Layer 0 (Background)
//Storyboard Layer 1 (Failing)
//Storyboard Layer 2 (Passing)
//Storyboard Layer 3 (Foreground)
//Storyboard Sound Samples
//Background Colour Transformations
3,100,128,255,255

[TimingPoints]
0,600,4,1,0

[HitObjects]
32,32,126,1,0
32,96,526,1,0
32,160,926,1,0
32,224,1326,1,0
32,288,1726,1,0
32,352,2126,1,0
96,352,2526,1,0
96,288,2926,1,0
96,224,3326,1,0
96,160,3726,1,0
96,96,4126,1,0
96,32,4526,1,0
160,32,4926,1,0
160,96,5326,1,0
160,160,5726,1,0
160,224,6126,1,0
160,288,6526,1,0
160,352,6926,1,0
224,352,7326,1,0
224,288,7726,1,0
224,224,8126,1,0
224,160,8526,1,0
224,96,8926,1,0
224,32,9326,1,0
288,32,9726,1,0
288,96,10126,1,0
288,160,10526,1,0
288,224,10926,1,0
288,288,11326,1,0
288,352,11726,1,0
352,352,12126,1,0
352,288,12526,1,0
352,224,12926,1,0
352,160,13326,1,0
352,96,13726,1,0
352,32,14126,1,0
416,32,14526,1,0
416,96,14926,1,0
416,160,15326,1,0
416,224,15726,1,0
416,288,16126,1,0
416,352,16526,1,0
480,352,16926,1,0
480,288,17326,1,0
480,224,17726,1,0
480,160,18126,1,0
480,96,18526,1,0
480,32,18926,2,0,B|480:32|192:256,1,360
256,192,20126,12,0,23726
32,96,24126,2,0,B|32:96|416:96|416:352|-32:352|448:0|64:160,1,540
32,32,25726,2,0,B|32:32|32:416,1,360
96,160,26526,2,0,B|96:160|192:32,1,180
128,224,26926,2,0,B|128:224|224:320,1,180
64,244,27726,2,0,B|64:244|64:64|256:64|256:256|256:384|64:352|0:352|64:256|64:224,1,540
32,64,29326,1,0
96,64,29726,1,0
160,64,30126,1,0
256,64,30526,1,0
320,64,30926,1,0
256,192,31326,12,0,66926
0,288,67326,2,0,B|0:288|384:288,1,360
352,288,68526,2,0,B|352:288|352:-96,1,360
32,64,69726,5,0
64,128,70126,1,0
32,32,72126,1,0
32,128,72526,1,0
32,256,72926,1,0
32,352,73326,1,0
128,128,73726,1,0
192,64,74126,1,0
160,224,74526,1,0
224,320,74926,1,0
128,64,76526,1,0
128,160,76926,1,0
128,288,77326,1,0
224,288,77726,1,0
320,288,78126,1,0
320,160,78526,1,0
320,64,78926,1,0
224,64,79326,1,0
96,64,80926,1,0
96,192,81326,1,0
96,352,81726,1,0
192,64,82126,1,0
256,160,82526,1,0
192,192,82926,1,0
256,288,83326,1,0
320,352,83726,1,0
96,64,85326,1,0
96,192,85726,1,0
96,352,86126,1,0
256,352,86526,1,0
384,352,86926,1,0
384,192,87326,1,0
384,64,87726,1,0
256,64,88126,1,0
96,64,89726,1,0
96,192,90126,1,0
96,352,90526,1,0
192,64,90926,1,0
320,96,91326,1,0
192,192,91726,1,0
256,288,92126,1,0
288,352,92526,1,0
128,96,93726,1,0
128,192,94126,1,0
128,320,94526,1,0
256,320,94926,1,0
352,320,95326,1,0
352,192,95726,1,0
352,96,96126,1,0
256,96,96526,1,0
64,64,98126,5,0
64,192,98526,1,0
64,320,98926,1,0
256,320,99326,1,0
416,320,99726,1,0
416,192,100126,1,0
416,96,100526,1,0
256,96,100926,1,0
64,96,102926,1,0
64,192,103326,1,0
64,320,103726,1,0
192,96,104126,1,0
192,224,104526,1,0
256,320,104926,1,0
64,64,106526,1,0
64,192,106926,1,0
64,320,107326,1,0
256,320,107726,1,0
384,320,108126,1,0
384,192,108526,1,0
384,96,108926,1,0
256,96,109326,1,0
64,64,110926,1,0
64,192,111326,1,0
64,320,111726,1,0
160,64,112126,1,0
288,64,112526,1,0
320,160,112926,1,0
160,192,113326,1,0
224,288,113726,1,0
288,352,114126,1,0
96,64,115726,1,0
96,192,116126,1,0
96,352,116526,1,0
224,352,116926,1,0
352,352,117326,1,0
352,192,117726,1,0
352,64,118126,1,0
256,192,119726,12,0,130926
32,352,131326,2,0,B|32:352|384:64,3,440
96,96,134526,1,0
384,96,134926,1,0
384,288,135726,1,0
128,288,136126,1,0
128,64,136926,1,0
384,64,137326,1,0
416,288,138126,2,0,B|416:288|-32:288|-32:32|512:32|512:64,1,660
256,192,139726,12,0,162926
