osu file format v13

[General]
AudioFilename: Noam - A WORLD WITHOUT DANGER.mp3
AudioLeadIn: 2000
PreviewTime: 14774
Countdown: 0
SampleSet: Soft
StackLeniency: 0.7
Mode: 0
LetterboxInBreaks: 0
WidescreenStoryboard: 0

[Editor]
DistanceSpacing: 1.1
BeatDivisor: 4
GridSize: 4
TimelineZoom: 1.8

[Metadata]
Title:A WORLD WITHOUT DANGER
TitleUnicode:A WORLD WITHOUT DANGER
Artist:Noam
ArtistUnicode:Noam
Creator:Gero
Version:Normal
Source:CODE LYOKO
Tags:Cartoon Network Subdigitals Debra Reynolds Franck Keller Moonscope Antefilms Opening (Main Title) Hebrew נועם קניאל Kaniel Un Monde Sans Danger Julien Lamassonne French Codigo Mundo Sin Peligro Spanish Aelita Schaeffer Jeremie Belpois Odd Della Robbia Yumi Ishiyama 石山 ゆみ Ulrich Stern William Dunbar William-XANA XANA TV Size
BeatmapID:590427
BeatmapSetID:251617

[Difficulty]
HPDrainRate:4
CircleSize:3.5
OverallDifficulty:4
ApproachRate:5
SliderMultiplier:1.4
SliderTickRate:2

[Events]
//Background and Video events
0,0,"BG.jpg",0,0
Video,0,"Video.avi"
//Break Periods
//Storyboard Layer 0 (Background)
//Storyboard Layer 1 (Fail)
//Storyboard Layer 2 (Pass)
//Storyboard Layer 3 (Foreground)
//Storyboard Sound Samples

[TimingPoints]
417,472.664250827162,4,2,1,40,1,0
7979,-100,4,2,1,30,0,0
8097,-100,4,2,1,50,0,0
13651,-100,4,2,1,30,0,0
13769,-100,4,2,1,50,0,0
15542,-100,4,2,1,70,0,1
30549,-100,4,2,1,70,0,0
30655,472.664250827162,4,2,1,70,1,1
45780,-100,4,2,1,70,0,0
46252,-100,4,2,1,50,0,0
53342,-100,4,2,1,70,0,0
53815,-100,4,2,1,60,0,0
54288,-100,4,2,1,50,0,0
54760,-100,4,2,1,40,0,0
55233,-100,4,2,1,30,0,0
55706,-100,4,2,1,20,0,0
56178,-100,4,2,1,15,0,0
56651,-100,4,2,1,10,0,0
57124,-100,4,2,2,5,0,0

[Colours]
Combo1 : 230,210,142
Combo2 : 101,164,167
Combo3 : 200,171,140
Combo4 : 236,139,125
Combo5 : 209,118,187
Combo6 : 124,124,124

[HitObjects]
60,328,417,6,0,B|116:328|116:328|164:328|192:288,1,140,2|2,0:0|0:0,0:0:0:0:
256,256,1125,1,0,0:0:0:0:
323,292,1362,2,0,B|347:327|395:327|395:327|451:327,1,140,2|2,0:0|0:0,0:0:0:0:
380,192,2307,6,0,P|328:148|312:80,1,140,2|2,0:0|0:0,0:0:0:0:
256,28,3016,1,0,0:0:0:0:
200,80,3252,2,0,P|184:147|132:192,1,140,2|2,0:0|0:0,0:0:0:0:
256,284,4198,6,0,B|352:284|352:284|360:288|360:288|368:292|368:292|468:292,2,210,2|2|2,0:0|0:0|0:0,0:0:0:0:
256,128,6088,2,0,B|160:128|160:128|152:124|152:124|144:120|144:120|44:120,2,210,2|2|2,0:0|0:0|0:0,0:0:0:0:
316,80,7743,1,0,0:0:0:0:
376,32,7979,6,0,P|444:32|496:84,1,140,6|2,0:0|0:0,0:0:0:0:
388,192,8924,1,2,0:0:0:0:
494,305,9397,1,2,0:0:0:0:
494,305,9633,1,0,0:0:0:0:
494,305,9870,6,0,P|445:352|377:353,1,140,2|2,0:0|0:0,0:0:0:0:
256,256,10815,1,2,0:0:0:0:
136,352,11288,2,0,B|100:352|100:352|64:364,1,70,2|0,0:0|0:0,0:0:0:0:
18,305,11760,6,0,P|-11:243|18:182,1,140,2|2,0:0|0:0,0:0:0:0:
92,48,12706,2,0,B|160:48|160:48|212:100,1,140,2|2,0:0|0:0,0:0:0:0:
256,160,13415,1,0,0:0:0:0:
301,98,13651,6,2,B|352:48|352:48|420:48,1,140,6|2,0:0|0:0,0:0:0:0:
493,183,14596,1,2,0:0:0:0:
508,260,14833,1,8,0:0:0:0:
456,316,15069,1,8,0:0:0:0:
316,248,15542,5,4,0:0:0:0:
256,196,15779,1,2,0:0:0:0:
196,248,16014,1,10,0:0:0:0:
56,316,16487,1,0,0:0:0:0:
4,260,16723,1,2,0:0:0:0:
19,183,16960,1,10,0:0:0:0:
92,48,17432,6,0,B|160:48|160:48|212:100,1,140,2|10,0:0|0:0,0:0:0:0:
264,44,18141,2,0,L|208:180,1,140,2|10,0:0|0:0,0:0:0:0:
256,236,18850,1,10,0:0:0:0:
340,364,19323,6,0,B|412:364|412:364|484:364|520:288,2,210,6|2|10,0:0|0:0|0:0,0:0:0:0:
256,236,21214,2,0,B|184:236|184:236|112:236|76:312,2,210,2|2|10,0:0|0:0|0:0,0:0:0:0:
400,180,23104,6,0,P|424:244|399:308,1,140,6|10,0:0|0:0,0:0:0:0:
324,332,23813,2,0,L|468:360,1,140,2|2,0:0|0:0,0:0:0:0:
504,292,24522,1,10,0:0:0:0:
400,180,24995,6,0,P|308:180|252:84,2,210,2|2|10,0:0|0:0|0:0,0:0:0:0:
444,116,26649,1,2,0:0:0:0:
480,184,26886,6,0,L|384:292,1,140,2|8,0:0|0:0,0:0:0:0:
456,328,27595,2,0,B|416:372|392:372|329:371,1,140,2|2,0:0|0:0,0:0:0:0:
256,348,28304,1,10,0:0:0:0:
182,371,28540,6,0,B|120:372|96:372|56:328,1,140,2|2,0:0|0:0,0:0:0:0:
192,256,29485,2,0,B|224:236|256:228|256:228|288:236|320:256,1,140,2|8,0:0|0:0,0:0:0:0:
387,288,30194,1,10,0:0:0:0:
500,192,30655,5,4,0:0:0:0:
387,96,31127,2,0,B|317:96|317:96|294:68|256:68,1,140,10|2,0:0|0:0,0:0:0:0:
260,144,31836,2,0,B|222:144|199:116|199:116|129:116,1,140,2|2,0:0|0:0,0:0:0:0:
80,56,32545,6,0,L|116:192,1,140,2|10,0:0|0:0,0:0:0:0:
52,232,33254,2,0,P|116:208|180:232,1,140,2|10,0:0|0:0,0:0:0:0:
240,280,33963,1,8,0:0:0:0:
360,376,34436,6,0,B|380:320|380:320|392:304|392:304|412:244,1,140,2|10,0:0|0:0,0:0:0:0:
360,188,35145,1,0,0:0:0:0:
308,132,35381,2,0,L|332:64,2,70,2|10|8,0:0|0:0|0:0,0:0:0:0:
184,212,36326,6,0,P|116:212|76:156,1,140,2|10,0:0|0:0,0:0:0:0:
152,144,37035,2,0,L|12:108,2,140,2|10|2,0:0|0:0|0:0,0:0:0:0:
184,212,38217,5,6,0:0:0:0:
256,348,38690,1,10,0:0:0:0:
328,212,39162,1,2,0:0:0:0:
328,212,39399,1,2,0:0:0:0:
328,212,39635,1,8,0:0:0:0:
340,64,40108,6,0,B|288:56|256:7|256:7|224:56|172:64,2,210,2|2|8,0:0|0:0|0:0,0:0:0:0:
256,192,41998,1,2,0:0:0:0:
340,320,42471,6,0,B|288:328|256:377|256:377|224:328|172:320,2,210,10|2|2,0:0|0:0|0:0,0:0:0:0:
428,192,44362,1,10,0:0:0:0:
476,131,44598,2,0,P|505:192|476:253,2,140,2|10|2,0:0|0:0|0:0,0:0:0:0:
424,72,45780,5,4,0:0:0:0:
330,192,46252,2,0,B|294:220|294:264|294:264|294:321,1,140,2|2,0:0|0:0,0:0:0:0:
218,321,46961,2,0,B|218:264|218:264|218:220|182:192,1,140,2|2,0:0|0:0,0:0:0:0:
108,172,47670,6,0,P|172:172|216:116,1,140,2|2,0:0|0:0,0:0:0:0:
295,115,48379,2,0,P|336:170|404:172,2,140,2|2|2,0:0|0:0|0:0,0:0:0:0:
372,100,49561,5,2,0:0:0:0:
496,192,50034,1,2,0:0:0:0:
372,284,50506,1,2,0:0:0:0:
304,320,50743,2,0,B|240:288|240:288|168:288,1,140,2|2,0:0|0:0,0:0:0:0:
100,256,51452,6,0,P|76:192|100:128,1,140,2|2,0:0|0:0,0:0:0:0:
171,96,52161,2,0,B|240:96|240:96|304:64,2,140,2|2|2,0:0|0:0|0:0,0:0:0:0:
256,192,53342,12,0,57124,0:0:0:0:
