osu file format v13

[General]
AudioFilename: Noam - A WORLD WITHOUT DANGER.mp3
AudioLeadIn: 2000
PreviewTime: 14774
Countdown: 0
SampleSet: Soft
StackLeniency: 0.3
Mode: 0
LetterboxInBreaks: 0
WidescreenStoryboard: 0

[Editor]
DistanceSpacing: 1.1
BeatDivisor: 4
GridSize: 4
TimelineZoom: 1.2

[Metadata]
Title:A WORLD WITHOUT DANGER
TitleUnicode:A WORLD WITHOUT DANGER
Artist:Noam
ArtistUnicode:Noam
Creator:Gero
Version:Hard
Source:CODE LYOKO
Tags:Cartoon Network Subdigitals Debra Reynolds Franck Keller Moonscope Antefilms Opening (Main Title) Hebrew נועם קניאל Kaniel Un Monde Sans Danger Julien Lamassonne French Codigo Mundo Sin Peligro Spanish Aelita Schaeffer Jeremie Belpois Odd Della Robbia Yumi Ishiyama 石山 ゆみ Ulrich Stern William Dunbar William-XANA XANA TV Size
BeatmapID:622829
BeatmapSetID:251617

[Difficulty]
HPDrainRate:6
CircleSize:4
OverallDifficulty:6
ApproachRate:7
SliderMultiplier:1.6
SliderTickRate:2

[Events]
//Background and Video events
0,0,"BG.jpg",0,0
Video,0,"Video.avi"
//Break Periods
//Storyboard Layer 0 (Background)
//Storyboard Layer 1 (Fail)
//Storyboard Layer 2 (Pass)
//Storyboard Layer 3 (Foreground)
//Storyboard Sound Samples

[TimingPoints]
417,472.664250827162,4,2,1,40,1,0
7979,-100,4,2,1,30,0,0
8097,-100,4,2,1,50,0,0
13651,-100,4,2,1,30,0,0
13769,-100,4,2,1,50,0,0
15542,-100,4,2,1,70,0,1
30549,-100,4,2,1,70,0,0
30655,472.664250827162,4,2,1,70,1,1
45780,-100,4,2,1,70,0,0
46252,-100,4,2,1,50,0,0
53342,-100,4,2,1,70,0,0
53815,-100,4,2,1,60,0,0
54288,-100,4,2,1,50,0,0
54760,-100,4,2,1,40,0,0
55233,-100,4,2,1,30,0,0
55706,-100,4,2,1,20,0,0
56178,-100,4,2,1,15,0,0
56651,-100,4,2,1,10,0,0
57124,-100,4,2,2,5,0,0

[Colours]
Combo1 : 230,210,142
Combo2 : 101,164,167
Combo3 : 200,171,140
Combo4 : 236,139,125
Combo5 : 209,118,187
Combo6 : 124,124,124

[HitObjects]
84,384,417,6,0,P|62:308|84:232,1,160,2|2,0:0|0:0,0:0:0:0:
145,170,1125,1,0,0:0:0:0:
82,107,1362,2,0,B|42:107|42:107|14:79,2,80,2|0|2,0:0|0:0|0:0,0:0:0:0:
144,44,2071,2,0,B|216:44|216:44|228:36|228:36|308:36,1,160,2|2,0:0|0:0,0:0:0:0:
416,108,2780,6,0,B|344:108|344:108|332:116|332:116|252:116,1,160,2|2,0:0|0:0,0:0:0:0:
380,192,3489,2,0,L|464:192,1,80,0|2,0:0|0:0,0:0:0:0:
416,276,3961,2,0,B|344:276|344:276|332:268|332:268|258:268,1,160,2|2,0:0|0:0,0:0:0:0:
192,328,4670,5,2,0:0:0:0:
128,268,4907,1,0,0:0:0:0:
192,208,5143,2,0,B|200:169|200:169|192:130,1,80,2|0,0:0|0:0,0:0:0:0:
112,94,5616,2,0,B|104:133|104:133|112:172,1,80,2|0,0:0|0:0,0:0:0:0:
180,48,6088,6,0,L|16:48,1,160,2|2,0:0|0:0,0:0:0:0:
192,130,6797,2,0,B|231:130|231:130|270:158,1,80,0|2,0:0|0:0,0:0:0:0:
312,80,7270,2,0,L|380:132,1,80,0|2,0:0|0:0,0:0:0:0:
440,192,7743,1,0,0:0:0:0:
512,244,7979,6,0,B|488:284|444:284|444:284|404:284,2,120,6|2|2,0:0|0:0|0:0,0:0:0:0:
440,192,8924,2,0,B|432:153|432:153|440:114,1,80,2|0,0:0|0:0,0:0:0:0:
344,60,9397,2,0,B|352:99|352:99|344:138,1,80,2|0,0:0|0:0,0:0:0:0:
264,100,9870,6,0,L|140:100,2,120,2|2|2,0:0|0:0|0:0,0:0:0:0:
344,60,10815,2,0,B|376:84|376:84|416:84,1,80,2|0,0:0|0:0,0:0:0:0:
472,153,11288,2,0,P|480:192|472:231,1,80,2|0,0:0|0:0,0:0:0:0:
384,248,11760,6,0,P|365:191|383:135,2,120,2|2|2,0:0|0:0|0:0,0:0:0:0:
300,360,12706,2,0,P|307:321|299:282,1,80,2|0,0:0|0:0,0:0:0:0:
212,282,13178,2,0,P|204:321|212:360,1,80,2|0,0:0|0:0,0:0:0:0:
332,208,13651,6,2,B|256:184|256:184|180:208,2,160,6|2|2,0:0|0:0|0:0,0:0:0:0:
411,246,14833,2,0,P|418:207|412:168,1,80,8|8,0:0|0:0,0:0:0:0:
456,92,15305,1,0,0:0:0:0:
456,92,15424,1,0,0:0:0:0:
456,92,15542,6,0,B|412:68|364:92|364:92|296:92,1,160,4|10,0:0|0:0,0:0:0:0:
244,24,16251,2,0,L|288:180,1,160,2|2,0:0|0:0,0:0:0:0:
372,196,16960,1,10,0:0:0:0:
372,196,17196,6,0,P|296:196|248:260,1,160,2|2,0:0|0:0,0:0:0:0:
340,276,17905,1,10,0:0:0:0:
372,196,18141,2,0,L|348:108,1,80,2|0,0:0|0:0,0:0:0:0:
420,64,18614,2,0,L|432:16,2,40,10|0|10,0:0|0:0|0:0,0:0:0:0:
488,120,19087,6,0,B|488:168|516:192|516:192|488:216|488:264,1,160,2|2,0:0|0:0,0:0:0:0:
416,316,19796,1,10,0:0:0:0:
332,344,20032,2,0,P|256:365|180:344,1,160,2|2,0:0|0:0,0:0:0:0:
96,316,20741,1,10,0:0:0:0:
24,264,20977,6,0,B|24:216|-4:192|-4:192|24:168|24:120,2,160,2|2|2,0:0|0:0|0:0,0:0:0:0:
96,316,22159,2,0,B|136:316|136:316|172:344,1,80,0|10,0:0|0:0,0:0:0:0:
216,268,22632,1,10,0:0:0:0:
216,268,22868,6,0,B|216:204|296:204|296:136,1,160,2|2,0:0|0:0,0:0:0:0:
256,60,23577,1,10,0:0:0:0:
216,136,23813,2,0,B|216:204|296:204|296:268,1,160,2|2,0:0|0:0,0:0:0:0:
368,320,24522,1,10,0:0:0:0:
300,376,24759,6,0,B|232:376|232:376|208:368|208:368|140:368,1,160,2|2,0:0|0:0,0:0:0:0:
84,304,25468,1,10,0:0:0:0:
140,236,25704,2,0,P|162:160|140:84,1,160,2|8,0:0|0:0,0:0:0:0:
60,44,26413,2,0,P|52:82|59:121,1,80,10|2,0:0|0:0,0:0:0:0:
220,48,26886,6,0,L|380:48,1,160,2|8,0:0|0:0,0:0:0:0:
456,92,27595,2,0,B|424:136|376:136|376:136|312:136,1,160,2|2,0:0|0:0,0:0:0:0:
244,192,28304,1,10,0:0:0:0:
312,248,28540,6,0,B|376:248|376:248|424:248|456:292,2,160,2|2|2,0:0|0:0|0:0,0:0:0:0:
244,192,29722,1,0,0:0:0:0:
312,136,29958,2,0,B|320:97|320:97|312:58,1,80,8|10,0:0|0:0,0:0:0:0:
236,96,30431,1,0,0:0:0:0:
236,96,30549,1,0,0:0:0:0:
236,96,30655,6,0,L|412:96,1,160,4|10,0:0|0:0,0:0:0:0:
460,156,31363,1,0,0:0:0:0:
396,216,31600,2,0,P|356:216|316:240,1,80,2|2,0:0|0:0,0:0:0:0:
256,292,32072,1,8,0:0:0:0:
190,234,32309,6,0,P|155:215|116:216,2,80,2|2|0,0:0|0:0|0:0,0:0:0:0:
256,176,33018,1,10,0:0:0:0:
320,116,33254,2,0,B|280:112|256:73|256:73|232:112|192:116,2,160,2|10|2,0:0|0:0|0:0,0:0:0:0:
376,184,34436,6,0,P|412:116|376:48,1,160,2|10,0:0|0:0,0:0:0:0:
320,116,35145,2,0,P|284:184|320:252,1,160,2|10,0:0|0:0,0:0:0:0:
380,316,35854,1,8,0:0:0:0:
320,252,36090,6,0,B|240:252|240:252|184:308,1,160,2|0,0:0|0:0,0:0:0:0:
112,360,36799,1,10,0:0:0:0:
40,308,37035,2,0,B|16:228|64:228|40:148,2,160,2|10|2,0:0|0:0|0:0,0:0:0:0:
120,268,38217,6,0,L|284:268,1,160,6|10,0:0|0:0,0:0:0:0:
332,196,38926,2,0,P|256:196|216:124,1,160,2|2,0:0|0:0,0:0:0:0:
256,52,39635,1,8,0:0:0:0:
296,130,39871,6,0,P|256:195|180:196,1,160,2|0,0:0|0:0,0:0:0:0:
116,260,40580,1,10,0:0:0:0:
180,320,40817,2,0,B|256:344|256:344|332:320,2,160,2|10|2,0:0|0:0|0:0,0:0:0:0:
202,219,41998,6,0,P|256:170|310:219,1,160,2|10,0:0|0:0,0:0:0:0:
396,260,42707,1,0,0:0:0:0:
396,260,42826,1,0,0:0:0:0:
396,260,42944,2,0,B|404:221|404:221|396:182,1,80,2|2,0:0|0:0,0:0:0:0:
448,112,43416,1,8,0:0:0:0:
392,44,43653,6,0,P|320:44|320:120,1,160,2|0,0:0|0:0,0:0:0:0:
256,180,44362,1,10,0:0:0:0:
194,116,44598,2,0,P|192:44|120:44,2,160,2|10|2,0:0|0:0|0:0,0:0:0:0:
188,204,45780,6,0,B|220:236|256:244|256:244|292:236|324:204,2,160,4|2|2,0:0|0:0|0:0,0:0:0:0:
256,148,46961,2,0,L|256:320,1,160,2|2,0:0|0:0,0:0:0:0:
180,352,47670,6,0,B|252:352|252:352|268:344|268:344|348:344,1,160,2|2,0:0|0:0,0:0:0:0:
224,264,48379,2,0,B|152:264|152:264|136:272|136:272|56:272,1,160,2|2,0:0|0:0,0:0:0:0:
28,192,49088,2,0,L|112:192,1,80,0|2,0:0|0:0,0:0:0:0:
224,120,49561,6,0,B|152:120|152:120|136:112|136:112|56:112,1,160,2|2,0:0|0:0,0:0:0:0:
28,192,50270,1,0,0:0:0:0:
65,272,50506,2,0,B|104:272|104:272|140:296,1,80,2|2,0:0|0:0,0:0:0:0:
220,328,50979,2,0,B|256:345|256:345|292:328,1,80,0|2,0:0|0:0,0:0:0:0:
360,272,51452,6,0,P|304:216|304:140,1,160,2|2,0:0|0:0,0:0:0:0:
207,139,52161,2,0,P|207:217|152:272,2,160,2|2|2,0:0|0:0|0:0,0:0:0:0:
256,192,53342,12,0,57124,0:0:0:0:
