osu file format v13

[General]
AudioFilename: Noam - A WORLD WITHOUT DANGER.mp3
AudioLeadIn: 2000
PreviewTime: 14774
Countdown: 0
SampleSet: Soft
StackLeniency: 0.3
Mode: 0
LetterboxInBreaks: 0
WidescreenStoryboard: 0

[Editor]
DistanceSpacing: 1
BeatDivisor: 4
GridSize: 4
TimelineZoom: 1.2

[Metadata]
Title:A WORLD WITHOUT DANGER
TitleUnicode:A WORLD WITHOUT DANGER
Artist:Noam
ArtistUnicode:Noam
Creator:Gero
Version:Digital
Source:CODE LYOKO
Tags:Cartoon Network Subdigitals Debra Reynolds Franck Keller Moonscope Antefilms Opening (Main Title) Hebrew נועם קניאל Kaniel Un Monde Sans Danger Julien Lamassonne French Codigo Mundo Sin Peligro Spanish Aelita Schaeffer Jeremie Belpois Odd Della Robbia Yumi Ishiyama 石山 ゆみ Ulrich Stern William Dunbar William-XANA XANA TV Size
BeatmapID:577885
BeatmapSetID:251617

[Difficulty]
HPDrainRate:7
CircleSize:4
OverallDifficulty:7
ApproachRate:7.8
SliderMultiplier:2
SliderTickRate:2

[Events]
//Background and Video events
0,0,"BG.jpg",0,0
Video,0,"Video.avi"
//Break Periods
//Storyboard Layer 0 (Background)
//Storyboard Layer 1 (Fail)
//Storyboard Layer 2 (Pass)
//Storyboard Layer 3 (Foreground)
//Storyboard Sound Samples

[TimingPoints]
417,472.664250827162,4,2,1,40,1,0
7979,-100,4,2,1,30,0,0
8097,-100,4,2,1,50,0,0
13651,-100,4,2,1,30,0,0
13769,-100,4,2,1,50,0,0
15542,-100,4,2,1,70,0,1
30549,-100,4,2,1,70,0,0
30655,472.664250827162,4,2,1,70,1,1
45780,-100,4,2,1,70,0,0
46252,-100,4,2,1,50,0,0
53342,-100,4,2,1,70,0,0
53815,-100,4,2,1,60,0,0
54288,-100,4,2,1,50,0,0
54760,-100,4,2,1,40,0,0
55233,-100,4,2,1,30,0,0
55706,-100,4,2,1,20,0,0
56178,-100,4,2,1,15,0,0
56651,-100,4,2,1,10,0,0
57124,-100,4,2,2,5,0,0

[Colours]
Combo1 : 230,210,142
Combo2 : 101,164,167
Combo3 : 200,171,140
Combo4 : 236,139,125
Combo5 : 209,118,187
Combo6 : 124,124,124

[HitObjects]
64,276,417,5,2,0:0:0:0:
8,192,653,1,0,0:0:0:0:
64,108,889,2,0,P|104:84|156:84,1,100,2|0,0:0|0:0,0:0:0:0:
156,299,1362,2,0,P|106:300|64:276,1,100,2|0,0:0|0:0,0:0:0:0:
116,192,1834,2,0,B|219:192,1,100,2|0,0:0|0:0,0:0:0:0:
308,148,2307,5,2,0:0:0:0:
396,100,2543,2,0,P|408:52|396:4,1,100,0|2,0:0|0:0,0:0:0:0:
308,52,3016,2,0,P|296:100|308:148,1,100,0|2,0:0|0:0,0:0:0:0:
396,196,3489,2,0,P|408:148|396:100,2,100,0|2|0,0:0|0:0|0:0,0:0:0:0:
464,268,4198,5,2,0:0:0:0:
396,340,4434,2,0,B|348:355|348:355|300:340,1,100,0|2,0:0|0:0,0:0:0:0:
108,292,4907,2,0,B|156:277|156:277|204:292,1,100,0|2,0:0|0:0,0:0:0:0:
156,380,5379,1,0,0:0:0:0:
108,292,5616,2,0,L|148:200,1,100,2|0,0:0|0:0,0:0:0:0:
100,112,6088,5,2,0:0:0:0:
28,44,6325,2,0,P|72:16|120:16,1,100,0|2,0:0|0:0,0:0:0:0:
172,180,6797,2,0,P|128:208|80:208,1,100,0|2,0:0|0:0,0:0:0:0:
100,112,7270,2,0,L|203:78,1,100,0|2,0:0|0:0,0:0:0:0:
292,52,7743,1,0,0:0:0:0:
292,52,7861,1,0,0:0:0:0:
292,52,7979,6,0,B|360:52|360:52|400:52|436:92,1,150,6|0,0:0|0:0,0:0:0:0:
431,87,8452,2,0,L|476:-4,1,100,2|0,0:0|0:0,0:0:0:0:
356,148,8924,2,0,L|400:237,1,100,2|0,0:0|0:0,0:0:0:0:
472,308,9397,1,2,0:0:0:0:
396,376,9633,1,0,0:0:0:0:
324,308,9870,6,0,B|256:308|256:308|216:308|176:344,1,150,2|0,0:0|0:0,0:0:0:0:
182,338,10343,2,0,B|196:290|196:290|182:242,1,100,2|0,0:0|0:0,0:0:0:0:
94,193,10815,2,0,B|80:241|80:241|94:289,2,100,2|0|2,0:0|0:0|0:0,0:0:0:0:
148,109,11524,1,0,0:0:0:0:
200,23,11760,6,0,B|236:39|256:71|256:71|276:39|312:23,1,150,2|0,0:0|0:0,0:0:0:0:
312,23,12233,2,0,L|363:108,1,100,2|0,0:0|0:0,0:0:0:0:
256,256,12706,2,0,L|256:156,1,100,2|0,0:0|0:0,0:0:0:0:
200,23,13178,2,0,L|149:108,1,100,2|0,0:0|0:0,0:0:0:0:
164,228,13651,6,2,B|212:224|256:260|256:260|300:224|348:228,2,200,6|2|2,0:0|0:0|0:0,0:0:0:0:
93,298,14833,1,8,0:0:0:0:
22,227,15069,1,8,0:0:0:0:
92,156,15305,1,0,0:0:0:0:
92,156,15424,1,0,0:0:0:0:
92,156,15542,6,0,B|132:156|132:156|140:160|140:160|140:152|140:152|148:156|148:156|192:156,1,100,4|2,0:0|0:0,0:0:0:0:
256,92,16014,1,10,0:0:0:0:
330,156,16251,2,0,B|330:208|363:248|363:248|330:288|330:340,1,200,2|2,0:0|0:0,0:0:0:0:
256,248,16960,5,10,0:0:0:0:
448,196,17196,1,2,0:0:0:0:
448,196,17314,1,0,0:0:0:0:
448,196,17432,2,0,P|460:244|448:292,2,100,2|2|10,0:0|0:0|0:0,0:0:0:0:
508,116,18141,2,0,B|452:80|392:112|392:112|312:112,1,200,2|10,0:0|0:0,0:0:0:0:
256,32,18850,5,10,0:0:0:0:
196,112,19087,1,2,0:0:0:0:
196,112,19205,1,0,0:0:0:0:
196,112,19323,2,0,P|144:112|100:132,1,100,4|2,0:0|0:0,0:0:0:0:
48,216,19796,1,10,0:0:0:0:
8,308,20032,2,0,B|93:343|93:343|108:339|108:339|197:373,1,200,2|2,0:0|0:0,0:0:0:0:
256,292,20741,5,10,0:0:0:0:
316,212,20977,1,2,0:0:0:0:
316,212,21096,1,0,0:0:0:0:
316,212,21214,1,0,0:0:0:0:
256,132,21450,2,0,B|242:84|242:84|256:36,1,100,2|8,0:0|0:0,0:0:0:0:
344,84,21923,2,0,L|140:84,1,200,2|10,0:0|0:0,0:0:0:0:
52,128,22632,5,10,0:0:0:0:
24,224,22868,1,2,0:0:0:0:
24,224,22986,1,0,0:0:0:0:
24,224,23104,2,0,B|24:272|24:272|0:320,1,100,4|2,0:0|0:0,0:0:0:0:
80,380,23577,1,10,0:0:0:0:
172,340,23813,2,0,B|224:336|256:292|256:292|288:336|340:340,1,200,2|2,0:0|0:0,0:0:0:0:
432,380,24522,5,10,0:0:0:0:
511,318,24759,1,2,0:0:0:0:
511,318,24877,1,0,0:0:0:0:
511,318,24995,2,0,B|488:272|488:272|488:224,1,100,0|2,0:0|0:0,0:0:0:0:
424,144,25468,1,10,0:0:0:0:
344,84,25704,2,0,B|256:84|256:84|196:84|156:128,1,200,2|8,0:0|0:0,0:0:0:0:
80,192,26413,5,10,0:0:0:0:
156,256,26649,1,2,0:0:0:0:
156,256,26768,1,0,0:0:0:0:
156,256,26886,2,0,B|232:256|232:256|284:308,1,150,2|0,0:0|0:0,0:0:0:0:
284,308,27358,2,0,L|384:308,1,100,8|2,0:0|0:0,0:0:0:0:
192,344,27831,2,0,L|92:344,1,100,2|2,0:0|0:0,0:0:0:0:
20,272,28304,5,10,0:0:0:0:
80,192,28540,2,0,P|152:192|192:84,1,200,2|2,0:0|0:0,0:0:0:0:
256,8,29249,1,8,0:0:0:0:
319,85,29485,2,0,P|339:177|432:192,1,200,2|8,0:0|0:0,0:0:0:0:
492,272,30194,1,10,0:0:0:0:
420,343,30431,1,0,0:0:0:0:
420,343,30549,1,0,0:0:0:0:
420,343,30655,6,0,B|384:360|348:348|348:348|348:352|348:352|316:340|276:348,1,150,4|0,0:0|0:0,0:0:0:0:
277,347,31127,2,0,P|308:304|308:256,1,100,10|0,0:0|0:0,0:0:0:0:
176,183,31600,2,0,P|178:232|208:272,2,100,2|2|8,0:0|0:0|0:0,0:0:0:0:
256,120,32309,5,2,0:0:0:0:
256,120,32427,1,0,0:0:0:0:
256,120,32545,2,0,B|312:76|312:76|320:76|320:76|376:32,1,150,2|0,0:0|0:0,0:0:0:0:
375,32,33018,1,10,0:0:0:0:
428,116,33254,2,0,B|448:172|489:192|489:192|448:212|428:268,1,200,2|10,0:0|0:0,0:0:0:0:
375,352,33963,1,8,0:0:0:0:
320,268,34199,1,2,0:0:0:0:
320,268,34318,1,0,0:0:0:0:
320,268,34436,2,0,P|256:268|256:196,1,150
255,196,34908,6,0,B|207:196|207:196|163:230,1,100,10|0,0:0|0:0,0:0:0:0:
96,300,35381,1,2,0:0:0:0:
24,228,35617,2,0,P|12:180|24:132,1,100,10|8,0:0|0:0,0:0:0:0:
96,64,36090,5,2,0:0:0:0:
96,64,36208,1,0,0:0:0:0:
96,64,36326,2,0,B|188:64|188:64|204:56|204:56|304:56,1,200,0|10,0:0|0:0,0:0:0:0:
384,12,37035,2,0,L|256:165,1,200,2|10,0:0|0:0,0:0:0:0:
200,248,37744,1,8,0:0:0:0:
256,332,37981,5,2,0:0:0:0:
256,332,38099,1,0,0:0:0:0:
256,332,38217,2,0,B|324:332|324:332|364:332|400:364,1,150,6|0,0:0|0:0,0:0:0:0:
398,362,38690,1,10,0:0:0:0:
468,291,38926,1,0,0:0:0:0:
397,220,39162,1,2,0:0:0:0:
397,220,39281,1,0,0:0:0:0:
397,220,39399,2,0,B|383:172|383:172|397:124,1,100,2|8,0:0|0:0,0:0:0:0:
464,52,39871,5,2,0:0:0:0:
464,52,39990,1,0,0:0:0:0:
464,52,40108,2,0,P|396:24|328:52,1,150,2|0,0:0|0:0,0:0:0:0:
329,51,40580,2,0,L|229:20,1,100,10|2,0:0|0:0,0:0:0:0:
145,138,41053,2,0,L|244:120,2,100,0|10|8,0:0|0:0|0:0,0:0:0:0:
80,216,41762,1,2,0:0:0:0:
80,216,41880,1,0,0:0:0:0:
80,216,41998,2,0,P|53:284|80:352,1,150,2|0,0:0|0:0,0:0:0:0:
80,352,42471,6,0,B|128:352|128:352|176:376,1,100,10|0,0:0|0:0,0:0:0:0:
256,316,42944,1,2,0:0:0:0:
337,375,43180,2,0,B|384:352|384:352|432:352,1,100,2|8,0:0|0:0,0:0:0:0:
344,252,43653,5,2,0:0:0:0:
344,252,43771,1,0,0:0:0:0:
344,252,43889,2,0,P|252:248|208:160,1,200,2|10,0:0|0:0,0:0:0:0:
303,159,44598,2,0,P|263:245|168:252,1,200,2|10,0:0|0:0,0:0:0:0:
88,192,45307,1,8,0:0:0:0:
40,104,45543,1,2,0:0:0:0:
40,104,45662,1,0,0:0:0:0:
40,104,45780,6,0,B|88:80|136:104|136:104|188:104,1,150,4|0,0:0|0:0,0:0:0:0:
186,104,46252,2,0,B|162:148|162:148|186:192,1,100,2|0,0:0|0:0,0:0:0:0:
326,192,46725,2,0,B|350:148|350:148|326:104,2,100,2|2|0,0:0|0:0|0:0,0:0:0:0:
256,264,47434,1,2,0:0:0:0:
188,340,47670,6,0,P|256:367|324:340,1,150,2|0,0:0|0:0,0:0:0:0:
324,339,48143,1,2,0:0:0:0:
416,304,48379,2,0,B|436:212|436:212|444:200|444:200|464:108,1,200,2|2,0:0|0:0,0:0:0:0:
400,32,49088,2,0,B|352:19|352:19|304:32,1,100,0|2,0:0|0:0,0:0:0:0:
184,136,49561,6,0,B|256:156|256:156|328:136,1,150,2|0,0:0|0:0,0:0:0:0:
328,135,50034,1,2,0:0:0:0:
208,32,50270,2,0,B|160:19|160:19|112:32,1,100,0|2,0:0|0:0,0:0:0:0:
48,110,50743,2,0,B|68:200|68:200|76:212|76:212|96:304,1,200,2|2,0:0|0:0,0:0:0:0:
164,376,51452,6,0,B|216:380|256:344|256:344|296:380|348:376,1,200,2|2,0:0|0:0,0:0:0:0:
332,276,52161,2,0,P|304:236|304:184,1,100,2|0,0:0|0:0,0:0:0:0:
180,276,52633,2,0,P|208:236|208:184,1,100,2|0,0:0|0:0,0:0:0:0:
256,96,53106,1,2,0:0:0:0:
256,96,53224,1,0,0:0:0:0:
256,96,53342,1,0,0:0:0:0:
256,192,53461,12,0,57124,0:0:0:0:
