osu file format v14

[General]
AudioFilename: Tensou Sentai Goseiger.mp3
AudioLeadIn: -1500
PreviewTime: 40393
Countdown: 0
SampleSet: Normal
StackLeniency: 0.7
Mode: 0
LetterboxInBreaks: 0
WidescreenStoryboard: 0

[Editor]
DistanceSpacing: 1
BeatDivisor: 4
GridSize: 4
TimelineZoom: 1

[Metadata]
Title:Tensou Sentai Goseiger
TitleUnicode:天装戦隊ゴセイジャー
Artist:NoB
ArtistUnicode:NoB
Creator:DakeDekaane
Version:Insane
Source:天装戦隊ゴセイジャー
Tags:山田信夫 Nobuo Yamada Super Sentai Series Tokusatsu Opening Toei
BeatmapID:382602
BeatmapSetID:154305

[Difficulty]
HPDrainRate:7
CircleSize:5
OverallDifficulty:8
ApproachRate:8
SliderMultiplier:1.7
SliderTickRate:2

[Events]
//Background and Video events
0,0,"GoseigerBG.jpg",0,0
Video,-1498,"GoseigerOP.avi"
//Break Periods
//Storyboard Layer 0 (Background)
//Storyboard Layer 1 (Fail)
//Storyboard Layer 2 (Pass)
//Storyboard Layer 3 (Foreground)
//Storyboard Sound Samples

[TimingPoints]
366,326.086956521739,4,1,0,70,1,0
14713,-100,4,1,0,55,0,0
23844,-100,4,1,0,65,0,0
35583,-100,4,1,0,60,0,0
38192,-100,4,1,0,65,0,0
48626,-100,4,1,0,70,0,1
79931,-100,4,1,0,50,0,0

[Colours]
Combo1 : 131,131,131
Combo2 : 255,45,0
Combo3 : 45,0,255
Combo4 : 224,224,0
Combo5 : 255,45,255

[HitObjects]
112,160,4279,5,4,0:0:0:0:
360,100,4768,1,0,0:0:0:0:
277,73,4931,1,0,3:0:0:0:
295,157,5094,1,0,0:0:0:0:
374,307,5420,1,2,0:2:0:0:
472,169,5746,1,4,0:2:0:0:
472,169,5909,1,2,0:3:0:0:
112,224,6887,5,4,0:0:0:0:
359,284,7376,1,0,0:0:0:0:
277,310,7539,1,0,3:0:0:0:
295,226,7702,1,0,0:0:0:0:
374,77,8029,1,2,0:2:0:0:
472,215,8355,1,4,0:2:0:0:
472,215,8518,1,2,0:3:0:0:
112,160,9496,5,4,0:0:0:0:
359,100,9985,1,0,0:0:0:0:
277,73,10148,1,0,3:0:0:0:
295,157,10311,1,0,0:0:0:0:
472,169,10637,1,8,0:0:0:0:
304,199,10963,1,2,0:2:0:0:
269,32,11289,1,8,0:0:0:0:
437,2,11615,1,2,0:2:0:0:
467,172,11942,2,2,B|486:204|467:276|413:270|309:230|309:230|256:272|256:272|202:230|202:230|98:270|45:277|25:204|43:172,1,595,4|0,0:0|0:0,0:0:0:0:
201,46,13409,6,0,L|285:38,1,85,6|0,0:0|0:0,0:0:0:0:
349,95,13735,1,0,0:0:0:0:
413,150,13898,2,0,P|429:71|369:12,1,170,2|2,0:0|0:0,0:0:0:0:
423,327,14713,5,0,0:3:0:0:
471,237,14876,2,0,L|499:271,2,42.5,0|0|6,0:0|0:0|0:0,0:0:0:0:
347,76,15365,5,2,3:2:0:0:
298,147,15529,2,0,L|128:157,1,170,0|2,3:0|3:2,0:0:0:0:
113,240,16018,2,0,L|282:229,1,170,0|0,0:0|3:0,0:0:0:0:
414,122,16670,1,2,3:2:0:0:
448,289,16996,1,0,0:0:0:0:
351,319,17159,1,0,0:0:0:0:
321,221,17322,5,0,0:0:0:0:
418,191,17485,2,0,L|457:205,2,42.5,0|0|6,0:0|0:0|0:0,0:0:0:0:
173,80,17974,5,2,3:2:0:0:
256,86,18137,2,0,P|213:155|132:155,1,170,0|2,3:0|3:2,0:0:0:0:
54,119,18626,2,0,L|64:288,1,170,0|0,0:0|3:0,0:0:0:0:
232,308,19279,1,2,3:2:0:0:
381,228,19605,1,0,0:0:0:0:
381,228,19931,2,0,B|336:200|336:152|368:120|368:120|400:88|400:40|355:10,2,255,2|2|0,0:2|0:2|0:0,0:0:0:0:
120,352,22213,5,0,3:0:0:0:
120,352,22376,2,0,P|138:255|186:341,1,255,2|0,3:2|3:0,0:0:0:0:
392,352,23192,2,0,P|373:255|325:341,1,255,0|4,0:0|0:0,0:0:0:0:
256,192,24007,5,2,0:2:0:0:
180,152,24170,1,2,0:0:0:0:
256,108,24333,1,0,0:0:0:0:
256,276,24496,1,2,0:0:0:0:
184,236,24659,1,0,0:0:0:0:
328,152,24822,1,2,0:0:0:0:
328,236,24985,1,0,0:0:0:0:
180,152,25148,2,0,L|108:107,2,85,4|0|2,0:0|3:0|0:3,0:0:0:0:
338,20,25800,5,2,0:2:0:0:
420,42,25963,1,0,0:2:0:0:
424,125,26126,1,8,0:0:0:0:
344,157,26289,2,0,P|405:210|483:187,1,170,2|0,0:2|0:0,0:0:0:0:
504,93,26779,2,0,P|442:39|364:62,1,170,8|0,0:0|0:0,0:0:0:0:
298,115,27268,1,0,0:0:0:0:
214,115,27431,1,8,0:0:0:0:
147,61,27594,2,0,P|69:39|8:93,1,170,2|0,0:2|0:0,0:0:0:0:
88,125,28083,1,8,0:0:0:0:
174,364,28409,5,2,0:2:0:0:
92,342,28572,1,0,0:0:0:0:
88,259,28735,1,8,0:0:0:0:
168,227,28898,2,0,P|107:174|29:197,1,170,2|0,0:2|0:0,0:0:0:0:
8,291,29387,2,0,P|70:345|148:322,2,170,8|0|8,0:0|0:0|0:0,0:0:0:0:
45,122,30365,2,0,P|133:52|185:152,2,255,6|2|8,0:2|0:2|0:0,0:0:0:0:
173,236,31670,5,0,0:0:0:0:
245,280,31833,2,0,L|330:273,1,85,2|0,0:0|0:0,0:0:0:0:
332,187,32159,2,0,L|248:195,2,85,0|2|0,0:0|0:0|0:0,0:0:0:0:
417,172,32648,5,8,0:0:0:0:
417,172,32811,2,0,P|445:96|397:30,1,170,2|0,0:2|0:0,0:0:0:0:
327,78,33300,1,8,0:0:0:0:
256,32,33463,1,0,0:0:0:0:
185,78,33626,1,4,0:0:0:0:
114,30,33789,1,0,0:0:0:0:
114,30,34115,6,0,P|66:98|95:173,1,170,4|0,0:0|0:0,0:0:0:0:
178,191,34605,1,8,0:0:0:0:
235,127,34768,1,0,0:0:0:0:
151,108,34931,1,2,0:2:0:0:
178,191,35094,2,0,P|257:210|315:153,1,170,0|0,0:0|0:0,0:0:0:0:
304,68,35583,5,4,0:0:0:0:
401,162,35746,1,0,0:0:0:0:
401,162,36235,5,2,0:3:0:0:
430,241,36398,1,0,0:0:0:0:
430,241,36561,1,0,0:0:0:0:
367,298,36724,2,0,L|198:308,1,170,2|0,0:2|0:0,0:0:0:0:
113,314,37213,1,2,0:2:0:0:
36,161,37539,1,8,0:3:0:0:
36,161,37702,1,0,0:0:0:0:
90,96,37865,2,0,L|174:91,1,85,0|0,0:0|0:0,0:0:0:0:
289,165,38192,6,0,L|120:175,1,170,4|0,0:2|0:0,0:0:0:0:
67,241,38681,1,2,0:0:0:0:
67,241,38844,1,2,0:3:0:0:
98,319,39007,1,0,0:0:0:0:
266,245,39333,2,0,B|336:276|397:234|428:162|393:90|325:69|273:89|273:89|239:50|250:7,1,425,4|0,0:0|0:0,0:0:0:0:
305,169,40474,5,2,0:3:0:0:
300,169,40556,1,0,0:0:0:0:
295,169,40637,1,0,0:0:0:0:
290,169,40719,1,0,0:0:0:0:
285,169,40800,2,0,P|206:190|190:269,1,170,6|8,0:2|0:0,0:0:0:0:
265,308,41289,2,0,L|96:310,1,170,0|0,0:0|0:0,0:0:0:0:
24,262,41779,1,8,0:0:0:0:
20,177,41942,1,0,0:0:0:0:
96,215,42105,6,0,P|174:193|190:114,1,170,6|8,0:2|0:0,0:0:0:0:
116,76,42594,2,0,L|285:74,1,170,0|0,0:0|0:0,0:0:0:0:
355,122,43083,1,8,0:0:0:0:
382,202,43246,1,0,0:0:0:0:
404,282,43409,2,0,B|339:294|290:244|298:183|298:183|261:232|194:236|154:182,1,340,4|0,0:0|0:0,0:0:0:0:
60,24,44387,5,8,0:0:0:0:
65,66,44469,1,0,0:0:0:0:
70,108,44550,1,0,0:0:0:0:
80,209,44713,1,2,0:0:0:0:
14,287,44876,1,0,0:0:0:0:
14,287,45039,1,0,0:0:0:0:
97,346,45202,2,0,B|152:384|216:336|216:336|280:288|333:324,1,255,2|8,0:0|0:0,0:0:0:0:
147,268,46018,5,4,0:0:0:0:
185,146,46181,1,0,0:0:0:0:
365,268,46507,1,4,0:0:0:0:
327,146,46670,1,0,0:0:0:0:
92,183,46996,5,4,0:0:0:0:
130,61,47159,1,0,0:0:0:0:
420,183,47485,1,4,0:0:0:0:
382,61,47648,1,0,0:0:0:0:
328,320,47974,5,0,0:0:0:0:
185,64,48300,1,0,0:0:0:0:
28,308,48626,5,4,0:0:0:0:
256,192,48952,1,12,0:0:0:0:
484,308,49279,1,0,0:0:0:0:
432,376,49442,1,0,0:0:0:0:
348,368,49605,1,8,0:0:0:0:
316,288,49768,2,0,P|252:239|172:270,1,170,0|0,0:0|0:0,0:0:0:0:
98,304,50257,2,0,P|163:353|240:324,2,170,8|0|8,0:0|0:0|0:0,0:0:0:0:
28,76,51235,5,4,0:0:0:0:
256,192,51561,1,12,0:0:0:0:
484,76,51888,1,0,0:0:0:0:
432,8,52051,1,0,0:0:0:0:
348,16,52214,1,8,0:0:0:0:
316,96,52377,2,0,P|252:144|172:113,1,170,0|0,0:0|0:0,0:0:0:0:
98,79,52866,2,0,P|163:30|240:60,2,170,8|0|8,0:0|0:0|0:0,0:0:0:0:
256,300,53844,5,4,0:0:0:0:
444,130,54170,1,14,0:0:0:0:
338,320,54496,2,0,P|318:241|241:214,1,170,0|8,0:0|0:0,0:0:0:0:
162,246,54985,2,0,P|84:219|65:139,1,170,0|0,0:0|0:0,0:0:0:0:
88,58,55474,2,0,L|256:30,1,170,8|0,0:0|0:0,0:0:0:0:
340,44,55963,1,2,0:2:0:0:
423,58,56126,1,8,0:0:0:0:
425,321,56452,5,4,0:0:0:0:
425,321,56615,1,0,0:0:0:0:
363,238,56779,2,0,P|291:195|206:215,1,170,8|4,0:0|0:0,0:0:0:0:
238,318,57268,1,0,0:0:0:0:
348,318,57431,2,0,L|381:151,1,170,8|4,0:0|0:0,0:0:0:0:
336,40,57920,1,0,0:0:0:0:
336,40,58083,1,8,0:0:0:0:
255,128,58246,2,0,P|173:144|101:102,1,170,12|0,0:0|0:0,0:0:0:0:
192,28,58735,1,12,0:0:0:0:
192,28,58817,1,0,0:0:0:0:
192,28,58898,1,0,0:0:0:0:
316,104,59061,5,4,0:0:0:0:
256,352,59387,1,12,0:0:0:0:
504,292,59713,1,0,0:0:0:0:
423,267,59876,1,0,0:0:0:0:
341,242,60039,1,8,0:0:0:0:
259,217,60202,2,0,P|184:250|108:218,1,170
137,137,60692,2,0,P|56:148|22:222,2,170,8|0|8,0:0|0:0|0:0,0:0:0:0:
316,280,61670,5,4,0:0:0:0:
256,32,61996,1,12,0:0:0:0:
504,92,62322,1,0,0:0:0:0:
423,117,62485,1,0,0:0:0:0:
341,142,62648,1,8,0:0:0:0:
259,167,62811,2,0,P|184:134|108:166,1,170,0|0,0:0|0:0,0:0:0:0:
137,247,63301,2,0,P|56:236|22:162,2,170,8|0|8,0:0|0:0|0:0,0:0:0:0:
368,107,64279,5,4,0:0:0:0:
364,360,64605,1,14,0:0:0:0:
453,122,64931,2,0,P|429:44|351:19,1,170,0|8,0:0|0:0,0:0:0:0:
283,90,65420,2,0,P|306:168|384:192,1,170,2|0,0:2|0:0,0:0:0:0:
439,272,65909,2,0,P|480:199|452:122,1,170,8|0,0:0|0:0,0:0:0:0:
368,107,66398,1,2,0:2:0:0:
283,90,66561,1,8,0:0:0:0:
122,241,66887,5,4,0:0:0:0:
122,241,67050,1,0,0:0:0:0:
46,202,67213,2,0,L|32:32,1,170,8|4,0:0|0:0,0:0:0:0:
139,84,67702,1,0,0:0:0:0:
245,134,67865,2,0,L|259:303,1,170,8|4,0:0|0:0,0:0:0:0:
368,353,68355,1,0,0:0:0:0:
368,353,68518,1,8,0:0:0:0:
468,288,68681,2,0,L|453:118,1,170,12|0,0:0|0:0,0:0:0:0:
341,40,69170,1,12,0:0:0:0:
256,145,69333,1,0,0:0:0:0:
214,135,69414,1,0,0:0:0:0:
172,125,69496,1,4,0:0:0:0:
60,295,69822,6,0,L|32:128,1,170,8|0,0:0|0:0,0:0:0:0:
33,43,70311,1,0,0:0:0:0:
113,16,70474,1,8,0:0:0:0:
112,100,70637,2,2,B|140:176|236:176|280:104|280:104|324:32|420:32|448:108,1,425,2|4,0:2|0:0,0:0:0:0:
429,192,71615,5,0,0:0:0:0:
367,134,71779,1,8,0:0:0:0:
348,218,71942,1,0,0:0:0:0:
410,275,72105,2,0,P|332:299|269:247,1,170,2|8,0:0|0:0,0:0:0:0:
256,80,72757,1,0,0:0:0:0:
189,27,72920,1,2,0:2:0:0:
104,27,73083,1,8,0:0:0:0:
36,80,73246,2,2,B|4:136|52:204|112:196|112:196|172:188|220:256|192:310,1,340,2|4,0:2|0:0,0:0:0:0:
352,364,74224,1,0,0:0:0:0:
395,291,74387,1,2,0:2:0:0:
360,90,74713,5,4,0:0:0:0:
256,129,74876,1,0,0:0:0:0:
152,90,75039,1,8,0:0:0:0:
158,328,75365,1,4,0:0:0:0:
201,225,75529,1,0,0:0:0:0:
311,225,75692,1,8,0:0:0:0:
354,328,75855,1,2,0:0:0:0:
360,90,76344,1,2,0:2:0:0:
152,90,76670,1,2,0:2:0:0:
256,192,77322,12,4,79768,0:0:0:0:
