osu file format v14

[General]
AudioFilename: Tensou Sentai Goseiger.mp3
AudioLeadIn: 0
PreviewTime: 40393
Countdown: 0
SampleSet: Normal
StackLeniency: 0.7
Mode: 1
LetterboxInBreaks: 0
WidescreenStoryboard: 0

[Editor]
DistanceSpacing: 1.2
BeatDivisor: 2
GridSize: 32
TimelineZoom: 1

[Metadata]
Title:Tensou Sentai Goseiger
TitleUnicode:天装戦隊ゴセイジャー
Artist:NoB
ArtistUnicode:NoB
Creator:DakeDekaane
Version:Futsuu
Source:天装戦隊ゴセイジャー
Tags:山田信夫 Nobuo Yamada Super Sentai Series Tokusatsu Opening Toei
BeatmapID:378960
BeatmapSetID:154305

[Difficulty]
HPDrainRate:4
CircleSize:5
OverallDifficulty:4
ApproachRate:5
SliderMultiplier:1.4
SliderTickRate:1

[Events]
//Background and Video events
0,0,"GoseigerBG.jpg",0,110
//Break Periods
//Storyboard Layer 0 (Background)
//Storyboard Layer 1 (Fail)
//Storyboard Layer 2 (Pass)
//Storyboard Layer 3 (Foreground)
//Storyboard Sound Samples

[TimingPoints]
366,326.086956521739,4,1,0,100,1,0
48626,-100,4,1,0,100,0,1
79931,-100,4,1,0,100,0,0

[Colours]
Combo1 : 255,255,0
Combo2 : 255,255,0

[HitObjects]
256,192,4279,5,0,0:0:0:0:
256,192,4931,1,0,0:0:0:0:
256,192,5420,1,0,0:0:0:0:
256,192,5746,1,0,0:0:0:0:
256,192,5909,1,0,0:0:0:0:
256,192,6887,1,8,0:0:0:0:
256,192,7539,1,8,0:0:0:0:
256,192,8029,1,8,0:0:0:0:
256,192,8355,1,8,0:0:0:0:
256,192,8518,1,8,0:0:0:0:
256,192,9496,1,4,0:0:0:0:
256,192,10148,1,4,0:0:0:0:
256,192,10637,1,4,0:0:0:0:
256,192,10963,1,4,0:0:0:0:
256,192,11289,1,4,0:0:0:0:
256,192,11615,1,4,0:0:0:0:
256,192,11942,8,0,13409,0:0:0:0:
256,192,14713,5,0,0:0:0:0:
256,192,15039,1,8,0:0:0:0:
256,192,17322,1,0,0:0:0:0:
256,192,17648,1,8,0:0:0:0:
256,192,19931,1,0,0:0:0:0:
256,192,20420,1,0,0:0:0:0:
256,192,20909,1,0,0:0:0:0:
256,192,22213,1,0,0:0:0:0:
256,192,22539,1,0,0:0:0:0:
256,192,23192,1,0,0:0:0:0:
256,192,23681,2,0,B|512:192|512:192|512:96,1,350
256,192,25148,1,0,0:0:0:0:
256,192,25474,1,8,0:0:0:0:
256,192,26126,1,8,0:0:0:0:
256,192,26779,1,8,0:0:0:0:
256,192,27105,1,0,0:0:0:0:
256,192,27268,1,0,0:0:0:0:
256,192,27431,1,8,0:0:0:0:
256,192,27757,1,0,0:0:0:0:
256,192,28083,1,8,0:0:0:0:
256,192,28735,1,8,0:0:0:0:
256,192,29387,1,8,0:0:0:0:
256,192,29713,1,0,0:0:0:0:
256,192,29876,1,0,0:0:0:0:
256,192,30039,1,8,0:0:0:0:
256,192,30365,1,0,0:0:0:0:
256,192,30692,1,8,0:0:0:0:
256,192,30855,1,0,0:0:0:0:
256,192,31344,1,8,0:0:0:0:
256,192,32648,1,8,0:0:0:0:
256,192,32974,1,0,0:0:0:0:
256,192,33300,1,8,0:0:0:0:
256,192,33626,1,0,0:0:0:0:
256,192,33789,1,0,0:0:0:0:
256,192,34115,2,0,B|512:192|512:192|512:96,1,350
256,192,35583,1,0,0:0:0:0:
256,192,35746,1,0,0:0:0:0:
256,192,36235,1,8,0:0:0:0:
256,192,36724,1,0,0:0:0:0:
256,192,37213,1,0,0:0:0:0:
256,192,37539,1,8,0:0:0:0:
256,192,38192,1,0,0:0:0:0:
256,192,38518,1,0,0:0:0:0:
256,192,38681,1,0,0:0:0:0:
256,192,39007,1,0,0:0:0:0:
256,192,39333,2,0,B|512:192|512:192|512:96,1,350
256,192,40800,1,0,0:0:0:0:
256,192,41126,1,8,0:0:0:0:
256,192,41779,1,8,0:0:0:0:
256,192,42105,1,0,0:0:0:0:
256,192,42431,1,8,0:0:0:0:
256,192,43083,1,8,0:0:0:0:
256,192,43409,1,0,0:0:0:0:
256,192,44387,1,8,0:0:0:0:
256,192,44713,1,0,0:0:0:0:
256,192,45202,1,8,0:0:0:0:
256,192,45692,1,8,0:0:0:0:
256,192,46018,8,0,47648,0:0:0:0:
256,192,48626,5,4,0:0:0:0:
256,192,48952,1,4,0:0:0:0:
256,192,49605,1,0,0:0:0:0:
256,192,49931,1,0,0:0:0:0:
256,192,50257,1,8,0:0:0:0:
256,192,50583,1,0,0:0:0:0:
256,192,50746,1,0,0:0:0:0:
256,192,50909,1,8,0:0:0:0:
256,192,51235,1,4,0:0:0:0:
256,192,51561,1,4,0:0:0:0:
256,192,52213,1,0,0:0:0:0:
256,192,52539,1,0,0:0:0:0:
256,192,52865,1,8,0:0:0:0:
256,192,53192,1,0,0:0:0:0:
256,192,53355,1,0,0:0:0:0:
256,192,53518,1,8,0:0:0:0:
256,192,53844,1,12,0:0:0:0:
256,192,54170,1,12,0:0:0:0:
256,192,54822,1,8,0:0:0:0:
256,192,55148,1,0,0:0:0:0:
256,192,55474,1,8,0:0:0:0:
256,192,55800,1,8,0:0:0:0:
256,192,55963,1,8,0:0:0:0:
256,192,56452,8,0,58735,0:0:0:0:
256,192,59061,5,4,0:0:0:0:
256,192,59387,1,4,0:0:0:0:
256,192,60039,1,0,0:0:0:0:
256,192,60365,1,0,0:0:0:0:
256,192,60692,1,8,0:0:0:0:
256,192,61018,1,0,0:0:0:0:
256,192,61181,1,0,0:0:0:0:
256,192,61344,1,8,0:0:0:0:
256,192,61670,1,4,0:0:0:0:
256,192,61996,1,4,0:0:0:0:
256,192,62648,1,0,0:0:0:0:
256,192,62974,1,0,0:0:0:0:
256,192,63300,1,8,0:0:0:0:
256,192,63626,1,0,0:0:0:0:
256,192,63789,1,0,0:0:0:0:
256,192,63952,1,8,0:0:0:0:
256,192,64279,1,12,0:0:0:0:
256,192,64605,1,12,0:0:0:0:
256,192,65257,1,8,0:0:0:0:
256,192,65583,1,0,0:0:0:0:
256,192,65909,1,8,0:0:0:0:
256,192,66235,1,8,0:0:0:0:
256,192,66398,1,8,0:0:0:0:
256,192,66887,1,4,0:0:0:0:
256,192,67539,1,4,0:0:0:0:
256,192,68192,1,4,0:0:0:0:
256,192,68681,1,4,0:0:0:0:
256,192,69170,1,4,0:0:0:0:
256,192,69496,1,0,0:0:0:0:
256,192,69822,1,0,0:0:0:0:
256,192,70148,1,0,0:0:0:0:
256,192,70474,1,8,0:0:0:0:
256,192,70637,1,8,0:0:0:0:
256,192,71615,1,0,0:0:0:0:
256,192,71779,1,0,0:0:0:0:
256,192,72105,1,8,0:0:0:0:
256,192,72431,1,8,0:0:0:0:
256,192,72757,1,0,0:0:0:0:
256,192,72920,1,0,0:0:0:0:
256,192,73246,2,0,B|512:192|512:192|512:96,1,350
256,192,74713,1,4,0:0:0:0:
256,192,75039,1,4,0:0:0:0:
256,192,75365,1,4,0:0:0:0:
256,192,75855,1,4,0:0:0:0:
256,192,76344,1,4,0:0:0:0:
256,192,76670,1,4,0:0:0:0:
256,192,77159,8,0,79768,0:0:0:0:
