osu file format v14

[General]
AudioFilename: No-elements I wish I do nothing.mp3
AudioLeadIn: 0
PreviewTime: -1
Countdown: 0
SampleSet: Normal
StackLeniency: 0.7
Mode: 1
LetterboxInBreaks: 0
WidescreenStoryboard: 1

[Editor]
Bookmarks: 12545,17885,17910,17932,25908,25938,26772,30360,44578,44704,48259,57907,58796,73014,86232,87232,88975,100561,101450,108559,115668,119222,129914,137024,172410,172845,175855,182815,190073,190149,207926,222123,236281,250499,264717,266494,294930,309148,323366
DistanceSpacing: 0.8
BeatDivisor: 4
GridSize: 32
TimelineZoom: 2.600001

[Metadata]
Title:I wish I do nothing
TitleUnicode:I wish I do nothing
Artist:No-elements
ArtistUnicode:No-elements
Creator:Lightning Wyvern
Version:Ura Oni
Source:The Psycho Filth, Volume 5: Paradox Prison
Tags:
BeatmapID:734140
BeatmapSetID:331401

[Difficulty]
HPDrainRate:5
CircleSize:5
OverallDifficulty:5
ApproachRate:5
SliderMultiplier:1.4
SliderTickRate:1

[Events]
//Background and Video events
0,0,"Hata.no.Kokoro.full.1710831.jpg",0,0
//Break Periods
2,121337,128714
//Storyboard Layer 0 (Background)
//Storyboard Layer 1 (Fail)
//Storyboard Layer 2 (Pass)
//Storyboard Layer 3 (Foreground)
//Storyboard Sound Samples

[TimingPoints]
0,222.222222222222,6,1,0,70,1,0
100,-25,4,1,0,70,0,1
6875,-142.857142857143,4,1,0,70,0,1
7166,222.164623986374,6,1,0,70,1,0
7166,-133.333333333333,4,1,0,70,0,0
17885,-117.647058823529,4,1,0,70,0,0
25994,-113.895216400911,4,1,0,70,0,0
26772,-108.695652173913,4,1,0,70,0,0
27660,-105.263157894737,4,1,0,70,0,0
28438,-100,4,1,0,70,0,0
28596,222.189305288105,4,1,0,70,1,0
87353,-100,4,1,0,70,0,1
115694,-100,4,1,0,70,0,0
142356,241.935483870968,4,1,0,70,1,0
143081,250,6,1,0,70,1,0
143331,307.692307692308,4,1,0,70,1,0
143638,333.333333333333,6,1,0,70,1,0
143971,375,6,1,0,70,1,0
144346,500,4,1,0,70,1,0
144846,444.444444444444,4,1,0,70,1,0
175927,222.222222222222,4,1,0,70,1,0
177482,-105.263157894737,4,1,0,70,0,0
179260,-111.111111111111,4,1,0,70,0,0
181038,-117.647058823529,4,1,0,70,0,0
207926,-100,4,1,0,70,0,1
266593,-100,4,1,0,70,0,0

[HitObjects]
320,192,6991,5,12,0:0:0:0:
192,192,7213,1,0,0:0:0:0:
320,192,7324,1,8,0:0:0:0:
320,192,7435,1,8,0:0:0:0:
192,192,7546,1,0,0:0:0:0:
320,192,7657,1,8,0:0:0:0:
320,192,7768,1,8,0:0:0:0:
192,192,7879,1,0,0:0:0:0:
320,192,7991,1,8,0:0:0:0:
320,192,8102,1,8,0:0:0:0:
192,192,8213,1,0,0:0:0:0:
320,192,8324,1,8,0:0:0:0:
320,192,8435,1,8,0:0:0:0:
192,192,8546,1,0,0:0:0:0:
192,192,8657,1,0,0:0:0:0:
320,192,8768,1,8,0:0:0:0:
192,192,8879,1,0,0:0:0:0:
320,192,8991,1,8,0:0:0:0:
320,192,9101,1,8,0:0:0:0:
192,192,9212,1,0,0:0:0:0:
320,192,9324,1,8,0:0:0:0:
320,192,9434,1,8,0:0:0:0:
192,192,9546,1,0,0:0:0:0:
320,192,9657,1,8,0:0:0:0:
320,192,9768,1,8,0:0:0:0:
192,192,9879,1,0,0:0:0:0:
320,192,9990,1,8,0:0:0:0:
192,192,10101,1,0,0:0:0:0:
192,192,10212,1,0,0:0:0:0:
320,192,10323,1,8,0:0:0:0:
320,192,10434,1,8,0:0:0:0:
192,192,10545,1,0,0:0:0:0:
320,192,10657,1,8,0:0:0:0:
320,192,10767,1,8,0:0:0:0:
192,192,10878,1,0,0:0:0:0:
320,192,10990,1,8,0:0:0:0:
192,192,11101,1,0,0:0:0:0:
192,192,11212,1,0,0:0:0:0:
320,192,11323,1,8,0:0:0:0:
320,192,11434,1,8,0:0:0:0:
192,192,11545,1,0,0:0:0:0:
192,192,11656,1,0,0:0:0:0:
320,192,11767,1,8,0:0:0:0:
192,192,11878,1,0,0:0:0:0:
320,192,11990,1,8,0:0:0:0:
192,192,12101,1,0,0:0:0:0:
192,192,12212,1,0,0:0:0:0:
192,192,12323,1,0,0:0:0:0:
192,192,12434,1,0,0:0:0:0:
192,192,12545,1,0,0:0:0:0:
320,192,12656,1,8,0:0:0:0:
320,192,12767,1,8,0:0:0:0:
192,192,12878,1,0,0:0:0:0:
320,192,12990,1,8,0:0:0:0:
192,192,13100,1,0,0:0:0:0:
192,192,13211,1,0,0:0:0:0:
320,192,13322,1,8,0:0:0:0:
320,192,13433,1,8,0:0:0:0:
192,192,13544,1,0,0:0:0:0:
192,192,13655,1,8,0:0:0:0:
320,192,13766,1,8,0:0:0:0:
192,192,13878,1,0,0:0:0:0:
192,192,13989,1,0,0:0:0:0:
192,192,14100,1,0,0:0:0:0:
320,192,14211,1,8,0:0:0:0:
192,192,14322,1,0,0:0:0:0:
320,192,14433,1,8,0:0:0:0:
192,192,14544,1,0,0:0:0:0:
192,192,14655,1,0,0:0:0:0:
320,192,14766,1,8,0:0:0:0:
192,192,14877,1,0,0:0:0:0:
320,192,14989,1,8,0:0:0:0:
192,192,15100,1,0,0:0:0:0:
192,192,15211,1,0,0:0:0:0:
192,192,15322,1,0,0:0:0:0:
320,192,15433,1,8,0:0:0:0:
320,192,15544,1,8,0:0:0:0:
320,192,15655,1,8,0:0:0:0:
192,192,15766,1,0,0:0:0:0:
320,192,15877,1,8,0:0:0:0:
192,192,15988,1,0,0:0:0:0:
192,192,16100,1,0,0:0:0:0:
192,192,16211,1,0,0:0:0:0:
320,192,16322,1,8,0:0:0:0:
320,192,16433,1,8,0:0:0:0:
192,192,16544,1,0,0:0:0:0:
192,192,16655,1,0,0:0:0:0:
320,192,16766,1,8,0:0:0:0:
192,192,16877,1,0,0:0:0:0:
320,192,16989,1,8,0:0:0:0:
192,192,17099,1,0,0:0:0:0:
192,192,17210,1,0,0:0:0:0:
192,192,17321,1,0,0:0:0:0:
320,192,17432,1,8,0:0:0:0:
192,192,17543,1,0,0:0:0:0:
320,192,17654,1,8,0:0:0:0:
320,192,17765,1,8,0:0:0:0:
192,192,17876,1,4,0:0:0:0:
320,192,17988,1,8,0:0:0:0:
320,192,18099,1,8,0:0:0:0:
192,192,18210,1,0,0:0:0:0:
320,192,18321,1,8,0:0:0:0:
320,192,18432,1,8,0:0:0:0:
192,192,18543,1,0,0:0:0:0:
320,192,18654,1,8,0:0:0:0:
192,192,18765,1,0,0:0:0:0:
192,192,18877,1,0,0:0:0:0:
320,192,18988,1,8,0:0:0:0:
192,192,19099,1,0,0:0:0:0:
192,192,19210,1,0,0:0:0:0:
320,192,19321,1,8,0:0:0:0:
320,192,19432,1,8,0:0:0:0:
192,192,19543,1,0,0:0:0:0:
320,192,19654,1,8,0:0:0:0:
320,192,19765,1,8,0:0:0:0:
192,192,19876,1,0,0:0:0:0:
320,192,19988,1,8,0:0:0:0:
192,192,20099,1,0,0:0:0:0:
320,192,20210,1,8,0:0:0:0:
320,192,20321,1,8,0:0:0:0:
192,192,20432,1,0,0:0:0:0:
192,192,20543,1,0,0:0:0:0:
320,192,20654,1,8,0:0:0:0:
320,192,20765,1,8,0:0:0:0:
192,192,20876,1,0,0:0:0:0:
320,192,20987,1,8,0:0:0:0:
320,192,21098,1,8,0:0:0:0:
192,192,21209,1,0,0:0:0:0:
320,192,21320,1,8,0:0:0:0:
320,192,21431,1,8,0:0:0:0:
192,192,21543,1,0,0:0:0:0:
320,192,21654,1,8,0:0:0:0:
320,192,21765,1,8,0:0:0:0:
320,192,21876,1,8,0:0:0:0:
192,192,21987,1,0,0:0:0:0:
320,192,22098,1,8,0:0:0:0:
320,192,22209,1,8,0:0:0:0:
192,192,22320,1,0,0:0:0:0:
320,192,22431,1,8,0:0:0:0:
192,192,22542,1,0,0:0:0:0:
192,192,22653,1,0,0:0:0:0:
320,192,22764,1,8,0:0:0:0:
320,192,22876,1,8,0:0:0:0:
192,192,22987,1,0,0:0:0:0:
320,192,23098,1,8,0:0:0:0:
192,192,23209,1,0,0:0:0:0:
320,192,23320,1,8,0:0:0:0:
320,192,23431,1,8,0:0:0:0:
192,192,23542,1,0,0:0:0:0:
320,192,23653,1,8,0:0:0:0:
320,192,23764,1,8,0:0:0:0:
320,192,23875,1,8,0:0:0:0:
192,192,23986,1,0,0:0:0:0:
320,192,24097,1,8,0:0:0:0:
320,192,24209,1,8,0:0:0:0:
192,192,24320,1,0,0:0:0:0:
192,192,24431,1,0,0:0:0:0:
320,192,24542,1,8,0:0:0:0:
192,192,24653,1,0,0:0:0:0:
192,192,24764,1,0,0:0:0:0:
320,192,24875,1,8,0:0:0:0:
320,192,24986,1,8,0:0:0:0:
320,192,25097,1,8,0:0:0:0:
192,192,25208,1,0,0:0:0:0:
320,192,25319,1,8,0:0:0:0:
192,192,25430,1,0,0:0:0:0:
192,192,25542,1,0,0:0:0:0:
320,192,25653,1,8,0:0:0:0:
320,192,25764,1,8,0:0:0:0:
320,192,25875,1,8,0:0:0:0:
192,192,25986,1,0,0:0:0:0:
320,192,26097,1,8,0:0:0:0:
320,192,26208,1,8,0:0:0:0:
320,192,26319,1,8,0:0:0:0:
192,192,26430,1,0,0:0:0:0:
320,192,26541,1,8,0:0:0:0:
320,192,26652,1,8,0:0:0:0:
320,192,26763,1,8,0:0:0:0:
320,192,26875,1,8,0:0:0:0:
192,192,26986,1,0,0:0:0:0:
192,192,27097,1,0,0:0:0:0:
320,192,27208,1,8,0:0:0:0:
320,192,27319,1,8,0:0:0:0:
320,192,27430,1,8,0:0:0:0:
320,192,27541,1,8,0:0:0:0:
320,192,27652,1,8,0:0:0:0:
192,192,27763,1,0,0:0:0:0:
192,192,27874,1,0,0:0:0:0:
320,192,27985,1,8,0:0:0:0:
320,192,28096,1,8,0:0:0:0:
192,192,28208,1,0,0:0:0:0:
320,192,28319,1,8,0:0:0:0:
192,192,28430,1,0,0:0:0:0:
192,192,28485,1,0,0:0:0:0:
192,192,28541,1,0,0:0:0:0:
192,192,28596,1,0,0:0:0:0:
320,192,28651,1,8,0:0:0:0:
320,192,28707,1,8,0:0:0:0:
192,192,28762,1,0,0:0:0:0:
192,192,28818,1,0,0:0:0:0:
192,192,28873,1,0,0:0:0:0:
192,192,28929,1,0,0:0:0:0:
320,192,28984,1,8,0:0:0:0:
320,192,29040,1,8,0:0:0:0:
192,192,29095,1,0,0:0:0:0:
192,192,29151,1,0,0:0:0:0:
320,192,29207,1,8,0:0:0:0:
320,192,29262,1,8,0:0:0:0:
320,192,29318,1,8,0:0:0:0:
320,192,29373,1,8,0:0:0:0:
320,192,29429,1,8,0:0:0:0:
320,192,29484,1,8,0:0:0:0:
320,192,29540,1,8,0:0:0:0:
320,192,29595,1,8,0:0:0:0:
192,192,29651,1,0,0:0:0:0:
192,192,29706,1,0,0:0:0:0:
320,192,29762,1,8,0:0:0:0:
320,192,29818,1,8,0:0:0:0:
320,192,29873,1,8,0:0:0:0:
320,192,29929,1,8,0:0:0:0:
192,192,29984,1,0,0:0:0:0:
192,192,30040,1,0,0:0:0:0:
256,192,30077,12,0,30317,0:0:0:0:
320,192,30484,5,8,0:0:0:0:
320,192,30540,1,8,0:0:0:0:
192,192,30595,1,0,0:0:0:0:
320,192,30706,5,8,0:0:0:0:
320,192,30762,1,8,0:0:0:0:
192,192,30817,1,0,0:0:0:0:
320,192,30929,1,8,0:0:0:0:
192,192,30984,1,0,0:0:0:0:
192,192,31040,1,0,0:0:0:0:
192,192,31151,1,0,0:0:0:0:
192,192,31206,1,0,0:0:0:0:
320,192,31262,1,8,0:0:0:0:
192,192,31373,1,0,0:0:0:0:
320,192,31429,1,8,0:0:0:0:
192,192,31484,1,0,0:0:0:0:
320,192,31595,5,8,0:0:0:0:
320,192,31707,1,8,0:0:0:0:
320,192,31762,1,8,0:0:0:0:
192,192,31818,1,0,0:0:0:0:
192,192,31873,1,0,0:0:0:0:
192,192,31928,1,0,0:0:0:0:
192,192,32039,1,0,0:0:0:0:
192,192,32095,1,0,0:0:0:0:
192,192,32151,1,0,0:0:0:0:
320,192,32262,5,8,0:0:0:0:
320,192,32318,1,8,0:0:0:0:
192,192,32373,1,0,0:0:0:0:
320,192,32484,5,8,0:0:0:0:
320,192,32540,1,8,0:0:0:0:
192,192,32595,1,0,0:0:0:0:
192,192,32706,1,0,0:0:0:0:
192,192,32762,1,0,0:0:0:0:
320,192,32818,1,8,0:0:0:0:
320,192,32929,5,8,0:0:0:0:
320,192,32984,1,8,0:0:0:0:
320,192,33040,1,8,0:0:0:0:
320,192,33151,5,8,0:0:0:0:
320,192,33263,1,8,0:0:0:0:
192,192,33317,1,0,0:0:0:0:
320,192,33373,5,8,0:0:0:0:
192,192,33484,1,0,0:0:0:0:
192,192,33539,1,0,0:0:0:0:
192,192,33595,1,0,0:0:0:0:
320,192,33651,1,8,0:0:0:0:
192,192,33706,1,0,0:0:0:0:
192,192,33817,1,0,0:0:0:0:
192,192,33928,1,0,0:0:0:0:
192,192,34039,1,0,0:0:0:0:
192,192,34094,1,0,0:0:0:0:
320,192,34150,1,8,0:0:0:0:
320,192,34261,5,8,0:0:0:0:
320,192,34317,1,8,0:0:0:0:
192,192,34372,1,0,0:0:0:0:
320,192,34483,5,8,0:0:0:0:
320,192,34539,1,8,0:0:0:0:
192,192,34594,1,0,0:0:0:0:
320,192,34706,1,8,0:0:0:0:
192,192,34761,1,0,0:0:0:0:
192,192,34817,1,0,0:0:0:0:
192,192,34928,1,0,0:0:0:0:
192,192,34983,1,0,0:0:0:0:
320,192,35039,1,8,0:0:0:0:
192,192,35150,1,0,0:0:0:0:
320,192,35206,1,8,0:0:0:0:
192,192,35261,1,0,0:0:0:0:
320,192,35372,5,8,0:0:0:0:
192,192,35485,1,0,0:0:0:0:
320,192,35539,1,8,0:0:0:0:
192,192,35594,1,0,0:0:0:0:
192,192,35650,1,0,0:0:0:0:
320,192,35706,1,8,0:0:0:0:
192,192,35816,1,0,0:0:0:0:
192,192,35872,1,0,0:0:0:0:
320,192,35928,1,8,0:0:0:0:
320,192,36039,5,8,0:0:0:0:
320,192,36095,1,8,0:0:0:0:
192,192,36150,1,0,0:0:0:0:
320,192,36261,5,8,0:0:0:0:
320,192,36317,1,8,0:0:0:0:
192,192,36372,1,0,0:0:0:0:
192,192,36483,1,0,0:0:0:0:
192,192,36539,1,0,0:0:0:0:
320,192,36595,1,8,0:0:0:0:
320,192,36706,5,8,0:0:0:0:
192,192,36761,1,0,0:0:0:0:
320,192,36817,1,8,0:0:0:0:
320,192,36928,5,8,0:0:0:0:
192,192,37039,1,0,0:0:0:0:
320,192,37094,5,8,0:0:0:0:
192,192,37150,1,0,0:0:0:0:
192,192,37261,1,0,0:0:0:0:
320,192,37316,1,8,0:0:0:0:
192,192,37372,1,0,0:0:0:0:
192,192,37428,1,0,0:0:0:0:
320,192,37483,1,8,0:0:0:0:
320,192,37594,1,8,0:0:0:0:
192,192,37650,1,0,0:0:0:0:
192,192,37705,1,0,0:0:0:0:
192,192,37816,1,0,0:0:0:0:
192,192,37871,1,0,0:0:0:0:
320,192,37927,1,8,0:0:0:0:
320,192,38039,5,8,0:0:0:0:
320,192,38095,1,8,0:0:0:0:
192,192,38150,1,0,0:0:0:0:
320,192,38261,5,8,0:0:0:0:
192,192,38316,1,0,0:0:0:0:
320,192,38372,1,8,0:0:0:0:
320,192,38484,1,8,0:0:0:0:
192,192,38539,1,0,0:0:0:0:
192,192,38595,1,0,0:0:0:0:
192,192,38706,1,0,0:0:0:0:
192,192,38761,1,0,0:0:0:0:
320,192,38817,1,8,0:0:0:0:
192,192,38928,1,0,0:0:0:0:
320,192,38984,1,8,0:0:0:0:
192,192,39039,1,0,0:0:0:0:
320,192,39150,5,8,0:0:0:0:
320,192,39262,1,8,0:0:0:0:
192,192,39318,1,0,0:0:0:0:
192,192,39373,1,0,0:0:0:0:
192,192,39428,1,0,0:0:0:0:
320,192,39483,1,8,0:0:0:0:
192,192,39594,1,0,0:0:0:0:
192,192,39650,1,0,0:0:0:0:
192,192,39706,1,0,0:0:0:0:
320,192,39817,5,8,0:0:0:0:
320,192,39873,1,8,0:0:0:0:
192,192,39928,1,0,0:0:0:0:
320,192,40039,5,8,0:0:0:0:
192,192,40094,1,0,0:0:0:0:
320,192,40149,1,8,0:0:0:0:
192,192,40261,1,0,0:0:0:0:
192,192,40317,1,0,0:0:0:0:
320,192,40373,1,8,0:0:0:0:
192,192,40483,1,0,0:0:0:0:
320,192,40539,1,8,0:0:0:0:
192,192,40594,1,0,0:0:0:0:
320,192,40706,5,8,0:0:0:0:
320,192,40818,1,8,0:0:0:0:
192,192,40872,1,0,0:0:0:0:
320,192,40928,5,8,0:0:0:0:
320,192,41038,1,8,0:0:0:0:
192,192,41094,1,0,0:0:0:0:
192,192,41150,1,0,0:0:0:0:
320,192,41206,1,8,0:0:0:0:
192,192,41261,1,0,0:0:0:0:
192,192,41372,1,0,0:0:0:0:
192,192,41427,1,0,0:0:0:0:
320,192,41482,1,8,0:0:0:0:
320,192,41594,5,8,0:0:0:0:
320,192,41650,1,8,0:0:0:0:
192,192,41705,1,0,0:0:0:0:
320,192,41816,5,8,0:0:0:0:
192,192,41872,1,0,0:0:0:0:
320,192,41927,1,8,0:0:0:0:
192,192,42038,1,0,0:0:0:0:
192,192,42094,1,0,0:0:0:0:
320,192,42149,1,8,0:0:0:0:
320,192,42260,1,8,0:0:0:0:
192,192,42315,1,0,0:0:0:0:
192,192,42371,1,0,0:0:0:0:
192,192,42483,1,0,0:0:0:0:
320,192,42538,1,8,0:0:0:0:
192,192,42594,1,0,0:0:0:0:
320,192,42705,5,8,0:0:0:0:
192,192,42817,1,0,0:0:0:0:
192,192,42872,1,0,0:0:0:0:
320,192,42927,1,8,0:0:0:0:
320,192,42983,1,8,0:0:0:0:
320,192,43038,1,8,0:0:0:0:
192,192,43149,1,0,0:0:0:0:
192,192,43205,1,0,0:0:0:0:
192,192,43261,1,0,0:0:0:0:
320,192,43372,5,8,0:0:0:0:
192,192,43427,1,0,0:0:0:0:
192,192,43483,1,0,0:0:0:0:
320,192,43594,5,8,0:0:0:0:
192,192,43649,1,0,0:0:0:0:
320,192,43704,1,8,0:0:0:0:
320,192,43760,1,8,0:0:0:0:
192,192,43815,1,0,0:0:0:0:
192,192,43871,1,0,0:0:0:0:
320,192,43928,1,8,0:0:0:0:
192,192,44038,1,0,0:0:0:0:
320,192,44039,5,8,0:0:0:0:
192,192,44075,1,0,0:0:0:0:
192,192,44112,1,0,0:0:0:0:
192,192,44149,1,0,0:0:0:0:
320,192,44186,1,8,0:0:0:0:
320,192,44223,1,8,0:0:0:0:
320,192,44260,1,8,0:0:0:0:
320,192,44297,1,8,0:0:0:0:
320,192,44334,1,8,0:0:0:0:
320,192,44371,1,8,0:0:0:0:
192,192,44408,1,0,0:0:0:0:
192,192,44445,1,0,0:0:0:0:
320,192,44482,1,8,0:0:0:0:
320,192,44519,1,8,0:0:0:0:
320,192,44556,1,8,0:0:0:0:
320,192,44593,1,8,0:0:0:0:
192,192,44630,1,0,0:0:0:0:
320,192,44704,5,8,0:0:0:0:
320,192,44760,1,8,0:0:0:0:
192,192,44815,1,0,0:0:0:0:
320,192,44926,5,8,0:0:0:0:
320,192,44982,1,8,0:0:0:0:
192,192,45037,1,0,0:0:0:0:
192,192,45148,1,0,0:0:0:0:
320,192,45204,1,8,0:0:0:0:
192,192,45260,1,0,0:0:0:0:
192,192,45371,1,0,0:0:0:0:
192,192,45426,1,0,0:0:0:0:
192,192,45482,1,0,0:0:0:0:
192,192,45593,1,0,0:0:0:0:
320,192,45649,1,8,0:0:0:0:
192,192,45704,1,0,0:0:0:0:
320,192,45815,5,8,0:0:0:0:
320,192,45927,1,8,0:0:0:0:
320,192,45982,1,8,0:0:0:0:
320,192,46037,1,8,0:0:0:0:
192,192,46093,1,0,0:0:0:0:
192,192,46148,1,0,0:0:0:0:
192,192,46259,1,0,0:0:0:0:
192,192,46315,1,0,0:0:0:0:
192,192,46371,1,0,0:0:0:0:
320,192,46482,5,8,0:0:0:0:
320,192,46538,1,8,0:0:0:0:
192,192,46593,1,0,0:0:0:0:
320,192,46704,5,8,0:0:0:0:
320,192,46760,1,8,0:0:0:0:
192,192,46815,1,0,0:0:0:0:
192,192,46926,1,0,0:0:0:0:
192,192,46982,1,0,0:0:0:0:
320,192,47038,1,8,0:0:0:0:
192,192,47148,1,0,0:0:0:0:
320,192,47204,1,8,0:0:0:0:
320,192,47260,1,8,0:0:0:0:
320,192,47371,5,8,0:0:0:0:
320,192,47483,1,8,0:0:0:0:
192,192,47537,1,0,0:0:0:0:
192,192,47593,1,0,0:0:0:0:
320,192,47704,1,8,0:0:0:0:
320,192,47741,1,8,0:0:0:0:
320,192,47778,1,8,0:0:0:0:
320,192,47815,1,8,0:0:0:0:
320,192,47852,1,8,0:0:0:0:
320,192,47889,1,8,0:0:0:0:
192,192,47926,1,0,0:0:0:0:
192,192,47963,1,0,0:0:0:0:
192,192,48000,1,0,0:0:0:0:
192,192,48037,1,0,0:0:0:0:
192,192,48074,1,0,0:0:0:0:
192,192,48111,1,0,0:0:0:0:
320,192,48148,1,8,0:0:0:0:
320,192,48259,5,8,0:0:0:0:
320,192,48315,1,8,0:0:0:0:
192,192,48370,1,0,0:0:0:0:
320,192,48481,5,8,0:0:0:0:
192,192,48593,1,0,0:0:0:0:
192,192,48648,1,0,0:0:0:0:
192,192,48704,1,0,0:0:0:0:
320,192,48814,1,8,0:0:0:0:
192,192,48870,1,0,0:0:0:0:
192,192,48926,1,0,0:0:0:0:
320,192,49037,1,8,0:0:0:0:
192,192,49092,1,0,0:0:0:0:
192,192,49148,1,0,0:0:0:0:
320,192,49260,1,8,0:0:0:0:
192,192,49315,1,0,0:0:0:0:
320,192,49370,5,8,0:0:0:0:
320,192,49482,1,8,0:0:0:0:
320,192,49537,1,8,0:0:0:0:
192,192,49593,1,0,0:0:0:0:
192,192,49648,1,0,0:0:0:0:
192,192,49703,1,0,0:0:0:0:
192,192,49814,1,0,0:0:0:0:
192,192,49870,1,0,0:0:0:0:
192,192,49926,1,0,0:0:0:0:
320,192,50037,5,8,0:0:0:0:
320,192,50093,1,8,0:0:0:0:
192,192,50148,1,0,0:0:0:0:
320,192,50259,5,8,0:0:0:0:
320,192,50315,1,8,0:0:0:0:
192,192,50370,1,0,0:0:0:0:
192,192,50481,1,0,0:0:0:0:
320,192,50537,1,8,0:0:0:0:
192,192,50592,5,0,0:0:0:0:
320,192,50593,1,8,0:0:0:0:
192,192,50703,1,0,0:0:0:0:
320,192,50704,5,8,0:0:0:0:
192,192,50814,1,0,0:0:0:0:
320,192,50815,1,8,0:0:0:0:
320,192,50926,5,8,0:0:0:0:
320,192,51038,1,8,0:0:0:0:
192,192,51092,1,0,0:0:0:0:
320,192,51148,5,8,0:0:0:0:
192,192,51259,1,0,0:0:0:0:
192,192,51314,1,0,0:0:0:0:
192,192,51370,1,0,0:0:0:0:
320,192,51426,1,8,0:0:0:0:
192,192,51481,1,0,0:0:0:0:
192,192,51592,1,0,0:0:0:0:
192,192,51703,1,0,0:0:0:0:
320,192,51814,5,8,0:0:0:0:
320,192,51870,1,8,0:0:0:0:
192,192,51925,1,0,0:0:0:0:
320,192,52036,5,8,0:0:0:0:
320,192,52092,1,8,0:0:0:0:
192,192,52147,1,0,0:0:0:0:
320,192,52259,1,8,0:0:0:0:
192,192,52314,1,0,0:0:0:0:
192,192,52370,1,0,0:0:0:0:
192,192,52481,1,0,0:0:0:0:
192,192,52536,1,0,0:0:0:0:
320,192,52592,1,8,0:0:0:0:
192,192,52703,1,0,0:0:0:0:
320,192,52759,1,8,0:0:0:0:
192,192,52814,1,0,0:0:0:0:
320,192,52925,5,8,0:0:0:0:
320,192,53037,1,8,0:0:0:0:
320,192,53092,1,8,0:0:0:0:
192,192,53148,1,0,0:0:0:0:
192,192,53203,1,0,0:0:0:0:
192,192,53258,1,0,0:0:0:0:
192,192,53369,1,0,0:0:0:0:
192,192,53425,1,0,0:0:0:0:
192,192,53481,1,0,0:0:0:0:
320,192,53592,5,8,0:0:0:0:
320,192,53648,1,8,0:0:0:0:
192,192,53703,1,0,0:0:0:0:
320,192,53814,5,8,0:0:0:0:
320,192,53870,1,8,0:0:0:0:
192,192,53925,1,0,0:0:0:0:
192,192,54036,1,0,0:0:0:0:
192,192,54092,1,0,0:0:0:0:
320,192,54148,1,8,0:0:0:0:
320,192,54259,5,8,0:0:0:0:
320,192,54314,1,8,0:0:0:0:
320,192,54370,1,8,0:0:0:0:
320,192,54481,5,8,0:0:0:0:
320,192,54593,1,8,0:0:0:0:
192,192,54647,1,0,0:0:0:0:
320,192,54703,5,8,0:0:0:0:
192,192,54814,1,0,0:0:0:0:
192,192,54851,1,0,0:0:0:0:
192,192,54888,1,0,0:0:0:0:
192,192,54925,1,0,0:0:0:0:
192,192,54962,1,0,0:0:0:0:
192,192,54999,1,0,0:0:0:0:
320,192,55036,1,8,0:0:0:0:
320,192,55073,1,8,0:0:0:0:
320,192,55110,1,8,0:0:0:0:
320,192,55147,1,8,0:0:0:0:
320,192,55184,1,8,0:0:0:0:
320,192,55221,1,8,0:0:0:0:
192,192,55258,1,0,0:0:0:0:
320,192,55369,5,8,0:0:0:0:
320,192,55425,1,8,0:0:0:0:
192,192,55480,1,0,0:0:0:0:
320,192,55591,5,8,0:0:0:0:
320,192,55647,1,8,0:0:0:0:
192,192,55702,1,0,0:0:0:0:
320,192,55814,1,8,0:0:0:0:
192,192,55869,1,0,0:0:0:0:
192,192,55925,1,0,0:0:0:0:
192,192,56036,1,0,0:0:0:0:
192,192,56147,1,0,0:0:0:0:
192,192,56258,1,0,0:0:0:0:
192,192,56314,1,0,0:0:0:0:
320,192,56369,1,8,0:0:0:0:
320,192,56480,5,8,0:0:0:0:
320,192,56592,1,8,0:0:0:0:
320,192,56647,1,8,0:0:0:0:
192,192,56703,1,0,0:0:0:0:
192,192,56758,1,0,0:0:0:0:
320,192,56814,1,8,0:0:0:0:
320,192,56924,1,8,0:0:0:0:
192,192,57035,1,0,0:0:0:0:
192,192,57091,1,0,0:0:0:0:
320,192,57147,5,8,0:0:0:0:
320,192,57203,1,8,0:0:0:0:
192,192,57258,1,0,0:0:0:0:
320,192,57369,5,8,0:0:0:0:
320,192,57480,1,8,0:0:0:0:
192,192,57591,1,0,0:0:0:0:
320,192,57647,1,8,0:0:0:0:
320,192,57703,1,8,0:0:0:0:
320,192,57814,5,8,0:0:0:0:
256,192,57924,12,0,58813,0:0:0:0:
192,192,59035,5,0,0:0:0:0:
320,192,59258,1,8,0:0:0:0:
192,192,59480,1,0,0:0:0:0:
192,192,59591,1,0,0:0:0:0:
320,192,59702,1,8,0:0:0:0:
192,192,59813,1,0,0:0:0:0:
192,192,59924,1,0,0:0:0:0:
192,192,60035,1,0,0:0:0:0:
320,192,60147,1,8,0:0:0:0:
192,192,60369,1,0,0:0:0:0:
320,192,60591,1,8,0:0:0:0:
320,192,60813,1,8,0:0:0:0:
192,192,61035,1,0,0:0:0:0:
192,192,61146,1,0,0:0:0:0:
320,192,61257,1,8,0:0:0:0:
192,192,61368,1,0,0:0:0:0:
320,192,61480,1,8,0:0:0:0:
320,192,61591,1,8,0:0:0:0:
320,192,61702,1,8,0:0:0:0:
320,192,61813,1,8,0:0:0:0:
192,192,61924,1,0,0:0:0:0:
192,192,62146,1,0,0:0:0:0:
192,192,62368,1,0,0:0:0:0:
320,192,62590,1,8,0:0:0:0:
320,192,62702,1,8,0:0:0:0:
320,192,62813,1,8,0:0:0:0:
192,192,62924,1,0,0:0:0:0:
320,192,63035,1,8,0:0:0:0:
192,192,63146,1,0,0:0:0:0:
320,192,63257,1,8,0:0:0:0:
192,192,63368,1,0,0:0:0:0:
192,192,63479,1,0,0:0:0:0:
320,192,63701,1,8,0:0:0:0:
192,192,63923,1,0,0:0:0:0:
192,192,64145,1,0,0:0:0:0:
192,192,64256,1,0,0:0:0:0:
320,192,64367,1,8,0:0:0:0:
192,192,64478,1,0,0:0:0:0:
320,192,64590,1,8,0:0:0:0:
320,192,64701,1,8,0:0:0:0:
320,192,64812,1,8,0:0:0:0:
320,192,64923,1,8,0:0:0:0:
192,192,65035,1,0,0:0:0:0:
192,192,65257,5,0,0:0:0:0:
192,192,65479,1,0,0:0:0:0:
192,192,65702,1,0,0:0:0:0:
320,192,65924,1,8,0:0:0:0:
192,192,66035,1,0,0:0:0:0:
192,192,66146,1,0,0:0:0:0:
192,192,66257,1,0,0:0:0:0:
320,192,66369,1,8,0:0:0:0:
192,192,66591,1,0,0:0:0:0:
192,192,66813,1,0,0:0:0:0:
320,192,67035,1,8,0:0:0:0:
192,192,67257,1,0,0:0:0:0:
192,192,67368,1,0,0:0:0:0:
320,192,67479,1,8,0:0:0:0:
192,192,67590,1,0,0:0:0:0:
320,192,67702,1,8,0:0:0:0:
320,192,67813,1,8,0:0:0:0:
320,192,67924,1,8,0:0:0:0:
320,192,68035,1,8,0:0:0:0:
192,192,68146,1,0,0:0:0:0:
192,192,68368,1,0,0:0:0:0:
192,192,68590,1,0,0:0:0:0:
192,192,68812,1,0,0:0:0:0:
192,192,68924,1,0,0:0:0:0:
320,192,69035,1,8,0:0:0:0:
192,192,69146,1,0,0:0:0:0:
192,192,69257,1,0,0:0:0:0:
192,192,69368,1,0,0:0:0:0:
320,192,69479,1,8,0:0:0:0:
192,192,69701,1,0,0:0:0:0:
320,192,69923,1,8,0:0:0:0:
192,192,70145,1,0,0:0:0:0:
192,192,70367,1,0,0:0:0:0:
192,192,70478,1,0,0:0:0:0:
320,192,70589,1,8,0:0:0:0:
192,192,70700,1,0,0:0:0:0:
320,192,70812,1,8,0:0:0:0:
320,192,70923,1,8,0:0:0:0:
320,192,71034,1,8,0:0:0:0:
320,192,71145,1,8,0:0:0:0:
192,192,71257,1,0,0:0:0:0:
192,192,71478,1,0,0:0:0:0:
320,192,71700,1,8,0:0:0:0:
192,192,71923,1,0,0:0:0:0:
192,192,72034,1,0,0:0:0:0:
320,192,72145,1,8,0:0:0:0:
192,192,72256,1,0,0:0:0:0:
320,192,72367,1,8,0:0:0:0:
320,192,72478,1,8,0:0:0:0:
320,192,72589,1,8,0:0:0:0:
192,192,72700,1,0,0:0:0:0:
320,192,72811,1,8,0:0:0:0:
192,192,72922,1,0,0:0:0:0:
191,192,73033,1,4,0:0:0:0:
192,192,73256,1,0,0:0:0:0:
320,192,73478,1,8,0:0:0:0:
192,192,73700,1,0,0:0:0:0:
192,192,73811,1,0,0:0:0:0:
320,192,73922,1,8,0:0:0:0:
320,192,74033,1,8,0:0:0:0:
320,192,74144,1,8,0:0:0:0:
320,192,74255,1,8,0:0:0:0:
320,192,74366,1,8,0:0:0:0:
192,192,74478,1,0,0:0:0:0:
320,192,74589,1,8,0:0:0:0:
192,192,74811,1,0,0:0:0:0:
192,192,75033,1,0,0:0:0:0:
320,192,75255,1,8,0:0:0:0:
320,192,75477,1,8,0:0:0:0:
192,192,75589,1,0,0:0:0:0:
192,192,75700,1,0,0:0:0:0:
320,192,75811,1,8,0:0:0:0:
320,192,75922,1,8,0:0:0:0:
320,192,76033,1,8,0:0:0:0:
192,192,76144,1,0,0:0:0:0:
192,192,76255,1,0,0:0:0:0:
320,192,76366,1,8,0:0:0:0:
320,192,76477,1,8,0:0:0:0:
320,192,76588,1,8,0:0:0:0:
192,192,76811,1,0,0:0:0:0:
320,192,77033,1,8,0:0:0:0:
320,192,77255,1,8,0:0:0:0:
320,192,77366,1,8,0:0:0:0:
320,192,77477,1,8,0:0:0:0:
192,192,77588,1,0,0:0:0:0:
320,192,77699,1,8,0:0:0:0:
192,192,77810,1,0,0:0:0:0:
192,192,77922,1,0,0:0:0:0:
192,192,78033,1,0,0:0:0:0:
192,192,78144,1,0,0:0:0:0:
192,192,78255,1,0,0:0:0:0:
192,192,78366,1,4,0:0:0:0:
192,192,78588,1,0,0:0:0:0:
320,192,78810,1,8,0:0:0:0:
192,192,79032,1,0,0:0:0:0:
192,192,79144,1,0,0:0:0:0:
320,192,79255,1,8,0:0:0:0:
192,192,79366,1,0,0:0:0:0:
320,192,79477,1,8,0:0:0:0:
320,192,79588,1,8,0:0:0:0:
320,192,79699,1,8,0:0:0:0:
320,192,79810,1,8,0:0:0:0:
192,192,79921,1,0,0:0:0:0:
192,192,80143,1,0,0:0:0:0:
192,192,80366,1,0,0:0:0:0:
320,192,80588,1,8,0:0:0:0:
320,192,80810,1,8,0:0:0:0:
320,192,80921,1,8,0:0:0:0:
192,192,81032,1,0,0:0:0:0:
320,192,81143,1,8,0:0:0:0:
192,192,81254,1,0,0:0:0:0:
192,192,81366,1,0,0:0:0:0:
192,192,81477,1,0,0:0:0:0:
192,192,81588,1,0,0:0:0:0:
320,192,81699,1,8,0:0:0:0:
192,192,81810,1,4,0:0:0:0:
192,192,81921,1,0,0:0:0:0:
192,192,82143,1,0,0:0:0:0:
320,192,82365,1,8,0:0:0:0:
192,192,82588,1,0,0:0:0:0:
192,192,82699,1,0,0:0:0:0:
320,192,82810,1,8,0:0:0:0:
192,192,82921,1,0,0:0:0:0:
320,192,83032,1,8,0:0:0:0:
320,192,83143,1,8,0:0:0:0:
320,192,83254,1,8,0:0:0:0:
192,192,83365,1,0,0:0:0:0:
320,192,83476,1,8,0:0:0:0:
320,192,83587,1,8,0:0:0:0:
320,192,83698,1,8,0:0:0:0:
192,192,83921,1,0,0:0:0:0:
320,192,84143,1,8,0:0:0:0:
320,192,84365,1,8,0:0:0:0:
320,192,84476,1,8,0:0:0:0:
192,192,84587,1,0,0:0:0:0:
192,192,84698,1,0,0:0:0:0:
320,192,84809,1,8,0:0:0:0:
192,192,84920,1,0,0:0:0:0:
192,192,85032,1,0,0:0:0:0:
192,192,85143,1,0,0:0:0:0:
320,192,85254,1,8,0:0:0:0:
192,192,85365,1,0,0:0:0:0:
192,192,85476,1,0,0:0:0:0:
192,192,85698,1,0,0:0:0:0:
320,192,85920,1,8,0:0:0:0:
192,192,86143,1,0,0:0:0:0:
320,192,86254,1,12,0:0:0:0:
320,192,86365,1,12,0:0:0:0:
320,192,86476,1,12,0:0:0:0:
320,192,86587,1,12,0:0:0:0:
320,192,86698,1,12,0:0:0:0:
320,192,86809,1,12,0:0:0:0:
320,192,86920,1,12,0:0:0:0:
320,192,87031,1,12,0:0:0:0:
320,192,87142,1,8,0:0:0:0:
320,192,87253,5,8,0:0:0:0:
192,192,87309,1,0,0:0:0:0:
192,192,87364,1,0,0:0:0:0:
320,192,87475,5,8,0:0:0:0:
192,192,87531,1,0,0:0:0:0:
192,192,87586,1,0,0:0:0:0:
320,192,87698,1,8,0:0:0:0:
192,192,87753,1,0,0:0:0:0:
192,192,87809,1,0,0:0:0:0:
192,192,87920,1,0,0:0:0:0:
192,192,87975,1,0,0:0:0:0:
320,192,88031,1,8,0:0:0:0:
192,192,88142,1,0,0:0:0:0:
192,192,88198,1,0,0:0:0:0:
320,192,88253,1,8,0:0:0:0:
320,192,88364,5,8,0:0:0:0:
192,192,88420,1,0,0:0:0:0:
320,192,88476,1,8,0:0:0:0:
320,192,88531,1,8,0:0:0:0:
192,192,88587,1,0,0:0:0:0:
192,192,88642,1,0,0:0:0:0:
320,192,88698,1,8,0:0:0:0:
320,192,88753,1,8,0:0:0:0:
192,192,88808,1,0,0:0:0:0:
192,192,88864,1,0,0:0:0:0:
320,192,88920,1,8,0:0:0:0:
320,192,89031,5,8,0:0:0:0:
192,192,89087,1,0,0:0:0:0:
192,192,89142,1,0,0:0:0:0:
320,192,89253,5,8,0:0:0:0:
192,192,89309,1,0,0:0:0:0:
192,192,89364,1,0,0:0:0:0:
320,192,89475,1,8,0:0:0:0:
192,192,89531,1,0,0:0:0:0:
192,192,89586,1,0,0:0:0:0:
192,192,89698,1,0,0:0:0:0:
192,192,89753,1,0,0:0:0:0:
320,192,89809,1,8,0:0:0:0:
320,192,89920,5,8,0:0:0:0:
320,192,90032,1,8,0:0:0:0:
192,192,90086,1,0,0:0:0:0:
320,192,90142,5,8,0:0:0:0:
320,192,90253,1,8,0:0:0:0:
320,192,90309,1,8,0:0:0:0:
192,192,90364,1,0,0:0:0:0:
192,192,90419,1,0,0:0:0:0:
320,192,90475,1,8,0:0:0:0:
192,192,90586,1,0,0:0:0:0:
192,192,90642,1,0,0:0:0:0:
320,192,90697,1,8,0:0:0:0:
320,192,90809,5,8,0:0:0:0:
320,192,90865,1,8,0:0:0:0:
192,192,90920,1,0,0:0:0:0:
320,192,91031,5,8,0:0:0:0:
320,192,91087,1,8,0:0:0:0:
192,192,91142,1,0,0:0:0:0:
320,192,91254,1,8,0:0:0:0:
320,192,91309,1,8,0:0:0:0:
192,192,91365,1,0,0:0:0:0:
192,192,91476,1,0,0:0:0:0:
192,192,91531,1,0,0:0:0:0:
320,192,91587,1,8,0:0:0:0:
192,192,91698,1,0,0:0:0:0:
192,192,91754,1,0,0:0:0:0:
320,192,91809,1,8,0:0:0:0:
320,192,91920,5,8,0:0:0:0:
192,192,91976,1,0,0:0:0:0:
320,192,92032,1,8,0:0:0:0:
320,192,92087,1,8,0:0:0:0:
192,192,92143,1,0,0:0:0:0:
192,192,92198,1,0,0:0:0:0:
320,192,92254,1,8,0:0:0:0:
320,192,92309,1,8,0:0:0:0:
192,192,92364,1,0,0:0:0:0:
192,192,92420,1,0,0:0:0:0:
320,192,92476,1,8,0:0:0:0:
320,192,92587,5,8,0:0:0:0:
320,192,92643,1,8,0:0:0:0:
192,192,92698,1,0,0:0:0:0:
320,192,92809,5,8,0:0:0:0:
320,192,92865,1,8,0:0:0:0:
192,192,92920,1,0,0:0:0:0:
320,192,93031,1,8,0:0:0:0:
320,192,93087,1,8,0:0:0:0:
192,192,93142,1,0,0:0:0:0:
192,192,93254,1,0,0:0:0:0:
192,192,93309,1,0,0:0:0:0:
320,192,93365,1,8,0:0:0:0:
320,192,93476,5,8,0:0:0:0:
320,192,93588,1,8,0:0:0:0:
192,192,93642,1,0,0:0:0:0:
320,192,93698,5,8,0:0:0:0:
320,192,93809,1,8,0:0:0:0:
320,192,93865,1,8,0:0:0:0:
192,192,93920,1,0,0:0:0:0:
192,192,93975,1,0,0:0:0:0:
320,192,94031,1,8,0:0:0:0:
192,192,94142,1,0,0:0:0:0:
320,192,94198,1,8,0:0:0:0:
192,192,94253,1,0,0:0:0:0:
320,192,94364,5,8,0:0:0:0:
192,192,94420,1,0,0:0:0:0:
192,192,94475,1,0,0:0:0:0:
320,192,94586,5,8,0:0:0:0:
192,192,94642,1,0,0:0:0:0:
192,192,94697,1,0,0:0:0:0:
320,192,94809,1,8,0:0:0:0:
192,192,94864,1,0,0:0:0:0:
192,192,94920,1,0,0:0:0:0:
192,192,95031,1,0,0:0:0:0:
192,192,95086,1,0,0:0:0:0:
320,192,95142,1,8,0:0:0:0:
192,192,95253,1,0,0:0:0:0:
192,192,95309,1,0,0:0:0:0:
320,192,95364,1,8,0:0:0:0:
320,192,95475,5,8,0:0:0:0:
192,192,95531,1,0,0:0:0:0:
320,192,95587,1,8,0:0:0:0:
320,192,95642,1,8,0:0:0:0:
192,192,95698,1,0,0:0:0:0:
192,192,95753,1,0,0:0:0:0:
320,192,95809,1,8,0:0:0:0:
320,192,95864,1,8,0:0:0:0:
192,192,95919,1,0,0:0:0:0:
192,192,95975,1,0,0:0:0:0:
320,192,96031,1,8,0:0:0:0:
320,192,96142,5,8,0:0:0:0:
192,192,96198,1,0,0:0:0:0:
192,192,96253,1,0,0:0:0:0:
320,192,96364,5,8,0:0:0:0:
192,192,96420,1,0,0:0:0:0:
192,192,96475,1,0,0:0:0:0:
320,192,96586,1,8,0:0:0:0:
192,192,96642,1,0,0:0:0:0:
192,192,96697,1,0,0:0:0:0:
192,192,96809,1,0,0:0:0:0:
192,192,96864,1,0,0:0:0:0:
320,192,96920,1,8,0:0:0:0:
320,192,97031,5,8,0:0:0:0:
320,192,97143,1,8,0:0:0:0:
192,192,97197,1,0,0:0:0:0:
320,192,97253,5,8,0:0:0:0:
320,192,97364,1,8,0:0:0:0:
320,192,97420,1,8,0:0:0:0:
192,192,97475,1,0,0:0:0:0:
192,192,97530,1,0,0:0:0:0:
320,192,97586,1,8,0:0:0:0:
192,192,97697,1,0,0:0:0:0:
192,192,97753,1,0,0:0:0:0:
320,192,97808,1,8,0:0:0:0:
320,192,97920,5,8,0:0:0:0:
320,192,97976,1,8,0:0:0:0:
192,192,98031,1,0,0:0:0:0:
320,192,98142,5,8,0:0:0:0:
320,192,98198,1,8,0:0:0:0:
192,192,98253,1,0,0:0:0:0:
320,192,98365,1,8,0:0:0:0:
320,192,98420,1,8,0:0:0:0:
192,192,98476,1,0,0:0:0:0:
192,192,98587,1,0,0:0:0:0:
192,192,98642,1,0,0:0:0:0:
320,192,98698,1,8,0:0:0:0:
192,192,98809,1,0,0:0:0:0:
192,192,98865,1,0,0:0:0:0:
320,192,98920,1,8,0:0:0:0:
320,192,99031,5,8,0:0:0:0:
192,192,99087,1,0,0:0:0:0:
320,192,99143,1,8,0:0:0:0:
320,192,99198,1,8,0:0:0:0:
192,192,99254,1,0,0:0:0:0:
192,192,99309,1,0,0:0:0:0:
320,192,99365,1,8,0:0:0:0:
320,192,99420,1,8,0:0:0:0:
192,192,99475,1,0,0:0:0:0:
192,192,99531,1,0,0:0:0:0:
320,192,99587,1,8,0:0:0:0:
320,192,99698,5,8,0:0:0:0:
320,192,99754,1,8,0:0:0:0:
192,192,99809,1,0,0:0:0:0:
320,192,99920,5,8,0:0:0:0:
320,192,99976,1,8,0:0:0:0:
192,192,100031,1,0,0:0:0:0:
320,192,100142,1,8,0:0:0:0:
320,192,100198,1,8,0:0:0:0:
192,192,100253,1,0,0:0:0:0:
192,192,100365,1,0,0:0:0:0:
192,192,100420,1,0,0:0:0:0:
320,192,100476,1,8,0:0:0:0:
320,192,100585,1,8,0:0:0:0:
320,192,100622,1,8,0:0:0:0:
320,192,100696,1,8,0:0:0:0:
320,192,100733,1,8,0:0:0:0:
320,192,100807,1,8,0:0:0:0:
320,192,100844,1,8,0:0:0:0:
192,192,100918,1,0,0:0:0:0:
192,192,100955,1,0,0:0:0:0:
192,192,100992,1,0,0:0:0:0:
192,192,101029,1,0,0:0:0:0:
192,192,101066,1,0,0:0:0:0:
192,192,101103,1,0,0:0:0:0:
192,192,101140,1,0,0:0:0:0:
320,192,101177,1,8,0:0:0:0:
320,192,101214,1,8,0:0:0:0:
320,192,101251,1,8,0:0:0:0:
320,192,101288,1,8,0:0:0:0:
320,192,101325,1,8,0:0:0:0:
320,192,101362,1,8,0:0:0:0:
192,192,101400,1,0,0:0:0:0:
320,192,101474,5,8,0:0:0:0:
192,192,101530,1,0,0:0:0:0:
192,192,101585,1,0,0:0:0:0:
320,192,101696,5,8,0:0:0:0:
192,192,101752,1,0,0:0:0:0:
192,192,101807,1,0,0:0:0:0:
320,192,101919,1,8,0:0:0:0:
192,192,101974,1,0,0:0:0:0:
192,192,102030,1,0,0:0:0:0:
320,192,102140,1,8,0:0:0:0:
192,192,102196,1,0,0:0:0:0:
320,192,102252,1,8,0:0:0:0:
192,192,102363,1,0,0:0:0:0:
192,192,102419,1,0,0:0:0:0:
320,192,102474,1,8,0:0:0:0:
320,192,102585,5,8,0:0:0:0:
192,192,102641,1,0,0:0:0:0:
320,192,102697,1,8,0:0:0:0:
320,192,102752,1,8,0:0:0:0:
192,192,102808,1,0,0:0:0:0:
192,192,102863,1,0,0:0:0:0:
320,192,102919,1,8,0:0:0:0:
320,192,102974,1,8,0:0:0:0:
192,192,103029,1,0,0:0:0:0:
192,192,103085,1,0,0:0:0:0:
320,192,103141,1,8,0:0:0:0:
320,192,103252,5,8,0:0:0:0:
192,192,103308,1,0,0:0:0:0:
192,192,103363,1,0,0:0:0:0:
320,192,103474,5,8,0:0:0:0:
192,192,103530,1,0,0:0:0:0:
192,192,103585,1,0,0:0:0:0:
320,192,103696,1,8,0:0:0:0:
192,192,103752,1,0,0:0:0:0:
192,192,103807,1,0,0:0:0:0:
192,192,103919,1,0,0:0:0:0:
192,192,103974,1,0,0:0:0:0:
320,192,104030,1,8,0:0:0:0:
192,192,104140,1,0,0:0:0:0:
192,192,104195,1,0,0:0:0:0:
320,192,104253,1,8,0:0:0:0:
192,192,104307,1,0,0:0:0:0:
320,192,104363,5,8,0:0:0:0:
320,192,104474,1,8,0:0:0:0:
320,192,104530,1,8,0:0:0:0:
192,192,104585,1,0,0:0:0:0:
192,192,104640,1,0,0:0:0:0:
320,192,104696,1,8,0:0:0:0:
320,192,104806,1,8,0:0:0:0:
192,192,104863,1,0,0:0:0:0:
320,192,104918,1,8,0:0:0:0:
320,192,105030,5,8,0:0:0:0:
192,192,105084,1,0,0:0:0:0:
192,192,105141,1,0,0:0:0:0:
320,192,105252,5,8,0:0:0:0:
192,192,105306,1,0,0:0:0:0:
192,192,105363,1,0,0:0:0:0:
320,192,105475,1,8,0:0:0:0:
192,192,105530,1,0,0:0:0:0:
192,192,105586,1,0,0:0:0:0:
192,192,105697,1,8,0:0:0:0:
192,192,105752,1,0,0:0:0:0:
320,192,105808,1,8,0:0:0:0:
192,192,105919,1,0,0:0:0:0:
192,192,105975,1,0,0:0:0:0:
320,192,106030,1,8,0:0:0:0:
320,192,106141,5,8,0:0:0:0:
192,192,106197,1,0,0:0:0:0:
320,192,106253,1,8,0:0:0:0:
320,192,106308,1,8,0:0:0:0:
192,192,106364,1,0,0:0:0:0:
192,192,106419,1,0,0:0:0:0:
320,192,106475,1,8,0:0:0:0:
320,192,106530,1,8,0:0:0:0:
192,192,106585,1,0,0:0:0:0:
192,192,106641,1,0,0:0:0:0:
320,192,106697,1,8,0:0:0:0:
320,192,106808,5,8,0:0:0:0:
320,192,106864,1,8,0:0:0:0:
192,192,106919,1,0,0:0:0:0:
320,192,107030,5,8,0:0:0:0:
320,192,107086,1,8,0:0:0:0:
192,192,107141,1,0,0:0:0:0:
320,192,107252,1,8,0:0:0:0:
320,192,107308,1,8,0:0:0:0:
192,192,107363,1,0,0:0:0:0:
192,192,107475,1,0,0:0:0:0:
192,192,107530,1,0,0:0:0:0:
320,192,107586,1,8,0:0:0:0:
320,192,107697,5,8,0:0:0:0:
320,192,107809,1,8,0:0:0:0:
192,192,107863,1,0,0:0:0:0:
320,192,107919,5,8,0:0:0:0:
320,192,108030,1,8,0:0:0:0:
320,192,108086,1,8,0:0:0:0:
192,192,108141,1,0,0:0:0:0:
192,192,108196,1,0,0:0:0:0:
320,192,108252,1,8,0:0:0:0:
192,192,108363,1,0,0:0:0:0:
320,192,108419,1,8,0:0:0:0:
192,192,108474,1,0,0:0:0:0:
320,192,108584,5,8,0:0:0:0:
192,192,108640,1,0,0:0:0:0:
192,192,108695,1,0,0:0:0:0:
320,192,108806,5,8,0:0:0:0:
192,192,108862,1,0,0:0:0:0:
192,192,108917,1,0,0:0:0:0:
320,192,109029,1,8,0:0:0:0:
192,192,109084,1,0,0:0:0:0:
192,192,109140,1,0,0:0:0:0:
192,192,109251,1,0,0:0:0:0:
192,192,109306,1,0,0:0:0:0:
320,192,109362,1,8,0:0:0:0:
192,192,109473,1,0,0:0:0:0:
192,192,109529,1,0,0:0:0:0:
320,192,109584,1,8,0:0:0:0:
320,192,109695,5,8,0:0:0:0:
192,192,109751,1,0,0:0:0:0:
320,192,109807,1,8,0:0:0:0:
320,192,109862,1,8,0:0:0:0:
192,192,109918,1,0,0:0:0:0:
192,192,109973,1,0,0:0:0:0:
320,192,110029,1,8,0:0:0:0:
320,192,110084,1,8,0:0:0:0:
192,192,110139,1,0,0:0:0:0:
192,192,110195,1,0,0:0:0:0:
320,192,110251,1,8,0:0:0:0:
320,192,110362,5,8,0:0:0:0:
192,192,110418,1,0,0:0:0:0:
192,192,110473,1,0,0:0:0:0:
320,192,110584,5,8,0:0:0:0:
192,192,110640,1,0,0:0:0:0:
192,192,110695,1,0,0:0:0:0:
320,192,110806,1,8,0:0:0:0:
192,192,110862,1,0,0:0:0:0:
192,192,110917,1,0,0:0:0:0:
192,192,111029,1,0,0:0:0:0:
192,192,111084,1,0,0:0:0:0:
320,192,111140,1,8,0:0:0:0:
320,192,111251,5,8,0:0:0:0:
320,192,111363,1,8,0:0:0:0:
192,192,111417,1,0,0:0:0:0:
320,192,111473,5,8,0:0:0:0:
320,192,111584,1,8,0:0:0:0:
320,192,111640,1,8,0:0:0:0:
192,192,111695,1,0,0:0:0:0:
192,192,111750,1,0,0:0:0:0:
320,192,111806,1,8,0:0:0:0:
192,192,111917,1,0,0:0:0:0:
192,192,111973,1,0,0:0:0:0:
320,192,112028,1,8,0:0:0:0:
320,192,112139,5,8,0:0:0:0:
192,192,112195,1,0,0:0:0:0:
192,192,112250,1,0,0:0:0:0:
320,192,112361,5,8,0:0:0:0:
192,192,112417,1,0,0:0:0:0:
192,192,112472,1,0,0:0:0:0:
320,192,112584,1,8,0:0:0:0:
192,192,112639,1,0,0:0:0:0:
192,192,112695,1,0,0:0:0:0:
192,192,112806,1,0,0:0:0:0:
192,192,112861,1,0,0:0:0:0:
320,192,112917,1,8,0:0:0:0:
192,192,113028,1,0,0:0:0:0:
192,192,113084,1,0,0:0:0:0:
320,192,113139,1,8,0:0:0:0:
320,192,113250,5,8,0:0:0:0:
192,192,113306,1,0,0:0:0:0:
320,192,113362,1,8,0:0:0:0:
320,192,113417,1,8,0:0:0:0:
192,192,113473,1,0,0:0:0:0:
192,192,113528,1,0,0:0:0:0:
320,192,113584,1,8,0:0:0:0:
320,192,113639,1,8,0:0:0:0:
192,192,113694,1,0,0:0:0:0:
192,192,113750,1,0,0:0:0:0:
320,192,113806,1,8,0:0:0:0:
192,192,113916,1,0,0:0:0:0:
192,192,113953,1,0,0:0:0:0:
192,192,113990,1,0,0:0:0:0:
192,192,114027,1,0,0:0:0:0:
192,192,114064,1,0,0:0:0:0:
192,192,114101,1,0,0:0:0:0:
320,192,114138,1,8,0:0:0:0:
192,192,114249,1,0,0:0:0:0:
192,192,114287,1,0,0:0:0:0:
192,192,114324,1,0,0:0:0:0:
192,192,114361,1,0,0:0:0:0:
192,192,114398,1,0,0:0:0:0:
192,192,114435,1,0,0:0:0:0:
192,192,114472,1,0,0:0:0:0:
192,192,114509,1,0,0:0:0:0:
320,192,114546,1,8,0:0:0:0:
192,192,114657,1,0,0:0:0:0:
192,192,114695,1,0,0:0:0:0:
192,192,114732,1,0,0:0:0:0:
192,192,114769,1,0,0:0:0:0:
192,192,114806,1,0,0:0:0:0:
192,192,114843,1,0,0:0:0:0:
192,192,114880,1,0,0:0:0:0:
192,192,114917,1,0,0:0:0:0:
320,192,114954,1,8,0:0:0:0:
192,192,115064,1,0,0:0:0:0:
192,192,115102,1,0,0:0:0:0:
192,192,115139,1,0,0:0:0:0:
192,192,115176,1,0,0:0:0:0:
192,192,115213,1,0,0:0:0:0:
192,192,115250,1,0,0:0:0:0:
192,192,115287,1,0,0:0:0:0:
192,192,115324,1,0,0:0:0:0:
320,192,115360,1,8,0:0:0:0:
320,192,115398,1,8,0:0:0:0:
320,192,115435,1,8,0:0:0:0:
320,192,115472,1,8,0:0:0:0:
320,192,115509,1,8,0:0:0:0:
320,192,115546,1,8,0:0:0:0:
320,192,115583,1,8,0:0:0:0:
320,192,115620,1,8,0:0:0:0:
192,192,115657,1,0,0:0:0:0:
192,192,115694,2,0,B|192:96|320:96|320:192,14,210
192,192,129914,5,0,0:0:0:0:
320,192,130358,1,8,0:0:0:0:
192,192,130803,1,0,0:0:0:0:
192,192,131247,1,0,0:0:0:0:
320,192,131469,1,8,0:0:0:0:
192,192,131691,1,0,0:0:0:0:
320,192,132136,1,8,0:0:0:0:
320,192,132358,1,8,0:0:0:0:
192,192,132580,1,0,0:0:0:0:
192,192,132802,1,0,0:0:0:0:
320,192,133024,1,8,0:0:0:0:
320,192,133247,1,8,0:0:0:0:
192,192,133469,1,0,0:0:0:0:
192,192,133913,1,0,0:0:0:0:
320,192,134135,1,8,0:0:0:0:
320,192,134358,1,8,0:0:0:0:
192,192,134580,1,0,0:0:0:0:
192,192,134802,1,0,0:0:0:0:
320,192,135024,1,8,0:0:0:0:
320,192,135246,1,8,0:0:0:0:
192,192,135469,1,0,0:0:0:0:
192,192,135691,1,0,0:0:0:0:
320,192,135913,1,8,0:0:0:0:
192,192,135987,1,0,0:0:0:0:
192,192,136061,1,0,0:0:0:0:
320,192,136135,1,8,0:0:0:0:
192,192,136209,1,0,0:0:0:0:
192,192,136283,1,0,0:0:0:0:
320,192,136357,1,8,0:0:0:0:
192,192,136431,1,0,0:0:0:0:
192,192,136505,1,0,0:0:0:0:
320,192,136580,1,8,0:0:0:0:
192,192,136653,1,0,0:0:0:0:
192,192,136727,1,0,0:0:0:0:
320,192,136802,1,8,0:0:0:0:
320,192,137024,1,8,0:0:0:0:
192,192,137246,1,0,0:0:0:0:
192,192,137357,1,0,0:0:0:0:
320,192,137468,1,8,0:0:0:0:
320,192,137690,1,8,0:0:0:0:
320,192,137801,1,8,0:0:0:0:
192,192,137913,1,0,0:0:0:0:
320,192,138135,1,8,0:0:0:0:
320,192,138357,1,8,0:0:0:0:
192,192,138468,1,0,0:0:0:0:
320,192,138579,1,8,0:0:0:0:
320,192,138801,1,8,0:0:0:0:
192,192,139024,1,0,0:0:0:0:
320,192,139134,1,8,0:0:0:0:
320,192,139246,1,8,0:0:0:0:
192,192,139468,1,0,0:0:0:0:
320,192,139690,1,8,0:0:0:0:
320,192,139801,1,8,0:0:0:0:
192,192,139912,1,0,0:0:0:0:
192,192,140023,1,0,0:0:0:0:
320,192,140135,1,8,0:0:0:0:
320,192,140356,1,8,0:0:0:0:
192,192,140468,1,0,0:0:0:0:
192,192,140579,1,0,0:0:0:0:
192,192,140801,1,0,0:0:0:0:
192,192,140912,1,0,0:0:0:0:
320,192,141023,1,8,0:0:0:0:
320,192,141245,1,8,0:0:0:0:
192,192,141357,1,0,0:0:0:0:
320,192,141467,1,8,0:0:0:0:
320,192,141690,1,8,0:0:0:0:
192,192,141912,1,0,0:0:0:0:
320,192,142134,1,8,0:0:0:0:
192,192,142356,1,0,0:0:0:0:
320,192,142839,1,8,0:0:0:0:
320,192,143081,1,8,0:0:0:0:
320,192,143331,1,8,0:0:0:0:
320,192,143638,1,8,0:0:0:0:
192,192,143971,1,0,0:0:0:0:
192,192,144346,1,0,0:0:0:0:
320,192,144846,1,8,0:0:0:0:
320,192,145068,1,8,0:0:0:0:
192,192,145290,1,0,0:0:0:0:
192,192,145512,1,0,0:0:0:0:
320,192,145734,1,8,0:0:0:0:
192,192,146179,1,0,0:0:0:0:
192,192,146401,1,0,0:0:0:0:
320,192,146623,1,8,0:0:0:0:
320,192,146846,1,8,0:0:0:0:
192,192,147068,1,0,0:0:0:0:
192,192,147290,1,0,0:0:0:0:
320,192,147512,1,8,0:0:0:0:
192,192,147734,1,0,0:0:0:0:
320,192,147957,1,8,0:0:0:0:
192,192,148179,1,0,0:0:0:0:
192,192,148401,1,0,0:0:0:0:
192,192,148846,1,0,0:0:0:0:
192,192,149068,1,0,0:0:0:0:
320,192,149290,1,8,0:0:0:0:
192,192,149734,1,0,0:0:0:0:
320,192,149957,1,8,0:0:0:0:
320,192,150179,1,8,0:0:0:0:
192,192,150623,1,0,0:0:0:0:
320,192,150846,1,8,0:0:0:0:
192,192,151068,1,0,0:0:0:0:
192,192,151142,1,0,0:0:0:0:
320,192,151216,1,8,0:0:0:0:
192,192,151290,1,0,0:0:0:0:
192,192,151364,1,0,0:0:0:0:
192,192,151438,1,0,0:0:0:0:
320,192,151512,1,8,0:0:0:0:
192,192,151734,1,0,0:0:0:0:
320,192,151957,1,8,0:0:0:0:
192,192,152401,1,0,0:0:0:0:
192,192,152623,1,0,0:0:0:0:
320,192,152846,1,8,0:0:0:0:
192,192,153290,1,0,0:0:0:0:
320,192,153512,1,8,0:0:0:0:
320,192,153734,1,8,0:0:0:0:
320,192,154179,1,8,0:0:0:0:
320,192,154401,1,8,0:0:0:0:
192,192,154623,1,0,0:0:0:0:
192,192,154846,1,0,0:0:0:0:
320,192,155068,1,8,0:0:0:0:
192,192,155290,1,0,0:0:0:0:
192,192,155512,1,0,0:0:0:0:
192,192,155734,1,0,0:0:0:0:
192,192,155957,1,0,0:0:0:0:
320,192,156179,1,8,0:0:0:0:
320,192,156401,1,8,0:0:0:0:
192,192,156623,1,0,0:0:0:0:
320,192,156846,1,8,0:0:0:0:
320,192,157068,1,8,0:0:0:0:
192,192,157290,1,0,0:0:0:0:
192,192,157512,1,0,0:0:0:0:
320,192,157734,1,8,0:0:0:0:
320,192,157957,1,8,0:0:0:0:
320,192,158179,1,8,0:0:0:0:
320,192,158401,1,8,0:0:0:0:
192,192,158623,1,0,0:0:0:0:
192,192,158846,1,0,0:0:0:0:
320,192,159068,1,8,0:0:0:0:
192,192,159290,1,0,0:0:0:0:
192,192,159512,1,0,0:0:0:0:
320,192,159734,1,8,0:0:0:0:
320,192,159957,1,8,0:0:0:0:
192,192,160401,1,0,0:0:0:0:
320,192,160623,1,8,0:0:0:0:
320,192,160845,1,8,0:0:0:0:
192,192,161068,1,0,0:0:0:0:
320,192,161290,1,8,0:0:0:0:
320,192,161512,1,8,0:0:0:0:
192,192,161734,1,0,0:0:0:0:
320,192,161957,1,8,0:0:0:0:
320,192,162179,1,8,0:0:0:0:
192,192,162401,1,0,0:0:0:0:
192,192,162623,1,0,0:0:0:0:
192,192,163068,1,0,0:0:0:0:
192,192,163290,1,0,0:0:0:0:
320,192,163512,1,8,0:0:0:0:
192,192,163957,1,0,0:0:0:0:
320,192,164179,1,8,0:0:0:0:
320,192,164401,1,8,0:0:0:0:
192,192,164845,1,0,0:0:0:0:
320,192,165068,1,8,0:0:0:0:
192,192,165290,1,0,0:0:0:0:
192,192,165364,1,0,0:0:0:0:
320,192,165438,1,8,0:0:0:0:
192,192,165512,1,0,0:0:0:0:
192,192,165586,1,0,0:0:0:0:
192,192,165660,1,0,0:0:0:0:
320,192,165734,1,8,0:0:0:0:
192,192,165957,1,0,0:0:0:0:
320,192,166179,1,8,0:0:0:0:
192,192,166623,1,0,0:0:0:0:
192,192,166845,1,0,0:0:0:0:
320,192,167068,1,8,0:0:0:0:
192,192,167512,1,0,0:0:0:0:
320,192,167734,1,8,0:0:0:0:
320,192,167957,1,8,0:0:0:0:
192,192,168401,1,0,0:0:0:0:
320,192,168623,1,8,0:0:0:0:
320,192,168845,1,8,0:0:0:0:
192,192,169068,1,0,0:0:0:0:
192,192,169290,1,0,0:0:0:0:
320,192,169512,1,8,0:0:0:0:
320,192,169734,1,8,0:0:0:0:
192,192,169957,1,0,0:0:0:0:
192,192,170179,1,0,0:0:0:0:
320,192,170401,1,8,0:0:0:0:
320,192,170623,1,8,0:0:0:0:
192,192,170845,1,0,0:0:0:0:
192,192,171068,1,0,0:0:0:0:
320,192,171290,1,8,0:0:0:0:
192,192,171512,1,0,0:0:0:0:
192,192,171957,1,0,0:0:0:0:
320,192,172179,1,8,0:0:0:0:
320,192,172401,1,8,0:0:0:0:
320,192,172457,1,8,0:0:0:0:
320,192,172623,1,8,0:0:0:0:
320,192,172679,1,8,0:0:0:0:
320,192,172845,1,8,0:0:0:0:
320,192,172957,1,8,0:0:0:0:
320,192,173068,1,8,0:0:0:0:
320,192,173142,1,8,0:0:0:0:
320,192,173216,1,8,0:0:0:0:
192,192,173290,1,0,0:0:0:0:
192,192,173364,1,0,0:0:0:0:
192,192,173438,1,0,0:0:0:0:
320,192,173512,1,8,0:0:0:0:
192,192,173734,1,0,0:0:0:0:
320,192,173957,1,8,0:0:0:0:
192,192,174253,1,0,0:0:0:0:
192,192,174623,1,0,0:0:0:0:
320,192,174994,1,8,0:0:0:0:
192,192,175438,1,0,0:0:0:0:
192,192,175883,1,4,0:0:0:0:
192,192,177482,1,4,0:0:0:0:
192,192,177704,1,4,0:0:0:0:
192,192,179260,1,4,0:0:0:0:
192,192,179482,1,4,0:0:0:0:
192,192,181038,1,4,0:0:0:0:
192,192,181260,1,4,0:0:0:0:
192,192,182815,1,4,0:0:0:0:
192,192,183038,1,4,0:0:0:0:
192,192,183149,1,0,0:0:0:0:
320,192,183260,1,8,0:0:0:0:
320,192,183371,1,8,0:0:0:0:
192,192,183482,1,0,0:0:0:0:
320,192,183593,1,8,0:0:0:0:
320,192,183704,1,8,0:0:0:0:
192,192,183815,1,0,0:0:0:0:
192,192,183927,1,0,0:0:0:0:
192,192,184038,1,0,0:0:0:0:
320,192,184149,1,8,0:0:0:0:
192,192,184260,1,0,0:0:0:0:
320,192,184371,1,8,0:0:0:0:
192,192,184482,1,0,0:0:0:0:
192,192,184593,1,4,0:0:0:0:
192,192,184704,1,0,0:0:0:0:
192,192,184815,1,4,0:0:0:0:
192,192,184927,1,4,0:0:0:0:
320,192,185038,1,8,0:0:0:0:
320,192,185149,1,8,0:0:0:0:
192,192,185260,1,0,0:0:0:0:
320,192,185371,1,8,0:0:0:0:
320,192,185482,1,8,0:0:0:0:
192,192,185593,1,0,0:0:0:0:
192,192,185704,1,0,0:0:0:0:
192,192,185815,1,0,0:0:0:0:
320,192,185927,1,8,0:0:0:0:
320,192,186038,1,8,0:0:0:0:
192,192,186149,1,0,0:0:0:0:
320,192,186260,1,8,0:0:0:0:
192,192,186371,1,4,0:0:0:0:
192,192,186482,1,0,0:0:0:0:
192,192,186593,1,4,0:0:0:0:
320,192,186704,1,8,0:0:0:0:
320,192,186815,1,8,0:0:0:0:
192,192,186927,1,0,0:0:0:0:
320,192,187037,1,8,0:0:0:0:
192,192,187148,1,0,0:0:0:0:
320,192,187259,1,8,0:0:0:0:
320,192,187370,1,8,0:0:0:0:
192,192,187481,1,0,0:0:0:0:
320,192,187593,1,8,0:0:0:0:
192,192,187704,1,0,0:0:0:0:
320,192,187815,1,8,0:0:0:0:
192,192,187926,1,0,0:0:0:0:
320,192,188037,1,8,0:0:0:0:
192,192,188148,1,0,0:0:0:0:
192,192,188259,1,4,0:0:0:0:
192,192,188370,1,0,0:0:0:0:
192,192,188482,1,4,0:0:0:0:
192,192,188593,1,0,0:0:0:0:
320,192,188704,1,8,0:0:0:0:
192,192,188815,1,0,0:0:0:0:
192,192,188926,1,0,0:0:0:0:
320,192,189037,1,8,0:0:0:0:
320,192,189148,1,8,0:0:0:0:
192,192,189259,1,0,0:0:0:0:
320,192,189371,1,8,0:0:0:0:
192,192,189482,1,0,0:0:0:0:
320,192,189593,1,8,0:0:0:0:
192,192,189704,1,0,0:0:0:0:
320,192,189815,1,8,0:0:0:0:
192,192,189927,1,4,0:0:0:0:
192,192,190037,1,4,0:0:0:0:
192,192,190148,1,0,0:0:0:0:
320,192,190260,1,8,0:0:0:0:
320,192,190315,1,8,0:0:0:0:
192,192,190371,1,0,0:0:0:0:
320,192,190482,1,8,0:0:0:0:
320,192,190593,1,8,0:0:0:0:
192,192,190704,1,0,0:0:0:0:
192,192,190760,1,0,0:0:0:0:
320,192,190815,1,8,0:0:0:0:
320,192,190926,1,8,0:0:0:0:
192,192,191037,1,0,0:0:0:0:
320,192,191149,1,8,0:0:0:0:
320,192,191204,1,8,0:0:0:0:
192,192,191260,1,0,0:0:0:0:
320,192,191371,1,8,0:0:0:0:
192,192,191482,1,0,0:0:0:0:
320,192,191593,1,8,0:0:0:0:
192,192,191704,1,4,0:0:0:0:
192,192,191815,1,4,0:0:0:0:
192,192,191926,1,4,0:0:0:0:
192,192,192038,1,4,0:0:0:0:
192,192,192093,1,0,0:0:0:0:
320,192,192149,1,8,0:0:0:0:
320,192,192260,1,8,0:0:0:0:
320,192,192371,1,8,0:0:0:0:
192,192,192482,1,0,0:0:0:0:
320,192,192593,1,8,0:0:0:0:
192,192,192649,1,0,0:0:0:0:
320,192,192704,1,8,0:0:0:0:
192,192,192815,1,0,0:0:0:0:
320,192,192927,1,8,0:0:0:0:
192,192,193038,1,0,0:0:0:0:
320,192,193149,1,8,0:0:0:0:
192,192,193260,1,0,0:0:0:0:
192,192,193315,1,0,0:0:0:0:
320,192,193371,1,8,0:0:0:0:
192,192,193482,1,4,0:0:0:0:
192,192,193593,1,4,0:0:0:0:
192,192,193704,1,4,0:0:0:0:
192,192,193815,1,4,0:0:0:0:
192,192,193871,1,0,0:0:0:0:
192,192,193926,1,0,0:0:0:0:
320,192,194037,1,8,0:0:0:0:
320,192,194148,1,8,0:0:0:0:
192,192,194259,1,0,0:0:0:0:
320,192,194370,1,8,0:0:0:0:
320,192,194481,1,8,0:0:0:0:
192,192,194592,1,0,0:0:0:0:
320,192,194704,1,8,0:0:0:0:
192,192,194815,1,0,0:0:0:0:
320,192,194926,1,8,0:0:0:0:
192,192,195037,1,0,0:0:0:0:
320,192,195148,1,8,0:0:0:0:
192,192,195259,1,0,0:0:0:0:
192,192,195370,1,4,0:0:0:0:
192,192,195481,1,0,0:0:0:0:
192,192,195593,1,4,0:0:0:0:
192,192,195704,1,0,0:0:0:0:
320,192,195815,1,8,0:0:0:0:
320,192,195926,1,8,0:0:0:0:
192,192,196037,1,0,0:0:0:0:
320,192,196148,1,8,0:0:0:0:
320,192,196259,1,8,0:0:0:0:
192,192,196370,1,0,0:0:0:0:
320,192,196482,1,8,0:0:0:0:
192,192,196593,1,0,0:0:0:0:
320,192,196704,1,8,0:0:0:0:
192,192,196815,1,0,0:0:0:0:
320,192,196926,1,8,0:0:0:0:
192,192,197037,1,0,0:0:0:0:
192,192,197148,1,4,0:0:0:0:
192,192,197259,1,0,0:0:0:0:
192,192,197371,1,4,0:0:0:0:
192,192,197482,1,0,0:0:0:0:
320,192,197593,1,8,0:0:0:0:
320,192,197704,1,8,0:0:0:0:
192,192,197815,1,0,0:0:0:0:
320,192,197926,1,8,0:0:0:0:
320,192,198037,1,8,0:0:0:0:
192,192,198148,1,0,0:0:0:0:
320,192,198260,1,8,0:0:0:0:
192,192,198371,1,0,0:0:0:0:
320,192,198482,1,8,0:0:0:0:
192,192,198593,1,0,0:0:0:0:
320,192,198704,1,8,0:0:0:0:
192,192,198815,1,0,0:0:0:0:
192,192,198926,1,4,0:0:0:0:
192,192,199037,1,0,0:0:0:0:
192,192,199149,1,4,0:0:0:0:
192,192,199260,1,0,0:0:0:0:
320,192,199371,1,8,0:0:0:0:
320,192,199482,1,8,0:0:0:0:
192,192,199593,1,0,0:0:0:0:
320,192,199704,1,8,0:0:0:0:
320,192,199815,1,8,0:0:0:0:
192,192,199926,1,0,0:0:0:0:
320,192,200038,1,8,0:0:0:0:
192,192,200149,1,0,0:0:0:0:
320,192,200260,1,8,0:0:0:0:
192,192,200371,1,0,0:0:0:0:
320,192,200482,1,8,0:0:0:0:
192,192,200593,1,0,0:0:0:0:
192,192,200704,1,4,0:0:0:0:
192,192,200815,1,0,0:0:0:0:
192,192,200926,1,4,0:0:0:0:
192,192,201037,1,0,0:0:0:0:
320,192,201148,1,8,0:0:0:0:
320,192,201259,1,8,0:0:0:0:
192,192,201370,1,0,0:0:0:0:
320,192,201481,1,8,0:0:0:0:
320,192,201592,1,8,0:0:0:0:
192,192,201703,1,0,0:0:0:0:
320,192,201815,1,8,0:0:0:0:
192,192,201926,1,0,0:0:0:0:
320,192,202037,1,8,0:0:0:0:
192,192,202148,1,0,0:0:0:0:
320,192,202259,1,8,0:0:0:0:
192,192,202370,1,0,0:0:0:0:
192,192,202481,1,4,0:0:0:0:
192,192,202592,1,0,0:0:0:0:
192,192,202704,1,4,0:0:0:0:
192,192,202815,1,0,0:0:0:0:
320,192,202926,1,8,0:0:0:0:
320,192,203037,1,8,0:0:0:0:
192,192,203148,1,0,0:0:0:0:
320,192,203259,1,8,0:0:0:0:
320,192,203370,1,8,0:0:0:0:
192,192,203481,1,0,0:0:0:0:
320,192,203593,1,8,0:0:0:0:
192,192,203704,1,0,0:0:0:0:
320,192,203815,1,8,0:0:0:0:
192,192,203926,1,0,0:0:0:0:
320,192,204037,1,8,0:0:0:0:
192,192,204148,1,0,0:0:0:0:
192,192,204259,1,4,0:0:0:0:
192,192,204370,1,0,0:0:0:0:
192,192,204481,1,4,0:0:0:0:
