osu file format v12

[General]
AudioFilename: akkord.mp3
AudioLeadIn: 0
PreviewTime: 65803
Countdown: 0
SampleSet: Soft
StackLeniency: 0.7
Mode: 0
LetterboxInBreaks: 0

[Editor]
DistanceSpacing: 1
BeatDivisor: 4
GridSize: 8

[Metadata]
Title:LOST GARDEN
TitleUnicode:LOST GARDEN
Artist:No Life Negotiator
ArtistUnicode:No Life Negotiator
Creator:Verlaren
Version:Normal
Source:fortissimo EXS//Akkord:nächsten Phase
Tags:opening lacryma satomura momiji yoshino reiji sakura nagisa suzushiro sayuki kurobane ryuichi
BeatmapID:158475
BeatmapSetID:51743

[Difficulty]
HPDrainRate:4
CircleSize:3
OverallDifficulty:4
ApproachRate:5
SliderMultiplier:1
SliderTickRate:2

[Events]
//Background and Video events
Video,0,"akkord.avi"
0,0,"EXS.jpg",0,0
//Break Periods
2,88104,89305
//Storyboard Layer 0 (Background)
//Storyboard Layer 1 (Fail)
//Storyboard Layer 2 (Pass)
//Storyboard Layer 3 (Foreground)
//Storyboard Sound Samples
//Background Colour Transformations
3,100,0,0,0

[TimingPoints]
3645,348.837209302326,4,2,1,40,1,0
8877,348.837209302326,4,2,1,74,1,1
14371,-100,4,2,1,74,0,1
14545,-100,4,2,1,74,0,1
19690,-100,4,2,1,60,0,1
20039,-100,4,2,1,60,0,0
21086,348.837209302326,4,2,1,50,1,0
37830,-100,4,2,1,50,0,0
54574,-100,4,2,1,50,0,0
65754,348.837209302326,4,2,1,74,1,1
66102,-100,4,2,1,74,0,1
68893,-100,4,2,1,74,0,1
73777,-100,4,2,1,74,0,1
74474,-100,4,2,1,74,0,1
75172,-100,4,2,1,74,0,1
75870,-100,4,2,1,74,0,1
88079,-100,4,2,1,40,0,0
90505,348.837209302326,4,2,1,50,1,1
90853,-100,4,2,1,50,0,0
101652,349.548499854355,4,2,1,50,1,0
107244,-66.6666666666667,4,2,1,50,0,0
112488,-66.6666666666667,4,2,1,10,0,0

[Colours]
Combo1 : 117,255,255
Combo2 : 0,76,196
Combo3 : 17,150,217
Combo4 : 224,142,120
Combo5 : 163,194,222
Combo6 : 205,51,59
Combo7 : 254,39,44
Combo8 : 121,19,30

[HitObjects]
144,144,3645,2,0,P|95:138|47:154,2,100,2|0|0,0:0|0:0|0:0,0:0:0:0:
214,214,4691,1,0,0:0:0:0:
284,284,5040,2,0,P|332:289|380:273,2,100,2|0|0,0:0|0:0|0:0,0:0:0:0:
214,214,6086,1,0,0:0:0:0:
120,256,6435,86,0,P|73:271|37:306,1,100,2|0,0:0|0:0,0:0:0:0:
128,352,7133,2,0,P|174:336|210:301,1,100
256,208,7831,1,2,0:0:0:0:
326,137,8179,1,0,0:0:0:0:
396,207,8528,1,2,0:0:0:0:
325,277,8877,6,0,P|283:313|268:362,2,100,4|8|0,0:0|0:0|0:0,0:0:0:0:
396,207,9923,1,8,0:0:0:0:
396,207,10097,2,0,P|440:160|448:120,2,100,2|0|0,0:0|0:0|0:0,0:0:0:0:
325,136,11144,2,0,L|325:85,2,50,2|8|0,0:0|0:0|0:0,0:0:0:0:
289,171,11667,6,0,P|248:200|192:192,1,100,0|8,0:0|0:0,0:0:0:0:
112,152,12365,1,2,0:0:0:0:
182,81,12714,1,8,0:0:0:0:
182,81,12888,1,2,0:0:0:0:
208,176,13237,2,0,P|224:224|208:280,1,100,0|2,0:0|0:0,0:0:0:0:
112,248,13935,2,0,L|96:312,2,50,2|8|2,0:0|0:0|0:0,0:0:0:0:
96,200,14458,22,0,P|72:144|80:88,1,100,4|8,0:0|0:0,0:0:0:0:
145,35,15156,2,0,P|185:59|240:56,1,100,2|8,0:0|0:0,0:0:0:0:
288,40,15679,2,0,P|339:38|379:62,1,100,2|0,0:0|0:0,0:0:0:0:
408,160,16377,1,2,0:0:0:0:
384,256,16725,2,0,L|408:304,2,50,2|8|0,0:0|0:0|0:0,0:0:0:0:
360,216,17249,6,0,P|312:192|256:208,1,100,4|8,0:0|0:0,0:0:0:0:
256,296,17946,1,0,0:0:0:0:
168,248,18295,1,8,0:0:0:0:
168,248,18470,1,2,0:0:0:0:
96,320,18818,2,0,P|64:264|72:224,1,100,2|0,0:0|0:0,0:0:0:0:
68,130,19516,2,0,L|68:81,2,50,2|8|2,0:0|0:0|0:0,0:0:0:0:
360,320,21086,70,0,P|304:240|336:144,1,200,4|2,0:0|0:0,0:0:0:0:
400,224,22132,1,8,0:0:0:0:
424,128,22481,2,0,P|400:80|352:56,1,100,2|8,0:0|0:0,0:0:0:0:
260,57,23179,2,0,P|220:79|196:127,1,100,2|8,0:0|0:0,0:0:0:0:
176,224,23876,5,4,0:0:0:0:
144,320,24225,2,0,P|96:280|80:232,1,100,8|0,0:0|0:0,0:0:0:0:
82,146,24923,1,8,0:0:0:0:
120,56,25272,2,0,P|160:88|184:136,1,100,4|8,0:0|0:0,0:0:0:0:
253,201,25969,2,0,P|275:243|315:275,1,100,2|8,0:0|0:0,0:0:0:0:
416,296,26667,5,4,0:0:0:0:
408,200,27016,2,0,P|386:158|346:126,2,100,8|0|8,0:0|0:0|0:0,0:0:0:0:
416,296,28062,1,4,0:0:0:0:
315,296,28411,1,8,0:0:0:0:
240,232,28760,1,2,0:0:0:0:
256,136,29109,1,8,0:0:0:0:
216,40,29458,6,0,P|181:69|157:117,1,100,4|8,0:0|0:0,0:0:0:0:
79,188,30155,2,0,P|83:261|146:292,1,150,2|0,0:0|0:0,0:0:0:0:
217,221,31027,1,0,0:0:0:0:
287,291,31376,1,0,0:0:0:0:
357,220,31725,1,2,0:0:0:0:
357,220,31899,1,8,0:0:0:0:
286,149,32248,6,0,P|240:104|200:80,1,100,4|8,0:0|0:0,0:0:0:0:
112,64,32946,1,2,0:0:0:0:
64,152,33295,1,8,0:0:0:0:
64,152,33469,2,0,P|48:208|56:256,2,100,2|2|0,0:0|0:0|0:0,0:0:0:0:
168,144,34516,2,0,L|185:97,2,50,2|8|2,0:0|0:0|0:0,0:0:0:0:
200,184,35039,22,0,P|223:237|266:263,1,100,4|8,0:0|0:0,0:0:0:0:
360,256,35737,2,0,P|336:202|293:176,1,100,2|8,0:0|0:0,0:0:0:0:
288,136,36260,1,2,0:0:0:0:
200,184,36609,1,0,0:0:0:0:
168,280,36958,1,2,0:0:0:0:
67,301,37306,2,0,L|64:352,2,50,2|8|2,0:0|0:0|0:0,0:0:0:0:
72,248,37830,6,0,L|80:144,1,100,4|8,0:0|0:0,0:0:0:0:
136,64,38527,2,0,P|168:120|168:168,1,100,2|8,0:0|0:0,0:0:0:0:
168,208,39051,1,2,0:0:0:0:
248,264,39399,1,0,0:0:0:0:
328,320,39748,1,2,0:0:0:0:
398,249,40097,2,0,L|448:248,2,50,2|8|2,0:0|0:0|0:0,0:0:0:0:
362,213,40620,6,0,P|328:160|336:112,1,100,4|8,0:0|0:0,0:0:0:0:
256,56,41318,1,2,0:0:0:0:
185,126,41667,2,0,L|184:176,1,50,8|2,0:0|0:0,0:0:0:0:
136,264,42190,2,0,P|103:226|95:170,1,100,2|0,0:0|0:0,0:0:0:0:
94,77,42888,2,0,L|94:24,2,50,2|8|2,0:0|0:0|0:0,0:0:0:0:
56,112,43411,5,4,0:0:0:0:
40,208,43760,2,0,P|32:264|152:304,1,200,8|8,0:0|0:0,0:0:0:0:
208,232,44806,1,2,0:0:0:0:
312,232,45155,1,8,0:0:0:0:
352,320,45504,2,0,P|408:272|416:232,1,100,2|8,0:0|0:0,0:0:0:0:
414,148,46202,6,0,P|407:125|351:77,1,100,4|8,0:0|0:0,0:0:0:0:
312,168,46899,2,0,P|256:120|249:97,1,100,2|8,0:0|0:0,0:0:0:0:
160,56,47597,2,0,P|104:72|72:120,1,100,4|8,0:0|0:0,0:0:0:0:
56,200,48295,1,2,0:0:0:0:
112,280,48644,1,8,0:0:0:0:
208,288,48992,5,4,0:0:0:0:
296,240,49341,2,0,P|392:216|448:304,1,200,8|8,0:0|0:0,0:0:0:0:
352,320,50388,2,0,L|424:128,1,200,4|2,0:0|0:0,0:0:0:0:
351,61,51434,1,8,0:0:0:0:
280,131,51783,5,4,0:0:0:0:
280,131,52132,2,0,P|200:136|120:56,1,200,8|2,0:0|0:0,0:0:0:0:
32,104,53179,2,0,P|48:200|120:272,1,200,4|2,0:0|0:0,0:0:0:0:
192,368,54225,1,8,0:0:0:0:
304,344,54574,6,0,P|400:296|424:208,1,200,4|8,0:0|0:0,0:0:0:0:
224,216,55969,2,0,B|280:208|296:136,2,100,4|2|8,0:0|0:0|0:0,0:0:0:0:
120,216,57016,1,2,0:0:0:0:
88,120,57365,1,4,0:0:0:0:
168,56,57713,5,2,0:0:0:0:
256,104,58062,1,8,0:0:0:0:
328,32,58411,1,2,0:0:0:0:
388,111,58760,2,0,L|320:184,1,100,4|8,0:0|0:0,0:0:0:0:
408,224,59458,2,0,L|340:297,1,100,2|8,0:0|0:0,0:0:0:0:
256,352,60155,22,0,P|160:320|128:272,2,150,4|8|8,0:0|0:0|0:0,0:0:0:0:
352,312,61551,2,0,P|400:272|416:224,1,100,4|2,0:0|0:0,0:0:0:0:
376,144,62248,2,0,P|328:184|312:232,1,100,8|2,0:0|0:0,0:0:0:0:
256,192,62946,12,0,64341,0:0:0:0:
256,248,65754,6,0,L|256:360,2,100,4|8|2,0:0|0:0|0:0,0:0:0:0:
336,192,66800,2,0,P|248:144|168:200,1,200,8|8,0:0|0:0,0:0:0:0:
144,288,67847,2,0,P|88:240|80:200,1,100,0|8,0:0|0:0,0:0:0:0:
81,117,68544,5,4,0:0:0:0:
176,88,68893,1,8,0:0:0:0:
272,56,69242,2,0,P|320:40|376:40,1,100,2|8,0:0|0:0,0:0:0:0:
440,112,69940,2,0,P|392:128|336:128,1,100,4|8,0:0|0:0,0:0:0:0:
264,192,70637,2,0,P|312:216|368:224,1,100,2|8,0:0|0:0,0:0:0:0:
456,224,71335,6,0,P|408:312|312:304,1,200,4|2,0:0|0:0,0:0:0:0:
256,232,72381,1,8,0:0:0:0:
248,136,72730,2,0,P|192:160|168:200,1,100,4|8,0:0|0:0,0:0:0:0:
171,291,73428,2,0,P|150:322|94:346,1,100,2|8,0:0|0:0,0:0:0:0:
88,248,74126,5,4,0:0:0:0:
56,152,74474,2,0,B|128:136|176:184|176:184|256:184,1,200,8|8,0:0|0:0,0:0:0:0:
316,254,75521,1,4,0:0:0:0:
408,288,75870,2,0,B|424:216|376:168|376:168|376:88,1,200,2|8,0:0|0:0,0:0:0:0:
296,40,76916,5,4,0:0:0:0:
224,104,77265,1,8,0:0:0:0:
224,104,77614,2,0,P|184:144|136:152,1,100,2|8,0:0|0:0,0:0:0:0:
136,56,78312,2,0,P|94:64|54:104,1,100,4|8,0:0|0:0,0:0:0:0:
24,144,78835,2,0,P|64:184|105:192,1,100,0|2,0:0|0:0,0:0:0:0:
140,227,79358,1,8,0:0:0:0:
224,272,79707,5,6,0:0:0:0:
328,272,80056,1,8,0:0:0:0:
408,216,80405,1,2,0:0:0:0:
440,120,80754,1,8,0:0:0:0:
344,88,81102,2,0,P|288:96|240:120,1,100,4|8,0:0|0:0,0:0:0:0:
208,144,81626,2,0,P|168:162|112:170,1,100,0|2,0:0|0:0,0:0:0:0:
77,205,82149,1,8,0:0:0:0:
56,296,82498,6,0,P|104:336|144:336,1,100,4|8,0:0|0:0,0:0:0:0:
224,288,83195,1,2,0:0:0:0:
320,272,83544,1,8,0:0:0:0:
408,312,83893,2,0,P|448:272|464:216,1,100,4|8,0:0|0:0,0:0:0:0:
440,184,84416,2,0,P|408:128|408:88,1,100,0|2,0:0|0:0,0:0:0:0:
442,58,84940,1,8,0:0:0:0:
344,40,85288,86,0,L|240:64,1,100,4|8,0:0|0:0,0:0:0:0:
152,88,85986,2,0,P|96:112|72:152,1,100,2|8,0:0|0:0,0:0:0:0:
39,178,86509,2,0,P|63:234|94:254,2,100,2|0|0,0:0|0:0|0:0,0:0:0:0:
39,77,87556,2,0,L|40:24,2,50,0|0|2,0:0|0:0|0:0,0:0:0:0:
187,107,90505,38,0,P|229:71|244:22,2,100,4|8|2,0:0|0:0|0:0,0:0:0:0:
116,177,91551,1,8,0:0:0:0:
116,177,91726,2,0,P|72:224|64:264,2,100,2|0|0,0:0|0:0|0:0,0:0:0:0:
187,248,92772,2,0,L|187:299,2,50,2|8|0,0:0|0:0|0:0,0:0:0:0:
223,213,93295,6,0,P|264:184|320:192,1,100,4|8,0:0|0:0,0:0:0:0:
400,232,93992,1,2,0:0:0:0:
330,303,94341,1,8,0:0:0:0:
330,303,94516,1,2,0:0:0:0:
304,208,94865,2,0,P|288:160|304:104,1,100,0|2,0:0|0:0,0:0:0:0:
400,136,95563,2,0,L|416:72,2,50,2|8|2,0:0|0:0|0:0,0:0:0:0:
416,184,96086,22,0,P|440:240|432:296,1,100,4|8,0:0|0:0,0:0:0:0:
367,349,96783,2,0,P|327:325|272:328,1,100,0|8,0:0|0:0,0:0:0:0:
224,344,97307,2,0,P|173:346|133:322,1,100
104,224,98004,1,2,0:0:0:0:
128,128,98353,2,0,L|104:80,2,50,2|8|0,0:0|0:0|0:0,0:0:0:0:
152,168,98876,86,0,P|200:192|256:176,1,100,4|8,0:0|0:0,0:0:0:0:
256,88,99574,1,0,0:0:0:0:
344,136,99923,1,8,0:0:0:0:
344,136,100097,1,2,0:0:0:0:
416,64,100446,2,0,P|448:120|440:160,1,100,2|0,0:0|0:0,0:0:0:0:
444,254,101144,2,0,L|444:303,2,50
444,203,101652,21,4,0:0:0:0:
408,112,102001,1,8,0:0:0:0:
320,64,102351,1,2,0:0:0:0:
224,72,102700,1,8,0:0:0:0:
224,72,102875,2,0,P|168:96|136:128,2,100,2|2|0,0:0|0:0|0:0,0:0:0:0:
256,168,103924,2,0,L|296:136,2,50,2|8|2,0:0|0:0|0:0,0:0:0:0:
240,216,104448,6,0,P|286:266|325:276,1,100,4|8,0:0|0:0,0:0:0:0:
411,266,105147,2,0,P|461:219|471:180,1,100,2|8,0:0|0:0,0:0:0:0:
455,94,105846,2,0,P|409:42|370:33,1,100,4|8,0:0|0:0,0:0:0:0:
278,33,106545,2,0,P|226:78|217:117,1,100,2|8,0:0|0:0,0:0:0:0:
256,192,107244,12,0,112488,0:0:0:0:
