osu file format v12

[General]
AudioFilename: akkord.mp3
AudioLeadIn: 0
PreviewTime: 65803
Countdown: 0
SampleSet: Soft
StackLeniency: 0.7
Mode: 0
LetterboxInBreaks: 0

[Editor]
DistanceSpacing: 1
BeatDivisor: 4
GridSize: 8

[Metadata]
Title:LOST GARDEN
TitleUnicode:LOST GARDEN
Artist:No Life Negotiator
ArtistUnicode:No Life Negotiator
Creator:Verlaren
Version:Hard
Source:fortissimo EXS//Akkord:nächsten Phase
Tags:opening lacryma satomura momiji yoshino reiji sakura nagisa suzushiro sayuki kurobane ryuichi
BeatmapID:158473
BeatmapSetID:51743

[Difficulty]
HPDrainRate:5
CircleSize:4
OverallDifficulty:6
ApproachRate:7
SliderMultiplier:1.6
SliderTickRate:2

[Events]
//Background and Video events
Video,0,"akkord.avi"
0,0,"EXS.jpg",0,0
//Break Periods
//Storyboard Layer 0 (Background)
//Storyboard Layer 1 (Fail)
//Storyboard Layer 2 (Pass)
//Storyboard Layer 3 (Foreground)
//Storyboard Sound Samples
//Background Colour Transformations
3,100,0,0,0

[TimingPoints]
3645,348.837209302326,4,2,1,40,1,0
8877,348.837209302326,4,2,1,74,1,1
19690,-100,4,2,1,50,0,1
20039,-100,4,2,1,25,0,0
20912,-100,4,2,1,25,0,0
21086,348.837209302326,4,2,1,50,1,0
21260,-100,4,2,1,50,0,0
29981,-100,4,2,1,25,0,0
30155,-100,4,2,1,50,0,0
31027,-100,4,2,0,50,0,0
31725,-100,4,2,1,50,0,0
43237,-100,4,2,1,50,0,0
43586,-100,4,2,1,50,0,0
54225,-100,4,2,1,50,0,0
54574,-133.333333333333,4,2,1,50,0,0
59806,-100,4,2,1,50,0,0
65754,348.837209302326,4,2,1,74,1,1
88079,-100,4,2,1,50,0,0
89649,-100,4,2,1,25,0,0
90505,348.837209302326,4,2,1,50,1,1
90853,-100,4,2,1,50,0,0
96086,-100,4,2,1,50,0,0
96435,-100,4,2,1,50,0,0
101652,349.548499854355,4,2,1,50,1,0
107332,-66.6666666666667,4,2,1,50,0,0
112488,-66.6666666666667,4,2,1,10,0,0

[Colours]
Combo1 : 117,255,255
Combo2 : 0,76,196
Combo3 : 17,150,217
Combo4 : 224,142,120
Combo5 : 163,194,222
Combo6 : 205,51,59
Combo7 : 254,39,44
Combo8 : 121,19,30

[HitObjects]
232,152,3645,2,0,B|200:176|200:224,2,80,2|0|0,0:0|0:0|0:0,0:0:0:0:
336,128,4168,2,0,B|368:104|368:56,2,80,2|0|0,0:0|0:0|0:0,0:0:0:0:
296,208,4691,5,2,0:0:0:0:
296,208,4865,2,0,B|296:256|344:272,1,80,0|2,0:0|0:0,0:0:0:0:
440,272,5214,2,0,B|440:224|392:208,1,80,0|0,0:0|0:0,0:0:0:0:
336,128,5563,1,2,0:0:0:0:
176,72,5738,5,0,0:0:0:0:
168,152,5912,1,0,0:0:0:0:
200,224,6086,1,0,0:0:0:0:
272,264,6261,1,2,0:0:0:0:
344,216,6435,6,0,B|368:248|360:296,2,80,2|0|0,0:0|0:0|0:0,0:0:0:0:
296,144,6958,2,0,B|272:112|272:64,2,80,2|0|0,0:0|0:0|0:0,0:0:0:0:
232,288,7481,6,0,B|312:224,1,80,0|2,0:0|0:0,0:0:0:0:
416,80,7830,2,0,B|352:128,2,80,0|2|0,0:0|0:0|0:0,0:0:0:0:
472,176,8353,1,0,0:0:0:0:
448,248,8528,1,2,0:0:0:0:
424,320,8702,1,0,0:0:0:0:
352,288,8877,70,0,B|280:240|272:152,2,160,4|8|2,0:0|0:0|0:0,0:0:0:0:
472,176,9924,1,8,0:0:0:0:
472,176,10098,1,2,0:0:0:0:
376,48,10447,1,2,0:0:0:0:
216,16,10796,1,2,0:0:0:0:
96,120,11144,22,0,B|64:152|64:208,1,80,0|8,0:0|0:0,0:0:0:0:
34,264,11493,2,0,B|66:232|66:176,1,80,0|4,0:0|0:0,0:0:0:0:
216,224,12016,2,0,P|280:176|360:192,1,160,8|2,0:0|0:0,0:0:0:0:
320,344,12714,1,8,0:0:0:0:
320,344,12889,1,2,0:0:0:0:
354,188,13237,2,0,P|280:176|216:224,1,160,2|2,0:0|0:0,0:0:0:0:
432,48,13935,6,0,B|392:48|360:80,1,80,0|8,0:0|0:0,0:0:0:0:
312,16,14284,2,0,B|280:48|280:96,1,80,2|4,0:0|0:0,0:0:0:0:
360,240,14807,1,8,0:0:0:0:
360,240,15156,1,2,0:0:0:0:
232,336,15505,2,0,B|152:312,1,80,8|2,0:0|0:0,0:0:0:0:
32,208,16028,1,2,0:0:0:0:
32,208,16377,1,2,0:0:0:0:
88,56,16726,69,2,0:0:0:0:
128,128,16900,2,0,B|200:160,1,80,8|2,0:0|0:0,0:0:0:0:
240,232,17249,1,4,0:0:0:0:
280,80,17598,1,8,0:0:0:0:
280,80,17947,1,2,0:0:0:0:
384,200,18296,2,0,B|288:256,1,80,8|2,0:0|0:0,0:0:0:0:
184,328,18819,1,2,0:0:0:0:
344,328,19168,1,2,0:0:0:0:
432,192,19517,1,2,0:0:0:0:
432,192,19690,1,8,0:0:0:0:
256,40,20040,5,4,0:0:0:0:
256,200,20388,1,0,0:0:0:0:
192,152,20563,2,0,P|184:240|240:280,1,160
312,312,21086,5,4,0:0:0:0:
312,312,21261,2,2,B|353:318|400:288,1,80,0|8,0:0|0:0,0:0:0:0:
464,272,21610,1,2,0:0:0:0:
448,192,21784,2,8,B|432:112|352:64,1,160,2|8,0:0|0:0,0:0:0:0:
296,120,22307,2,2,B|224:80|128:96,2,160,2|2|2,0:0|0:0|0:0,0:0:0:0:
256,280,23354,1,2,0:0:0:0:
256,280,23528,1,8,0:0:0:0:
256,280,23703,1,2,0:0:0:0:
104,152,24051,6,2,B|72:128|56:64,2,80,2|10|0,0:0|0:0|0:0,0:0:0:0:
152,216,24574,2,8,B|200:288|200:368,1,160,0|8,0:0|0:0,0:0:0:0:
272,336,25098,2,0,B|352:296|448:352,2,160,2|2|2,0:0|0:0|0:0,0:0:0:0:
144,240,26145,1,2,0:0:0:0:
64,248,26319,2,8,B|8:176,1,80,8|0,0:0|0:0,0:0:0:0:
48,112,26668,1,4,0:0:0:0:
104,56,26842,6,0,B|72:32|16:32,2,80,2|8|0,0:0|0:0|0:0,0:0:0:0:
128,136,27365,2,8,B|208:160|296:128,1,160,0|8,0:0|0:0,0:0:0:0:
360,96,27888,1,2,0:0:0:0:
488,192,28238,1,2,0:0:0:0:
488,192,28586,1,2,0:0:0:0:
400,328,28935,2,2,B|352:344|296:336,2,80,2|8|0,0:0|0:0|0:0,0:0:0:0:
400,328,29458,1,4,0:0:0:0:
392,192,29807,6,0,B|312:192,1,80,8|0,0:0|0:0,0:0:0:0:
120,192,30156,2,0,B|200:192,1,80,8|0,0:0|0:0,0:0:0:0:
256,32,30505,1,8,0:0:0:0:
256,32,30679,1,2,0:0:0:0:
256,136,31028,85,2,0:0:0:0:
256,296,31377,1,2,0:0:0:0:
256,136,31726,1,8,0:0:0:0:
256,136,31900,1,8,0:0:0:0:
400,288,32248,86,0,B|472:232|464:136,1,160,4|8,0:0|0:0,0:0:0:0:
312,104,32947,1,2,0:0:0:0:
256,256,33296,2,0,B|256:176,1,80,8|2,0:0|0:0,0:0:0:0:
128,88,33818,2,0,B|64:144|96:248,1,160,2|2,0:0|0:0,0:0:0:0:
256,256,34517,2,0,B|256:352,2,80,2|8|0,0:0|0:0|0:0,0:0:0:0:
296,184,35040,6,8,B|384:208|416:304,1,160,4|8,0:0|0:0,0:0:0:0:
384,128,35738,1,2,0:0:0:0:
256,256,36086,2,0,B|190:210,1,80,8|2,0:0|0:0,0:0:0:0:
256,48,36610,1,2,0:0:0:0:
256,48,36958,1,2,0:0:0:0:
112,112,37306,53,2,0:0:0:0:
152,184,37482,1,8,0:0:0:0:
88,240,37656,1,2,0:0:0:0:
152,288,37831,2,0,B|200:368|304:336,1,160,4|8,0:0|0:0,0:0:0:0:
256,184,38528,1,2,0:0:0:0:
392,264,38877,2,0,B|480:264,1,80,8|2,0:0|0:0,0:0:0:0:
448,104,39400,1,2,0:0:0:0:
448,104,39748,1,2,0:0:0:0:
392,264,40098,22,0,B|360:248|352:192,1,80,2|8,0:0|0:0,0:0:0:0:
256,184,40447,2,0,B|248:144|272:104,1,80,2|4,0:0|0:0,0:0:0:0:
144,40,40970,1,8,0:0:0:0:
144,40,41318,1,2,0:0:0:0:
56,176,41667,2,0,B|88:104,1,80,4|2,0:0|0:0,0:0:0:0:
160,320,42190,2,0,B|128:232|184:160,1,160,2|2,0:0|0:0,0:0:0:0:
336,176,42889,1,2,0:0:0:0:
336,176,43062,2,0,B|368:136|360:96,1,80,8|0,0:0|0:0,0:0:0:0:
304,48,43412,22,2,B|216:48,1,80,4|2,0:0|0:0,0:0:0:0:
144,48,43761,1,10,0:0:0:0:
72,88,43935,1,0,0:0:0:0:
72,88,44109,2,0,B|88:240|280:216,1,240,0|2,0:0|0:0,0:0:0:0:
240,220,44982,1,2,0:0:0:0:
240,220,45331,1,2,0:0:0:0:
384,280,45679,1,0,0:0:0:0:
432,216,45854,1,8,0:0:0:0:
448,136,46028,1,0,0:0:0:0:
448,136,46376,102,0,B|432:88|392:72,1,80,2|8,0:0|0:0,0:0:0:0:
328,112,46726,1,0,0:0:0:0:
264,160,46899,2,0,B|181:146|133:74,1,160,0|8,0:0|0:0,0:0:0:0:
56,80,47424,1,0,0:0:0:0:
56,80,47772,1,2,0:0:0:0:
33,311,48121,2,0,B|178:217,1,160,2|0,0:0|0:0,0:0:0:0:
167,223,48644,1,8,0:0:0:0:
168,224,48819,1,0,0:0:0:0:
168,224,48992,1,4,0:0:0:0:
224,160,49167,6,0,B|216:112|184:80,2,80,2|8|0,0:0|0:0|0:0,0:0:0:0:
248,240,49690,2,0,B|312:352|464:352,1,240,2|2,0:0|0:0,0:0:0:0:
472,192,50562,1,2,0:0:0:0:
472,192,50911,1,0,0:0:0:0:
360,80,51260,2,0,B|424:24,2,80,2|8|0,0:0|0:0|0:0,0:0:0:0:
360,80,51783,1,4,0:0:0:0:
128,144,52132,86,0,B|48:144,2,80,8|2|2,0:0|0:0|0:0,0:0:0:0:
120,224,52655,1,2,0:0:0:0:
120,224,52830,2,0,L|208:224,1,80,8|2,0:0|0:0,0:0:0:0:
320,120,53354,1,0,0:0:0:0:
320,120,53703,1,8,0:0:0:0:
264,272,54051,2,8,B|264:312,4,40
251,230,54574,54,0,P|227:126|347:94,1,240.000009155274,4|0,0:0|0:0,0:0:0:0:
344,104,55621,1,0,0:0:0:0:
352,120,55970,1,2,0:0:0:0:
360,136,56319,1,8,0:0:0:0:
360,256,56668,1,8,0:0:0:0:
360,256,56842,1,8,0:0:0:0:
360,256,57017,2,2,B|256:336,1,120.000004577637,2|6,0:0|0:0,0:0:0:0:
265,330,57714,5,2,0:0:0:0:
248,208,58062,1,8,0:0:0:0:
265,330,58412,1,0,0:0:0:0:
152,288,58761,1,2,0:0:0:0:
72,192,59110,1,8,0:0:0:0:
80,72,59458,1,8,0:0:0:0:
80,72,59807,2,0,B|168:112,2,80,2|2|4,0:0|0:0|0:0,0:0:0:0:
142,229,60504,22,2,B|62:189,2,80,2|0|4,0:0|0:0|0:0,0:0:0:0:
288,264,61202,2,0,B|368:304,2,80,8|0|4,0:0|0:0|0:0,0:0:0:0:
144,328,61899,2,0,L|104:240,1,80,8|0,0:0|0:0,0:0:0:0:
32,248,62248,2,0,L|56:152,1,80,8|0,0:0|0:0,0:0:0:0:
136,184,62597,2,0,L|112:96,1,80,12|0,0:0|0:0,0:0:0:0:
256,192,62946,12,0,64340,0:0:0:0:
256,192,65754,5,6,0:0:0:0:
256,192,66102,1,8,0:0:0:0:
256,192,66451,1,2,0:0:0:0:
144,312,66800,2,0,B|104:280|96:224,1,80,8|2,0:0|0:0,0:0:0:0:
128,168,67149,1,4,0:0:0:0:
320,280,67498,2,0,B|360:248|368:192,1,80,8|2,0:0|0:0,0:0:0:0:
304,80,68021,1,2,0:0:0:0:
304,80,68195,2,0,B|248:8,1,80,8|2,0:0|0:0,0:0:0:0:
168,64,68544,85,6,0:0:0:0:
160,72,68893,1,10,0:0:0:0:
152,80,69242,1,2,0:0:0:0:
40,200,69591,2,0,B|21:247|50:288,2,80,8|2|4,0:0|0:0|0:0,0:0:0:0:
192,240,70288,2,0,B|232:336,1,80,8|2,0:0|0:0,0:0:0:0:
368,248,70812,2,2,B|336:168,2,80,2|10|2,0:0|0:0|0:0,0:0:0:0:
368,248,71335,37,6,0:0:0:0:
240,304,71684,1,10,0:0:0:0:
120,200,72033,1,2,0:0:0:0:
176,48,72381,2,0,B|144:32|96:40,2,80,10|2|4,0:0|0:0|0:0,0:0:0:0:
216,200,73079,2,0,B|256:216|312:192,1,80,8|2,0:0|0:0,0:0:0:0:
336,48,73602,2,0,B|368:32|416:40,2,80,2|8|2,0:0|0:0|0:0,0:0:0:0:
256,192,74300,22,0,B|256:272,2,80,0|8|0,0:0|0:0|0:0,0:0:0:0:
256,192,74823,1,4,0:0:0:0:
256,32,75172,2,0,L|256:112,1,80,2|4,0:0|0:0,0:0:0:0:
184,232,75695,2,0,B|152:264|152:304,2,80,2|8|2,0:0|0:0|0:0,0:0:0:0:
256,192,76219,1,8,0:0:0:0:
320,152,76393,2,0,B|352:120|352:72,1,80,2|8,0:0|0:0,0:0:0:0:
352,80,76916,1,4,0:0:0:0:
184,56,77265,102,0,B|96:48|32:96,1,160,8|2,0:0|0:0,0:0:0:0:
88,248,77963,1,8,0:0:0:0:
96,264,78137,1,0,0:0:0:0:
104,280,78312,1,4,0:0:0:0:
200,152,78660,2,0,B|216:112|256:96,1,80,8|2,0:0|0:0,0:0:0:0:
415,96,79184,2,0,B|401:136|361:152,1,80,2|8,0:0|0:0,0:0:0:0:
256,256,79707,5,6,0:0:0:0:
256,240,80056,1,8,0:0:0:0:
256,224,80405,1,2,0:0:0:0:
320,80,80754,2,0,B|408:104|424:200,1,160,8|6,0:0|0:0,0:0:0:0:
472,344,81451,2,0,B|392:376,1,80,8|2,0:0|0:0,0:0:0:0:
248,320,81974,2,0,B|152:280,1,80,2|8,0:0|0:0,0:0:0:0:
288,176,82498,1,4,0:0:0:0:
136,120,82847,6,0,B|88:200|160:280,1,160,8|2,0:0|0:0,0:0:0:0:
280,176,83544,1,8,0:0:0:0:
280,176,83719,2,0,B|384:160,1,80,2|4,0:0|0:0,0:0:0:0:
312,312,84242,2,0,B|400:352,1,80,8|2,0:0|0:0,0:0:0:0:
448,200,84765,1,2,0:0:0:0:
440,120,84940,1,8,0:0:0:0:
416,48,85114,1,2,0:0:0:0:
336,40,85288,6,0,B|288:48|264:88,1,80,6|2,0:0|0:0,0:0:0:0:
232,152,85637,2,0,B|200:192|168:200,2,80,8|0|8,0:0|0:0|0:0,0:0:0:0:
232,152,86160,1,2,0:0:0:0:
8,192,86509,1,2,0:0:0:0:
121,305,86858,1,0,0:0:0:0:
234,191,87207,1,0,0:0:0:0:
120,77,87556,2,0,B|120:165,2,80
120,80,89649,54,0,B|152:136|136:200|136:200|200:216|216:296|216:296|272:328,1,320,0|4,0:0|0:0,0:0:0:0:
384,296,90505,6,0,P|408:256|424:216,1,80,4|0,0:0|0:0,0:0:0:0:
376,88,90854,1,8,0:0:0:0:
224,48,91203,1,2,0:0:0:0:
296,192,91551,2,0,B|281:207|224:224,1,80,8|2,0:0|0:0,0:0:0:0:
128,352,92075,2,2,B|40:320|32:224,1,160,2|2,0:0|0:0,0:0:0:0:
128,112,92772,2,0,B|48:144,2,80,2|8|0,0:0|0:0|0:0,0:0:0:0:
200,72,93296,6,0,B|272:40|360:64,1,160,0|8,0:0|0:0,0:0:0:0:
312,216,93993,1,2,0:0:0:0:
440,120,94342,1,8,0:0:0:0:
440,120,94517,1,2,0:0:0:0:
312,216,94865,1,2,0:0:0:0:
408,344,95214,1,2,0:0:0:0:
248,328,95563,2,0,B|216:288|184:272,1,80,2|8,0:0|0:0,0:0:0:0:
112,248,95912,2,0,B|72:232|56:184,1,80,2|4,0:0|0:0,0:0:0:0:
32,32,96435,85,10,0:0:0:0:
192,32,96784,1,2,0:0:0:0:
192,192,97133,2,0,B|232:208|280:184,1,80,8|2,0:0|0:0,0:0:0:0:
336,40,97656,2,0,B|424:72|424:168,1,160,2|2,0:0|0:0,0:0:0:0:
304,264,98354,2,0,B|264:296|264:336,1,80,2|8,0:0|0:0,0:0:0:0:
184,312,98703,2,0,B|152:344|112:344,1,80,2|4,0:0|0:0,0:0:0:0:
160,192,99226,101,10,0:0:0:0:
160,192,99575,1,2,0:0:0:0:
80,328,99924,2,0,B|48:296|64:248,1,80,8|2,0:0|0:0,0:0:0:0:
40,96,100447,2,2,B|104:32|200:32,1,160
216,192,101145,2,0,B|296:160,2,80
216,192,101652,1,4,0:0:0:0:
416,64,102001,5,10,0:0:0:0:
368,216,102351,1,2,0:0:0:0:
232,304,102700,1,8,0:0:0:0:
160,272,102875,2,0,B|96:200|96:112,1,160
96,128,103574,1,0,0:0:0:0:
208,16,103924,1,0,0:0:0:0:
208,16,104098,2,0,B|234:54|221:101,1,80,8|2,0:0|0:0,0:0:0:0:
216,192,104448,6,0,B|304:160|312:64,1,160,0|8,0:0|0:0,0:0:0:0:
384,128,104972,1,0,0:0:0:0:
368,224,105147,2,0,B|384:320|496:352,1,160,4|8,0:0|0:0,0:0:0:0:
312,336,105671,1,0,0:0:0:0:
216,312,105846,6,0,B|136:312,1,80,12|2,0:0|0:0,0:0:0:0:
80,232,106196,2,0,B|168:232,1,80,8|2,0:0|0:0,0:0:0:0:
216,168,106545,1,2,0:0:0:0:
160,104,106720,2,0,B|120:104,6,40,0|8|8|8|8|8|4,0:0|0:0|0:0|0:0|0:0|0:0|0:0,0:0:0:0:
256,192,107332,12,0,112488,0:0:0:0:
