osu file format v13

[General]
AudioFilename: No - No.mp3
AudioLeadIn: 0
PreviewTime: -1
Countdown: 1
SampleSet: None
StackLeniency: 0.7
Mode: 2
LetterboxInBreaks: 1
WidescreenStoryboard: 1

[Editor]
DistanceSpacing: 1
BeatDivisor: 4
GridSize: 8
TimelineZoom: 1

[Metadata]
Title:No
TitleUnicode:No
Artist:No
ArtistUnicode:No
Creator:Kitokofox
Version:Salad
Source:
Tags:Novelty osu! peppy
BeatmapID:506889
BeatmapSetID:215635

[Difficulty]
HPDrainRate:2.8
CircleSize:3.5
OverallDifficulty:5
ApproachRate:5
SliderMultiplier:2.1
SliderTickRate:1

[Events]
//Background and Video events
0,0,"No Art 050425e.jpg",0,0
//Break Periods
//Storyboard Layer 0 (Background)
//Storyboard Layer 1 (Fail)
//Storyboard Layer 2 (Pass)
//Storyboard Layer 3 (Foreground)
//Storyboard Sound Samples
//Background Colour Transformations
3,100,163,162,255

[TimingPoints]
30,468.75,4,2,0,70,1,0
6592,-100,4,3,0,70,0,0
7530,-100,4,1,0,70,0,1

[HitObjects]
96,192,30,5,0,0:0:0:0:
344,192,498,1,0,0:0:0:0:
176,192,967,2,0,L|296:16,1,210
464,192,1905,5,0,0:0:0:0:
384,192,2139,1,0,0:0:0:0:
304,192,2373,1,0,0:0:0:0:
48,192,2842,5,0,0:0:0:0:
128,192,3076,1,0,0:0:0:0:
208,192,3310,1,0,0:0:0:0:
456,192,3780,5,0,0:0:0:0:
208,192,4248,1,0,0:0:0:0:
368,192,4717,2,0,L|184:88,1,210
256,192,5655,12,0,7061,0:0:0:0:
344,200,7530,6,0,L|152:104,1,210
464,168,8467,2,0,L|328:8,1,210
64,216,9405,6,0,L|96:8,1,210
456,224,10342,1,0,0:0:0:0:
416,152,10576,1,0,0:0:0:0:
456,80,10811,1,0,0:0:0:0:
304,232,11280,5,0,0:0:0:0:
112,176,11748,1,0,0:0:0:0:
336,160,12217,1,0,0:0:0:0:
144,104,12686,1,0,0:0:0:0:
384,296,13155,6,0,B|176:272|176:272|312:112|312:112|104:80,1,630
56,264,15030,5,0,0:0:0:0:
120,168,15498,1,0,0:0:0:0:
392,168,15967,1,0,0:0:0:0:
456,264,16435,1,0,0:0:0:0:
256,192,16905,5,0,0:0:0:0:
96,192,17373,1,0,0:0:0:0:
256,192,17842,1,0,0:0:0:0:
416,192,18311,1,0,0:0:0:0:
400,272,18780,6,0,L|440:64,1,210
112,272,19717,2,0,L|72:64,1,210
248,304,20655,6,0,L|120:136,1,210
392,248,21592,2,0,L|264:80,1,210
256,192,22530,5,0,0:0:0:0:
336,192,22764,1,0,0:0:0:0:
416,192,22998,1,0,0:0:0:0:
256,112,23233,1,0,0:0:0:0:
176,112,23467,1,0,0:0:0:0:
336,112,23936,1,0,0:0:0:0:
112,288,24405,6,0,L|136:80,1,210
400,288,25342,2,0,L|376:80,1,210
464,192,26280,5,0,0:0:0:0:
408,40,26748,1,0,0:0:0:0:
104,40,27217,1,0,0:0:0:0:
48,192,27685,1,0,0:0:0:0:
88,280,28155,5,0,0:0:0:0:
424,280,28623,1,0,0:0:0:0:
88,280,29092,1,0,0:0:0:0:
424,280,29561,1,0,0:0:0:0:
