osu file format v13

[General]
AudioFilename: No - No.mp3
AudioLeadIn: 0
PreviewTime: -1
Countdown: 1
SampleSet: Soft
StackLeniency: 0.7
Mode: 2
LetterboxInBreaks: 1
WidescreenStoryboard: 1

[Editor]
DistanceSpacing: 1
BeatDivisor: 8
GridSize: 8
TimelineZoom: 1.4

[Metadata]
Title:No
TitleUnicode:No
Artist:No
ArtistUnicode:No
Creator:Kitokofox
Version:Overdose
Source:
Tags:Novelty osu! peppy
BeatmapID:507085
BeatmapSetID:215635

[Difficulty]
HPDrainRate:6
CircleSize:4.5
OverallDifficulty:9.5
ApproachRate:9.5
SliderMultiplier:2.8
SliderTickRate:2

[Events]
//Background and Video events
0,0,"No Art 050425e.jpg",0,0
//Break Periods
//Storyboard Layer 0 (Background)
//Storyboard Layer 1 (Fail)
//Storyboard Layer 2 (Pass)
//Storyboard Layer 3 (Foreground)
//Storyboard Sound Samples
//Background Colour Transformations
3,100,163,162,255

[TimingPoints]
30,468.75,4,2,0,70,1,0
3194,-83.3333333333333,4,2,0,70,0,0
6592,-100,4,3,0,70,0,0
7530,-100,4,1,0,70,0,1
20655,-62.5,4,1,0,70,0,1

[HitObjects]
72,192,30,5,0,0:0:0:0:
448,192,264,1,0,0:0:0:0:
120,192,498,2,0,L|192:192,1,70
400,192,733,2,0,L|328:192,1,70
176,192,967,6,0,L|144:128,1,70
448,88,1201,1,0,0:0:0:0:
424,88,1260,1,0,0:0:0:0:
392,88,1319,1,0,0:0:0:0:
352,88,1377,1,0,0:0:0:0:
304,88,1436,5,0,0:0:0:0:
128,88,1553,1,0,0:0:0:0:
224,152,1670,1,0,0:0:0:0:
56,152,1787,1,0,0:0:0:0:
176,256,1905,6,0,L|48:312,1,140
256,192,2256,1,0,0:0:0:0:
464,312,2373,2,0,L|336:256,1,140
256,192,2725,5,0,0:0:0:0:
136,192,2842,1,0,0:0:0:0:
320,152,2959,1,0,0:0:0:0:
208,128,3076,1,0,0:0:0:0:
384,88,3194,1,0,0:0:0:0:
264,88,3311,6,0,B|152:88|152:88|224:176|224:176|112:176,1,335.999989746094
400,176,4014,1,0,0:0:0:0:
112,176,4248,6,0,L|24:176,1,83.9999974365235
400,176,4483,2,0,L|488:176,1,83.9999974365235
192,176,4717,5,0,0:0:0:0:
336,176,4834,1,0,0:0:0:0:
224,176,4951,2,0,L|176:176,2,41.9999987182618,0|0|0,0:0|0:0|0:0,0:0:0:0:
256,192,5186,1,0,0:0:0:0:
256,192,5655,12,0,7061,0:0:0:0:
400,192,7530,6,0,L|464:160,1,70
424,104,7765,2,0,L|352:80,1,70
112,192,7998,2,0,L|48:160,1,70
88,104,8233,2,0,L|160:80,1,70
88,160,8467,5,0,0:0:0:0:
424,152,8701,1,0,0:0:0:0:
88,160,8936,1,0,0:0:0:0:
424,152,9170,1,0,0:0:0:0:
480,48,9405,5,0,0:0:0:0:
432,48,9522,1,0,0:0:0:0:
384,48,9639,1,0,0:0:0:0:
336,48,9756,1,0,0:0:0:0:
56,272,9873,6,0,L|88:248,1,35
168,288,9990,2,0,L|184:248,1,35
272,256,10108,2,0,L|272:216,1,35
368,192,10225,2,0,L|344:152,1,35
400,112,10342,5,0,0:0:0:0:
48,112,10576,1,0,0:0:0:0:
488,192,10811,2,0,B|432:64|432:64|488:192|488:192,1,280
400,192,11397,5,0,0:0:0:0:
152,192,11514,2,0,L|112:128,1,70
256,104,11748,2,0,L|256:32,1,70
360,192,11983,2,0,L|400:128,1,70
416,40,12217,6,0,L|480:168,1,140
256,192,12569,1,0,0:0:0:0:
96,344,12686,2,0,L|32:216,1,140
256,192,13037,1,0,0:0:0:0:
376,192,13155,6,0,L|472:192,1,70
280,192,13389,2,0,L|376:192,1,70
192,192,13623,2,0,L|288:192,1,70
96,192,13857,2,0,L|192:192,1,70
16,192,14092,5,0,0:0:0:0:
496,192,14326,1,0,0:0:0:0:
16,192,14561,1,0,0:0:0:0:
496,192,14795,1,0,0:0:0:0:
86,192,15030,6,0,L|16:192,1,70
426,192,15264,2,0,L|496:192,1,70
166,192,15498,2,0,L|96:192,1,70
346,192,15733,2,0,L|416:192,1,70
512,192,15967,5,0,0:0:0:0:
256,192,16201,1,0,0:0:0:0:
0,192,16436,1,0,0:0:0:0:
32,192,16670,1,0,0:0:0:0:
480,192,16905,5,0,0:0:0:0:
512,192,17139,1,0,0:0:0:0:
256,192,17256,1,0,0:0:0:0:
0,192,17373,1,0,0:0:0:0:
112,192,17608,2,0,L|64:136,1,70
368,192,17842,5,0,0:0:0:0:
64,192,18076,1,0,0:0:0:0:
448,192,18311,1,0,0:0:0:0:
144,192,18545,1,0,0:0:0:0:
200,192,18662,1,0,0:0:0:0:
256,192,18780,1,0,0:0:0:0:
400,192,19014,6,0,L|432:128,1,70
112,192,19248,2,0,L|144:128,1,70
368,129,19483,6,0,L|400:192,1,70
80,129,19717,1,0,0:0:0:0:
431,129,19951,1,0,0:0:0:0:
80,129,20186,1,0,0:0:0:0:
431,129,20420,1,0,0:0:0:0:
288,56,20655,6,0,L|64:56,1,224
328,128,21123,1,0,0:0:0:0:
216,128,21240,1,0,0:0:0:0:
104,128,21357,1,0,0:0:0:0:
368,200,21592,6,0,L|144:200,1,224
408,272,22060,1,0,0:0:0:0:
296,272,22177,1,0,0:0:0:0:
184,272,22294,1,0,0:0:0:0:
24,56,22530,6,0,L|24:176,1,112
176,216,22764,2,0,L|176:96,1,112
336,64,22998,2,0,L|336:184,1,112
488,224,23232,2,0,L|488:104,1,112
336,192,23467,6,0,B|432:192|456:192|488:136|488:72|488:72,1,224
24,310,23936,2,0,B|24:312|24:248|56:192|80:192|176:192,1,224
304,192,24405,5,0,0:0:0:0:
224,192,24522,1,0,0:0:0:0:
478,90,24639,2,0,L|432:192,1,112
40,192,24873,6,0,L|48:136,1,56
112,136,24990,2,0,L|136:80,1,56
200,80,25108,2,0,L|240:32,1,56
304,48,25225,2,0,L|360:24,1,56
440,24,25342,1,0,0:0:0:0:
48,136,25576,5,0,0:0:0:0:
448,144,25811,2,0,L|480:256,1,112
296,264,26045,2,0,L|184:232,1,112
88,336,26280,6,0,L|32:120,1,224
256,192,26631,1,0,0:0:0:0:
480,120,26748,2,0,L|424:336,1,224
256,192,27100,1,0,0:0:0:0:
56,192,27217,6,0,L|80:80,1,112
256,80,27451,2,0,L|256:200,1,112
432,82,27686,2,0,L|456:192,1,112
320,192,27920,1,0,0:0:0:0:
512,192,28155,6,0,L|512:80,1,112
128,192,28389,2,0,L|128:80,1,112
384,192,28623,2,0,L|384:80,1,112
0,192,28857,2,0,L|0:80,1,112
448,192,29092,6,0,L|448:80,1,112
64,192,29326,2,0,L|64:80,1,112
128,192,29561,1,0,0:0:0:0:
384,192,29678,1,0,0:0:0:0:
128,192,29795,1,0,0:0:0:0:
384,192,29912,1,0,0:0:0:0:
