osu file format v14

[General]
AudioFilename: FKS.mp3
AudioLeadIn: 0
PreviewTime: 69032
Countdown: 0
SampleSet: Normal
StackLeniency: 0.5
Mode: 0
LetterboxInBreaks: 0
WidescreenStoryboard: 0

[Editor]
DistanceSpacing: 1
BeatDivisor: 6
GridSize: 4
TimelineZoom: 6.900002

[Metadata]
Title:F.K.S.
TitleUnicode:F.K.S.
Artist:Nizikawa
ArtistUnicode:Nizikawa
Creator:Pho
Version:STANDARD
Source:SOUND VOLTEX III GRAVITY WARS
Tags:fks sdvx sdvx3 regraz milan- likes lolis pkhg yauxo catgirls in space
BeatmapID:924503
BeatmapSetID:385427

[Difficulty]
HPDrainRate:4
CircleSize:3
OverallDifficulty:4
ApproachRate:6
SliderMultiplier:1.1
SliderTickRate:1

[Events]
//Background and Video events
0,0,"bg.jpg",0,0
//Break Periods
2,48556,52496
//Storyboard Layer 0 (Background)
//Storyboard Layer 1 (Fail)
//Storyboard Layer 2 (Pass)
//Storyboard Layer 3 (Foreground)
//Storyboard Sound Samples

[TimingPoints]
357,324.324324324324,4,2,1,20,1,0
1329,-100,4,2,1,30,0,0
1654,-100,4,2,1,40,0,0
1978,-100,4,2,1,50,0,0
2302,-100,4,2,1,60,0,0
2627,-100,4,2,1,5,0,0
2951,-100,4,2,1,60,0,0
3924,-100,4,2,1,60,0,0
4248,-100,4,2,1,60,0,0
4411,-100,4,2,1,60,0,0
4735,-100,4,2,1,20,0,0
4897,-100,4,2,1,60,0,0
5059,-100,4,2,1,60,0,0
5384,-100,4,2,1,20,0,0
5546,-100,4,2,1,60,0,0
5708,-100,4,2,1,60,0,0
6032,-100,4,2,1,20,0,0
6194,-100,4,2,1,60,0,0
6519,-100,4,2,1,60,0,0
6843,-100,4,2,1,60,0,0
7167,-100,4,2,1,60,0,0
7492,-100,4,2,1,60,0,0
7816,-100,4,2,1,60,0,0
8140,-100,4,2,1,60,0,0
8302,-100,4,2,1,60,0,0
8465,-100,4,2,1,60,0,0
9113,-100,4,2,1,60,0,0
9438,-100,4,1,1,60,0,0
11384,-100,4,1,1,60,0,0
12032,-100,4,1,1,60,0,0
14302,-100,4,1,1,60,0,0
14627,-100,4,1,1,60,0,0
16573,-100,4,2,1,60,0,0
17221,-100,4,1,1,60,0,0
17546,-100,4,1,1,60,0,0
17870,-100,4,1,1,60,0,0
18519,-100,4,1,1,60,0,0
19329,-100,4,1,1,60,0,0
19492,-100,4,1,1,60,0,0
19816,-100,4,1,1,60,0,0
26951,-100,4,1,1,60,0,0
27275,-100,4,1,1,60,0,0
30194,-100,4,1,1,60,0,0
30843,-100,4,1,1,60,0,0
31492,-100,4,1,1,60,0,0
32140,-100,4,1,1,60,0,0
32789,-100,4,1,1,60,0,0
33113,-100,4,1,1,60,0,0
33275,-100,4,1,1,60,0,0
33600,-100,4,1,1,60,0,0
33762,-100,4,1,1,60,0,0
34086,-100,4,1,1,60,0,0
35059,-100,4,1,1,60,0,0
35546,-100,4,1,1,60,0,0
36032,-100,4,1,1,60,0,0
36194,-100,4,1,1,60,0,0
36681,-100,4,1,1,60,0,0
37816,-100,4,1,1,60,0,0
37978,-100,4,1,1,60,0,0
39275,-100,4,1,1,60,0,0
39562,-100,4,1,1,5,0,0
39600,-100,4,1,1,60,0,0
39884,-100,4,1,1,5,0,0
39924,-100,4,1,1,60,0,0
40208,-100,4,1,1,5,0,0
40248,-100,4,1,1,60,0,0
40573,-100,4,1,1,60,0,0
41546,-100,4,1,1,60,0,0
41870,-100,4,1,1,60,0,0
42843,-100,4,1,1,60,0,0
43167,-100,4,1,1,60,0,0
44465,-100,4,1,1,60,0,0
44708,-100,4,1,1,20,0,0
44789,-100,4,1,1,60,0,0
45113,-100,4,1,1,60,0,0
46411,-100,4,1,1,60,0,0
53546,-100,4,1,1,40,0,0
55816,-100,4,1,1,5,0,0
56140,-100,4,1,1,60,0,0
56708,-100,4,1,1,5,0,0
56789,-100,4,1,1,60,0,0
57356,-100,4,1,1,5,0,0
57438,-100,4,1,1,60,0,0
58411,-100,4,1,1,60,0,0
58735,-100,4,1,1,60,0,0
66194,-100,4,1,1,60,0,0
66519,-100,4,1,1,60,0,0
66843,-100,4,1,1,60,0,0
67816,-100,4,1,0,60,0,0
67978,-100,4,1,1,60,0,0
68140,-100,4,1,1,60,0,0
68789,-100,4,1,1,60,0,0
69113,-100,4,1,1,60,0,0
71059,-100,4,1,1,60,0,0
71708,-100,4,1,1,60,0,0
74059,-100,4,1,1,60,0,0
74302,-100,4,1,1,60,0,0
75600,-100,4,1,1,60,0,0
76897,-100,4,1,1,60,0,0
77546,-100,4,1,1,60,0,0
77870,-100,4,1,1,60,0,0
78194,-100,4,1,1,60,0,0
79167,-100,4,1,1,60,0,0
79492,-100,4,1,1,60,0,0
81438,-100,4,1,1,60,0,0
82086,-100,4,1,1,60,0,0
87438,-100,4,1,1,60,0,0
89627,-100,4,1,1,60,0,0
90194,-100,4,1,1,60,0,0
92140,-100,4,1,1,60,0,0
92465,-100,4,1,1,60,0,1
97005,-100,4,1,1,60,0,1
97167,-100,4,1,1,60,0,1
97654,-100,4,1,1,60,0,0
98951,-100,4,1,1,60,0,0
99924,-100,4,1,1,60,0,1
100005,-100,4,1,1,60,0,0
101221,-100,4,1,1,60,0,1
101302,-100,4,1,1,60,0,0
101870,-100,4,1,1,60,0,0
102194,-100,4,1,1,60,0,0
102519,-100,4,1,1,60,0,0
102843,-100,4,1,1,60,0,0
103492,-100,4,1,1,60,0,1
103573,-100,4,1,1,60,0,0

[Colours]
Combo1 : 255,255,164
Combo2 : 194,153,210
Combo3 : 163,218,217
Combo4 : 253,94,94

[HitObjects]
256,192,1329,12,0,2951,1:0:0:0:
260,44,3924,5,2,1:1:0:0:
256,176,4248,6,0,P|329:218|446:146,1,220,8|8,0:1|0:1,0:0:0:0:
256,176,5546,2,0,P|183:218|66:146,1,220,8|0,0:1|1:0,0:0:0:0:
98,52,6519,1,0,1:0:0:0:
207,49,6843,6,0,L|335:36,1,110,8|0,1:1|0:0,0:0:0:0:
389,120,7492,2,0,L|251:137,1,110,8|0,0:1|0:0,0:0:0:0:
222,225,8140,2,0,P|142:226|97:173,1,110,8|0,0:1|0:0,0:0:0:0:
83,168,8627,1,0,0:0:0:0:
83,168,8789,1,0,0:0:0:0:
10,250,9113,1,8,1:1:0:0:
78,338,9438,6,0,P|149:349|195:335,1,110,2|0,0:0|0:0,0:0:0:0:
235,317,9924,1,2,0:0:0:0:
235,317,10086,2,0,L|359:329,1,110,2|0,0:0|0:0,0:0:0:0:
399,231,10735,2,0,L|275:218,1,110,2|0,0:0|0:0,0:0:0:0:
195,161,11384,1,2,0:0:0:0:
132,250,11708,1,2,0:0:0:0:
207,333,12032,6,0,P|278:322|310:278,1,110,2|0,0:0|0:0,0:0:0:0:
337,253,12519,1,2,0:0:0:0:
337,253,12681,2,0,L|412:257,1,55,2|0,0:0|0:0,0:0:0:0:
440,229,13005,2,0,L|441:136,1,55,2|0,0:0|0:0,0:0:0:0:
439,119,13329,6,0,P|371:82|234:105,1,220,2|10,0:0|0:0,0:0:0:0:
127,126,14302,1,8,0:0:0:0:
83,226,14627,6,0,P|154:235|205:206,1,110,6|0,0:0|0:0,0:0:0:0:
242,219,15113,1,2,0:0:0:0:
242,219,15275,2,0,L|359:244,1,110,2|0,0:0|0:0,0:0:0:0:
436,173,15924,2,0,P|448:100|426:49,1,110,2|0,0:0|0:0,0:0:0:0:
343,8,16573,6,0,B|295:26|295:26|256:13|256:13|220:32|220:32|183:15|183:15|133:37,1,220,2|2,0:0|0:0,0:0:0:0:
42,82,17546,1,2,0:0:0:0:
34,193,17870,2,0,L|35:266,1,55,2|2,0:0|0:0,0:0:0:0:
39,302,18194,2,0,L|90:348,1,55,2|0,0:0|0:0,0:0:0:0:
131,358,18519,6,0,P|188:333|250:342,1,110,2|2,0:0|0:0,0:0:0:0:
342,358,19167,1,2,0:0:0:0:
430,292,19492,1,8,0:0:0:0:
429,182,19816,6,0,P|376:127|237:171,1,220,6|0,0:0|0:0,0:0:0:0:
132,343,21113,1,2,0:0:0:0:
40,281,21438,1,0,0:0:0:0:
59,172,21762,2,0,L|79:55,1,110,0|2,0:0|0:2,0:0:0:0:
179,20,22411,6,0,B|279:54|279:54|404:40,1,220,2|2,0:0|0:0,0:0:0:0:
477,111,23384,1,2,0:0:0:0:
381,164,23708,2,0,L|403:282,1,110,2|2,0:3|0:3,0:0:0:0:
297,235,24356,2,0,L|323:355,1,110,2|0,0:3|0:0,0:0:0:0:
216,379,25005,6,0,P|150:370|78:219,1,220,0|0,0:0|0:0,0:0:0:0:
297,235,26302,2,0,P|363:226|435:75,1,220,8|0,0:0|0:0,0:0:0:0:
373,16,27275,1,2,2:0:0:0:
275,66,27600,6,0,B|221:80|221:80|143:62,1,110,0|0,0:0|0:0,0:0:0:0:
118,165,28248,2,0,B|172:151|172:151|250:169,1,110,0|0,0:0|0:0,0:0:0:0:
269,264,28897,2,0,B|228:315|170:302|170:302|132:346|44:339,1,220,0|0,0:0|0:0,0:0:0:0:
12,247,29870,1,0,0:0:0:0:
18,137,30194,6,0,P|57:70|201:86,1,220,10|2,0:0|0:2,0:0:0:0:
256,157,31167,1,2,0:2:0:0:
324,72,31492,2,0,P|428:55|494:137,1,220,2|0,0:1|0:0,0:0:0:0:
470,244,32465,1,8,0:0:0:0:
400,329,32789,6,0,B|300:363|300:363|225:353,2,165,6|2|10,0:0|0:0|0:0,0:0:0:0:
353,228,34086,2,0,P|366:175|333:101,2,110,10|0|0,0:0|0:0|0:0,0:0:0:0:
244,245,35059,1,10,0:0:0:0:
177,158,35384,6,0,B|233:84|233:84|294:140|394:115,1,220,0|0,0:0|0:0,0:0:0:0:
466,308,36681,2,0,L|343:328,1,110,0|0,0:0|0:0,0:0:0:0:
273,254,37329,2,0,L|148:276,1,110,0|0,0:0|0:0,0:0:0:0:
84,352,37978,6,0,P|40:302|95:149,1,220,8|0,0:0|0:0,0:0:0:0:
126,68,38951,1,0,0:0:0:0:
202,146,39275,2,0,B|276:170|276:170|438:126,1,220,0|8,0:0|0:0,0:0:0:0:
413,132,40248,1,0,0:0:0:0:
501,66,40573,6,0,P|421:21|303:95,1,220,12|0,0:0|0:0,0:0:0:0:
340,180,41546,1,2,0:0:0:0:
272,266,41870,2,0,B|220:286|220:286|141:275,2,110,0|0|0,0:0|0:0|0:0,0:0:0:0:
195,187,42843,1,0,0:0:0:0:
90,219,43167,6,0,P|39:168|136:102,1,220,2|2,0:0|0:0,0:0:0:0:
241,110,44140,1,2,0:0:0:0:
314,28,44465,2,0,L|444:50,1,110,2|2,0:0|0:0,0:0:0:0:
471,144,45113,2,0,L|341:122,1,110,2|2,0:0|0:0,0:0:0:0:
286,205,45762,2,0,L|416:227,1,110,2|2,0:0|0:0,0:0:0:0:
468,305,46411,6,0,B|417:355|364:337|364:337|321:369|263:347|263:347|208:377|124:341,1,330,2|2,0:0|0:0,0:0:0:0:
81,272,47708,2,0,L|91:126,1,110,2|2,0:0|0:0,0:0:0:0:
96,52,48356,1,0,0:0:0:0:
256,192,53546,12,8,56140,0:0:0:0:
115,78,56789,5,8,0:0:0:0:
115,78,57438,2,0,L|108:216,2,110,8|0|0,0:0|0:0|0:0,0:0:0:0:
208,20,58411,1,0,0:0:0:0:
276,106,58735,6,0,P|340:78|421:89,2,110,2|2|2,2:0|2:0|2:0,0:0:0:0:
208,192,59708,2,0,L|217:280,1,55,0|0,0:0|0:0,0:0:0:0:
220,301,60032,1,2,2:0:0:0:
319,346,60356,2,0,L|328:258,1,55,2|2,2:0|2:0,0:0:0:0:
331,237,60680,1,2,2:0:0:0:
431,192,61005,1,2,2:0:0:0:
372,98,61329,6,0,P|317:57|174:87,1,220,2|0,2:0|0:0,0:0:0:0:
81,139,62302,1,2,2:0:0:0:
160,214,62627,2,0,L|142:329,1,110,2|2,2:0|2:0,0:0:0:0:
38,355,63275,2,0,L|63:233,1,110,2|0,0:2|0:0,0:0:0:0:
81,139,63924,6,0,B|126:93|84:33|84:33|197:21,1,220,8|2,0:0|0:2,0:0:0:0:
256,107,64897,1,2,0:2:0:0:
325,22,65221,2,0,B|427:33|427:33|386:93|431:139,1,220,8|0,0:0|0:2,0:0:0:0:
506,219,66194,1,2,0:2:0:0:
433,302,66519,6,0,P|383:310|323:277,1,110,2|2,0:2|0:2,0:0:0:0:
268,194,67167,2,0,P|212:178|148:193,1,110,0|0,0:0|0:0,0:0:0:0:
74,254,67816,2,0,L|87:372,2,110,8|0|0,0:0|0:0|0:0,0:0:0:0:
64,144,68789,1,8,0:0:0:0:
130,56,69113,6,0,P|174:80|236:72,1,110,2|0,0:0|0:0,0:0:0:0:
277,42,69600,1,2,0:0:0:0:
277,42,69762,2,0,B|331:33|331:33|407:57,1,110,2|0,0:0|0:0,0:0:0:0:
446,139,70411,2,0,B|392:148|392:148|316:124,1,110,2|0,0:0|0:0,0:0:0:0:
248,192,71059,5,2,0:0:0:0:
248,192,71384,1,2,0:0:0:0:
248,192,71708,6,0,L|254:315,1,110,2|0,0:0|0:0,0:0:0:0:
226,349,72194,1,2,0:0:0:0:
226,349,72356,2,0,P|177:353|156:349,1,55,2|0,0:0|0:0,0:0:0:0:
122,327,72681,2,0,P|87:320|57:322,1,55,2|0,0:0|0:0,0:0:0:0:
15,338,73005,2,0,L|8:210,1,110,2|2,0:0|0:0,0:0:0:0:
39,122,73654,1,2,0:0:0:0:
140,79,73978,1,0,0:0:0:0:
236,131,74302,6,0,P|258:169|255:243,1,110,6|0,1:0|0:0,0:0:0:0:
229,281,74789,1,2,1:0:0:0:
229,281,74951,2,0,L|348:275,1,110,2|0,0:0|0:0,0:0:0:0:
439,229,75600,2,0,B|465:186|465:186|449:117|449:117|466:69,2,165,8|8|8,0:0|0:0|0:0,0:0:0:0:
337,272,76897,6,0,P|296:271|232:224,1,110,2|2,0:0|0:0,0:0:0:0:
218,126,77546,2,0,P|239:90|312:59,1,110,2|2,0:0|0:0,0:0:0:0:
409,65,78194,1,2,0:0:0:0:
476,152,78519,1,10,0:0:0:0:
379,205,78843,1,2,0:0:0:0:
443,294,79167,1,2,1:0:0:0:
354,359,79492,6,0,P|306:370|243:346,1,110,2|0,0:0|0:0,0:0:0:0:
205,318,79978,1,2,0:0:0:0:
205,318,80140,2,0,P|157:317|91:348,1,110,2|0,0:0|0:0,0:0:0:0:
23,261,80789,2,0,L|37:151,1,110,2|0,0:0|0:0,0:0:0:0:
102,63,81438,5,2,0:0:0:0:
102,63,81762,1,2,0:0:0:0:
102,63,82086,6,0,B|172:44|172:44|228:62,1,110,2|0,0:0|0:0,0:0:0:0:
255,83,82573,1,2,0:0:0:0:
255,83,82735,2,0,P|294:98|378:79,1,110,2|2,0:0|0:0,0:0:0:0:
458,38,83384,2,0,B|469:96|469:96|452:165,1,110,2|2,0:0|0:0,0:0:0:0:
362,201,84032,2,0,B|356:257|356:257|389:344,1,110,2|0,0:0|0:0,0:0:0:0:
281,363,84681,6,0,P|209:320|141:328,1,110,2|0,0:0|0:0,0:0:0:0:
132,336,85167,1,2,0:0:0:0:
132,336,85329,2,0,B|103:292|103:292|114:200,1,110,2|0,0:0|0:0,0:0:0:0:
124,125,85978,2,0,P|184:92|243:107,1,110,2|0,0:0|0:0,0:0:0:0:
319,150,86627,2,0,P|384:139|432:49,1,165,2|2,0:0|0:0,0:0:0:0:
256,192,87438,12,8,90194,0:0:0:0:
198,35,92140,5,8,0:0:0:0:
289,96,92465,6,0,P|258:127|187:144,1,110,2|0,0:0|0:0,0:0:0:0:
141,134,92951,1,2,0:0:0:0:
141,134,93113,2,0,L|122:212,1,55,2|2,0:0|0:0,0:0:0:0:
84,221,93438,2,0,L|98:288,1,55,2|2,0:0|0:0,0:0:0:0:
110,327,93762,2,0,P|155:321|236:335,1,110,2|2,0:0|0:0,0:0:0:0:
278,236,94411,2,0,P|323:242|404:228,1,110,2|2,0:0|0:3,0:0:0:0:
433,205,94897,1,2,0:3:0:0:
433,205,95059,6,0,L|426:85,1,110,6|0,0:0|0:0,0:0:0:0:
425,39,95546,1,2,0:0:0:0:
425,39,95708,2,0,P|377:59|313:55,1,110,2|0,0:0|0:0,0:0:0:0:
230,120,96356,2,0,P|188:94|114:98,1,110,2|0,0:0|0:0,0:0:0:0:
76,111,96843,1,2,0:0:0:0:
76,111,97005,2,0,P|53:144|46:167,1,55,2|0,0:0|0:0,0:0:0:0:
46,212,97329,2,0,P|50:247|66:273,1,55,2|0,0:0|0:0,0:0:0:0:
100,301,97654,6,0,B|179:349|236:273|315:309,1,220,2|2,1:2|0:2,0:0:0:0:
414,352,98627,1,2,0:2:0:0:
471,258,98951,6,0,P|454:194|314:180,1,220,2|2,0:0|0:0,0:0:0:0:
319,175,99924,1,8,0:0:0:0:
219,222,100248,6,0,P|168:215|90:77,1,220,2|2,0:0|0:0,0:0:0:0:
89,81,101221,1,0,0:0:0:0:
183,24,101546,2,0,L|304:35,1,110,2|2,0:0|0:0,0:0:0:0:
360,119,102194,2,0,L|230:144,1,110,2|2,0:0|0:0,0:0:0:0:
157,196,102843,2,0,P|143:226|139:264,1,55,2|2,0:0|0:0,0:0:0:0:
188,273,103167,2,0,P|189:306|207:342,1,55,10|8,0:0|0:0,0:0:0:0:
243,358,103492,5,4,0:0:0:0:
