osu file format v14

[General]
AudioFilename: FKS.mp3
AudioLeadIn: 0
PreviewTime: 69032
Countdown: 0
SampleSet: Normal
StackLeniency: 0.2
Mode: 0
LetterboxInBreaks: 0
WidescreenStoryboard: 0

[Editor]
DistanceSpacing: 0.9
BeatDivisor: 16
GridSize: 4
TimelineZoom: 6.900002

[Metadata]
Title:F.K.S.
TitleUnicode:F.K.S.
Artist:Nizikawa
ArtistUnicode:Nizikawa
Creator:Pho
Version:OVERDRIVE
Source:SOUND VOLTEX III GRAVITY WARS
Tags:fks sdvx sdvx3 regraz milan- likes lolis pkhg yauxo catgirls in space
BeatmapID:841899
BeatmapSetID:385427

[Difficulty]
HPDrainRate:7
CircleSize:4.2
OverallDifficulty:8.5
ApproachRate:9.8
SliderMultiplier:2.3
SliderTickRate:1

[Events]
//Background and Video events
0,0,"bg.jpg",0,0
//Break Periods
2,48556,53067
//Storyboard Layer 0 (Background)
//Storyboard Layer 1 (Fail)
//Storyboard Layer 2 (Pass)
//Storyboard Layer 3 (Foreground)
//Storyboard Sound Samples

[TimingPoints]
357,324.324324324324,4,2,1,20,1,0
1329,-100,4,2,1,30,0,0
1654,-100,4,2,1,40,0,0
1978,-100,4,2,1,50,0,0
2302,-100,4,2,1,60,0,0
2627,-100,4,2,1,5,0,0
2951,-100,4,2,1,60,0,0
3924,-66.6666666666667,4,2,1,60,0,0
4248,-66.6666666666667,4,2,1,60,0,0
4411,-100,4,2,1,60,0,0
4735,-100,4,2,1,20,0,0
4897,-66.6666666666667,4,2,1,60,0,0
5059,-100,4,2,1,60,0,0
5384,-100,4,2,1,20,0,0
5546,-66.6666666666667,4,2,1,60,0,0
5708,-100,4,2,1,60,0,0
6032,-100,4,2,1,20,0,0
6194,-100,4,2,1,60,0,0
6519,-83.3333333333333,4,2,1,60,0,0
6843,-71.4285714285714,4,2,1,60,0,0
7167,-83.3333333333333,4,2,1,60,0,0
7492,-71.4285714285714,4,2,1,60,0,0
7816,-83.3333333333333,4,2,1,60,0,0
8140,-71.4285714285714,4,2,1,60,0,0
8302,-55.5555555555556,4,2,1,60,0,0
8465,-71.4285714285714,4,2,1,60,0,0
9113,-55.5555555555556,4,2,1,60,0,0
9438,-66.6666666666667,4,1,1,60,0,0
11384,-33.3333333333333,4,1,1,60,0,0
12032,-71.4285714285714,4,1,1,60,0,0
14302,-66.6666666666667,4,1,1,60,0,0
14627,-62.5,4,1,1,60,0,0
16573,-62.5,4,2,1,60,0,0
17221,-62.5,4,1,1,60,0,0
17546,-58.8235294117647,4,1,1,60,0,0
17870,-62.5,4,1,1,60,0,0
18519,-83.3333333333333,4,1,1,60,0,0
19329,-71.4285714285714,4,1,1,60,0,0
19492,-62.5,4,1,1,60,0,0
19816,-62.5,4,1,1,60,0,0
26951,-83.3333333333333,4,1,1,60,0,0
27275,-62.5,4,1,1,60,0,0
27397,-62.5,4,1,1,5,0,0
27438,-62.5,4,1,1,60,0,0
28046,-62.5,4,1,1,5,0,0
28086,-62.5,4,1,1,60,0,0
30194,-76.9230769230769,4,1,1,60,0,0
30519,-68.9655172413793,4,1,1,60,0,0
30843,-62.5,4,1,1,60,0,0
31492,-76.9230769230769,4,1,1,60,0,0
31816,-68.9655172413793,4,1,1,60,0,0
32140,-50,4,1,1,60,0,0
32789,-71.4285714285714,4,1,1,60,0,0
33113,-62.5,4,1,1,60,0,0
33275,-71.4285714285714,4,1,1,60,0,0
33600,-62.5,4,1,1,60,0,0
33762,-71.4285714285714,4,1,1,60,0,0
35059,-62.5,4,1,1,60,0,0
35384,-50,4,1,1,60,0,0
35546,-83.3333333333333,4,1,1,60,0,0
36032,-50,4,1,1,60,0,0
36194,-83.3333333333333,4,1,1,60,0,0
36681,-100,4,1,1,60,0,0
37654,-83.3333333333333,4,1,1,60,0,0
37816,-50,4,1,1,60,0,0
37978,-62.5,4,1,1,60,0,0
39275,-200,4,1,1,60,0,0
39559,-200,4,1,1,5,0,0
39600,-100,4,1,1,60,0,0
39884,-100,4,1,1,5,0,0
39924,-62.5,4,1,22,60,0,0
40208,-62.5,4,1,1,5,0,0
40248,-83.3333333333333,4,1,1,60,0,0
40573,-62.5,4,1,1,60,0,0
41546,-50,4,1,1,60,0,0
41870,-62.5,4,1,1,60,0,0
42843,-71.4285714285714,4,1,1,60,0,0
43167,-55.5555555555556,4,1,1,60,0,0
44465,-71.4285714285714,4,1,1,60,0,0
44708,-71.4285714285714,4,1,1,20,0,0
44789,-71.4285714285714,4,1,1,60,0,0
45032,-71.4285714285714,4,1,1,20,0,0
45113,-83.3333333333333,4,1,1,60,0,0
46411,-62.5,4,1,1,60,0,0
53546,-62.5,4,1,1,40,0,0
55816,-62.5,4,1,1,5,0,0
56140,-83.3333333333333,4,1,1,60,0,0
56708,-83.3333333333333,4,1,1,5,0,0
56789,-83.3333333333333,4,1,1,60,0,0
57356,-83.3333333333333,4,1,1,5,0,0
57438,-83.3333333333333,4,1,1,60,0,0
58411,-50,4,1,1,60,0,0
58735,-111.111111111111,4,1,1,60,0,0
66194,-133.333333333333,4,1,1,60,0,0
66519,-99.9999999999999,4,1,1,60,0,0
66843,-80,4,1,1,60,0,0
67816,-83.3333333333333,4,1,0,60,0,0
67978,-83.3333333333333,4,1,1,60,0,0
68140,-76.9230769230769,4,1,1,60,0,0
68789,-50,4,1,1,60,0,0
69113,-62.5,4,1,1,60,0,0
71059,-33.3333333333333,4,1,1,60,0,0
71708,-62.5,4,1,1,60,0,0
74059,-90.9090909090909,4,1,1,60,0,0
74302,-62.5,4,1,1,60,0,0
75600,-55.5555555555556,4,1,1,60,0,0
76897,-62.5,4,1,1,60,0,0
77546,-76.9230769230769,4,1,1,60,0,0
77870,-100,4,1,1,60,0,0
78194,-83.3333333333333,4,1,1,60,0,0
79167,-66.6666666666667,4,1,1,60,0,0
79492,-62.5,4,1,1,60,0,0
81438,-33.3333333333333,4,1,1,60,0,0
82086,-62.5,4,1,1,60,0,0
87438,-55.5555555555556,4,1,1,60,0,0
89627,-33.3333333333333,4,1,1,60,0,0
90194,-62.5,4,1,1,60,0,0
92140,-83.3333333333333,4,1,1,60,0,0
92465,-59.1715976331361,4,1,1,60,0,1
97005,-50,4,1,1,60,0,1
97167,-59.1715976331361,4,1,1,60,0,1
97654,-100,4,1,1,60,0,0
97897,-100,4,1,1,20,0,0
97978,-100,4,1,1,60,0,0
98870,-100,4,1,1,20,0,0
98951,-71.4285714285714,4,1,1,60,0,0
99924,-55.5555555555556,4,1,1,60,0,1
100005,-71.4285714285714,4,1,1,60,0,0
101221,-55.5555555555556,4,1,1,60,0,1
101302,-59.1715976331361,4,1,1,60,0,0
101870,-100,4,1,1,60,0,0
102194,-59.1715976331361,4,1,1,60,0,0
102519,-100,4,1,1,60,0,0
102843,-59.1715976331361,4,1,1,60,0,0
103492,-59.1715976331361,4,1,1,60,0,1
103573,-59.1715976331361,4,1,1,60,0,0

[Colours]
Combo1 : 255,255,164
Combo2 : 194,153,210
Combo3 : 163,218,217
Combo4 : 253,94,94

[HitObjects]
256,192,843,12,0,2627,0:0:0:0:
324,352,2951,6,0,P|361:328|404:334,2,76.6666666666667,0|0|0,1:0|1:0|1:0,0:0:0:0:
204,264,3275,2,0,P|173:244|125:235,2,76.6666666666667,0|0|0,1:0|1:0|1:0,0:0:0:0:
332,176,3600,2,0,P|363:146|425:138,2,76.6666666666667,0|0|0,1:0|1:0|1:0,0:0:0:0:
207,76,3924,6,0,B|166:49|166:49|236:7|329:56,1,172.500006580353,2|0,1:1|0:0,0:0:0:0:
488,142,4248,6,0,P|477:187|439:225,1,86.2500032901765,8|0,0:1|0:0,0:0:0:0:
294,231,4411,2,0,P|269:148|397:162,1,230
356,307,4897,6,0,P|316:326|267:326,1,86.2500032901765,8|0,0:1|0:0,0:0:0:0:
132,210,5060,2,0,P|166:130|267:196,1,230
133,313,5546,6,0,P|92:305|44:268,1,86.2500032901765,8|0,0:1|0:0,0:0:0:0:
21,93,5709,2,0,P|98:54|137:171,1,230
245,322,6194,6,0,L|393:338,1,115,0|0,1:0|0:0,0:0:0:0:
263,226,6438,1,0,0:0:0:0:
263,226,6519,6,0,B|335:222|335:222|428:166,1,137.999995788574,0|0,1:0|0:0,0:0:0:0:
235,109,6762,1,0,0:0:0:0:
235,109,6843,6,0,P|309:97|355:18,1,160.99999508667,8|0,1:1|0:0,0:0:0:0:
233,132,7167,6,0,P|309:130|388:4,1,206.999993682861
119,54,7492,6,0,P|102:143|134:220,1,160.99999508667,8|0,0:1|0:0,0:0:0:0:
91,37,7816,6,0,P|70:122|101:245,1,206.999993682861
224,324,8140,6,0,L|323:341,1,80.499997543335,8|0,0:1|0:0,0:0:0:0:
395,268,8302,2,0,L|521:290,1,103.499996841431
437,134,8465,6,0,B|381:138|381:138|334:123,1,80.499997543335
284,32,8627,2,0,B|223:19|223:19|193:24,1,80.499997543335
86,56,8789,5,0,0:0:0:0:
69,107,8870,1,0,0:0:0:0:
117,170,8951,5,0,0:0:0:0:
127,219,9032,1,0,0:0:0:0:
73,274,9113,6,0,P|52:240|66:172,1,103.499996841431,8|0,1:1|0:0,0:0:0:0:
184,161,9275,2,0,P|205:195|174:285,1,103.499996841431
174,373,9438,6,0,B|127:325|127:325|127:209,1,172.500006580353,2|0,0:0|0:0,0:0:0:0:
123,126,9681,1,2,0:0:0:0:
123,126,9762,2,0,P|161:95|224:102,1,86.2500032901765
284,152,9924,2,0,P|328:168|383:155,1,86.2500032901765,2|0,0:0|0:0,0:0:0:0:
487,64,10086,6,0,P|430:32|327:74,1,172.500006580353,2|0,0:0|0:0,0:0:0:0:
253,120,10329,1,2,0:0:0:0:
265,145,10411,2,0,B|275:195|275:195|256:254,1,86.2500032901765
123,126,10573,2,0,B|108:88|108:88|121:39,1,86.2500032901765,2|0,0:0|0:0,0:0:0:0:
270,40,10735,6,0,L|365:36,1,86.2500032901765,2|0,0:0|0:0,0:0:0:0:
355,150,10897,2,0,L|456:143,1,86.2500032901765,0|2,0:0|0:0,0:0:0:0:
228,235,11059,2,0,L|135:230,1,86.2500032901765
156,337,11221,2,0,L|53:328,1,86.2500032901765,2|0,0:0|0:0,0:0:0:0:
369,332,11384,6,0,L|482:325,1,86.2500032901765,2|0,0:0|2:0,0:0:0:0:
389,366,11708,6,0,L|505:358,1,86.2500032901765,2|0,0:0|2:0,0:0:0:0:
72,171,12032,6,0,P|142:127|236:167,1,160.99999508667,2|0,0:0|0:0,0:0:0:0:
256,244,12275,1,2,0:0:0:0:
242,261,12356,2,0,B|225:301|225:301|231:360,1,80.499997543335
373,245,12519,2,0,B|389:202|389:202|387:148,1,80.499997543335,2|0,0:0|0:0,0:0:0:0:
475,40,12681,6,0,P|491:30|524:31,1,40.2499987716675,2|0,0:0|2:0,0:0:0:0:
448,126,12843,2,0,P|466:142|480:184,1,40.2499987716675,0|0,0:0|2:0,0:0:0:0:
328,116,13005,2,0,P|309:126|294:145,1,40.2499987716675,2|0,0:0|2:0,0:0:0:0:
313,30,13167,2,0,P|301:19|277:12,1,40.2499987716675,0|0,0:0|2:0,0:0:0:0:
165,23,13329,6,0,P|126:82|162:173,1,160.99999508667,2|2,0:0|0:0,0:0:0:0:
197,232,13573,1,0,0:0:0:0:
197,232,13654,2,0,P|236:173|202:93,1,160.99999508667,2|0,0:0|0:0,0:0:0:0:
126,86,13897,1,0,0:0:0:0:
46,107,13978,5,10,0:0:0:0:
122,305,14140,2,8,B|126:348|126:348|103:390,1,80.499997543335,0|0,0:0|0:0,0:0:0:0:
19,283,14302,2,0,P|51:227|161:210,1,172.500006580353,8|0,0:0|0:0,0:0:0:0:
211,263,14546,1,0,0:0:0:0:
282,345,14627,6,0,B|373:364|373:364|464:326,1,184,6|0,0:0|0:0,0:0:0:0:
491,242,14870,1,2,0:0:0:0:
491,242,14951,2,0,P|500:196|489:147,1,92
326,72,15113,2,0,P|313:118|333:174,1,92,2|0,0:0|0:0,0:0:0:0:
400,255,15275,6,0,L|416:28,1,184,2|0,0:0|0:0,0:0:0:0:
271,16,15519,1,2,0:0:0:0:
271,16,15600,2,0,P|216:22|160:76,1,92
102,102,15762,2,0,P|45:90|6:50,1,92,2|0,0:0|0:0,0:0:0:0:
189,149,15924,6,0,B|195:211|195:211|182:245,1,92,2|0,0:0|0:0,0:0:0:0:
55,338,16086,2,0,B|56:270|56:270|69:247,1,92,0|2,0:0|0:0,0:0:0:0:
205,162,16248,6,0,B|212:228|212:228|198:258,1,92
79,367,16411,2,0,B|72:300|72:300|86:276,1,92,2|0,0:0|0:0,0:0:0:0:
241,312,16573,5,2,0:0:0:0:
223,341,16654,1,0,0:0:0:0:
272,318,16735,5,2,0:0:0:0:
272,346,16816,1,0,0:0:0:0:
298,300,16897,5,2,0:0:0:0:
317,318,16978,1,2,0:0:0:0:
308,269,17059,5,2,0:0:0:0:
333,272,17140,1,2,0:0:0:0:
320,228,17221,6,2,B|343:193|321:137|321:137|262:146|230:184|230:184|259:221|291:229,1,276,0|0,0:0|2:0,0:0:0:0:
324,235,17546,6,2,B|351:193|325:128|325:128|255:138|218:183|218:183|252:226|289:236,1,293.2500055933,0|0,0:0|2:0,0:0:0:0:
356,274,17870,5,2,0:0:0:0:
374,253,17951,1,0,0:0:0:0:
457,250,18032,5,2,0:0:0:0:
446,224,18113,1,0,0:0:0:0:
510,167,18194,5,2,0:0:0:0:
486,152,18275,1,0,0:0:0:0:
480,72,18356,5,0,0:0:0:0:
452,68,18437,1,0,0:0:0:0:
370,116,18519,5,2,0:0:0:0:
236,30,18681,1,2,0:0:0:0:
388,15,18843,2,0,P|372:111|266:156,1,206.999993682861,2|0,0:0|2:2,0:0:0:0:
191,89,19167,1,2,0:0:0:0:
16,84,19329,6,0,L|18:167,1,80.499997543335
183,356,19492,6,0,B|193:391|193:391|252:309|190:208,1,184,8|0,0:0|2:0,0:0:0:0:
87,33,19816,6,0,B|89:142|89:142|137:221,1,184,6|0,0:0|0:0,0:0:0:0:
200,246,20059,1,2,0:0:0:0:
200,246,20140,1,0,0:0:0:0:
292,76,20302,1,2,0:0:0:0:
364,200,20465,5,0,0:0:0:0:
316,192,20546,1,0,0:0:0:0:
266,183,20627,1,2,0:0:0:0:
216,173,20708,1,0,0:0:0:0:
166,162,20789,1,2,0:0:0:0:
260,286,20951,1,0,0:0:0:0:
489,211,21113,6,0,P|477:118|402:128,1,184,2|0,0:0|0:0,0:0:0:0:
364,200,21356,1,2,0:0:0:0:
301,90,21438,2,0,P|347:48|399:138,1,184,0|2,0:0|0:0,0:0:0:0:
319,279,21762,1,0,0:0:0:0:
185,171,21924,6,0,L|140:143,1,46,2|0,0:2|2:0,0:0:0:0:
164,28,22086,2,0,L|204:5,1,46,2|0,0:2|2:0,0:0:0:0:
301,90,22248,2,0,L|298:135,1,46,2|0,0:2|2:0,0:0:0:0:
216,97,22411,5,2,0:0:0:0:
159,280,22573,1,0,0:0:0:0:
170,245,22654,1,0,0:0:0:0:
182,210,22735,1,2,0:0:0:0:
287,352,22897,5,0,0:0:0:0:
301,318,22978,1,0,0:0:0:0:
312,285,23059,1,2,0:0:0:0:
330,291,23140,1,0,0:0:0:0:
346,300,23221,1,0,0:0:0:0:
363,310,23302,1,0,0:0:0:0:
411,293,23384,5,2,0:0:0:0:
376,270,23465,1,0,0:0:0:0:
340,254,23546,1,0,0:0:0:0:
307,237,23627,1,0,0:0:0:0:
284,223,23708,6,0,L|277:89,1,92,2|0,0:3|2:0,0:0:0:0:
301,27,23870,6,0,P|258:27|197:82,1,92,2|0,0:0|2:0,0:0:0:0:
116,165,24032,6,0,P|148:181|201:157,1,92,2|0,0:3|2:0,0:0:0:0:
75,66,24194,5,2,0:0:0:0:
57,76,24275,1,0,0:0:0:0:
37,88,24356,2,0,P|15:131|27:170,1,92,2|0,0:3|2:0,0:0:0:0:
124,276,24519,6,0,P|153:259|117:262,1,92,2|0,0:1|2:1,0:0:0:0:
50,316,24681,6,0,P|98:355|154:353,1,92
203,338,24843,1,2,0:0:0:0:
234,313,24924,1,0,0:0:0:0:
240,276,25005,5,0,0:0:0:0:
236,261,25086,1,0,0:0:0:0:
233,246,25167,1,0,0:0:0:0:
231,231,25248,1,0,0:0:0:0:
229,216,25329,2,0,P|280:193|347:198,1,92,2|0,0:3|2:0,0:0:0:0:
484,337,25492,2,0,P|435:343|372:294,1,92,2|0,0:0|2:0,0:0:0:0:
374,239,25654,5,0,0:0:0:0:
379,225,25735,1,0,0:0:0:0:
384,211,25816,1,0,0:0:0:0:
389,197,25897,1,0,0:0:0:0:
395,183,25978,2,0,P|454:188|507:163,1,92,2|0,0:3|2:0,0:0:0:0:
259,53,26140,2,0,P|266:103|319:153,1,92,2|0,0:0|2:0,0:0:0:0:
440,99,26302,6,0,P|423:24|337:62,1,184,8|0,0:0|2:0,0:0:0:0:
243,117,26546,1,0,0:0:0:0:
243,117,26627,2,0,B|140:69,1,92,2|0,0:3|2:0,0:0:0:0:
60,117,26789,2,0,B|113:145|113:145|128:179,1,92,2|0,0:3|2:0,0:0:0:0:
51,216,26951,6,0,L|-6:202,2,45.9999985961914
101,272,27113,2,0,L|145:258,2,45.9999985961914
32,320,27275,6,0,P|66:349|163:336,1,138,2|0,2:0|2:0,0:0:0:0:
185,321,27438,2,0,P|208:295|285:296,1,92,2|0,2:0|2:0,0:0:0:0:
354,361,27600,5,0,0:0:0:0:
379,317,27681,1,0,0:0:0:0:
379,266,27762,1,0,0:0:0:0:
353,222,27843,1,0,0:0:0:0:
315,188,27924,6,2,B|234:206|234:206|179:189,1,138,0|2,0:0|0:0,0:0:0:0:
181,177,28086,2,0,L|85:194,1,92,2|0,0:0|0:0,0:0:0:0:
25,74,28248,5,0,0:0:0:0:
53,22,28329,1,0,0:0:0:0:
109,2,28411,1,0,0:0:0:0:
169,3,28492,1,0,0:0:0:0:
212,28,28573,2,2,P|226:66|210:147,1,92,0|0,0:0|2:0,0:0:0:0:
321,147,28735,2,0,P|312:195|344:276,1,92,2|0,0:0|2:0,0:0:0:0:
410,284,28897,5,0,0:0:0:0:
418,279,28978,1,0,0:0:0:0:
413,272,29059,1,0,0:0:0:0:
405,277,29140,1,0,0:0:0:0:
410,287,29221,1,0,0:0:0:0:
420,280,29302,1,0,0:0:0:0:
413,269,29383,1,0,0:0:0:0:
402,276,29464,1,0,0:0:0:0:
409,291,29546,1,0,0:0:0:0:
425,281,29627,1,0,0:0:0:0:
414,265,29708,1,0,0:0:0:0:
397,275,29789,1,0,0:0:0:0:
435,300,29870,6,0,L|461:330,1,30.6666666666667,0|0,0:0|2:0,0:0:0:0:
442,278,29924,2,0,L|477:280,1,30.6666666666667,0|0,0:0|2:0,0:0:0:0:
432,261,29978,2,0,L|454:240,1,30.6666666666667,0|0,0:0|2:0,0:0:0:0:
411,251,30032,2,0,L|403:217,1,30.6666666666667,0|0,0:0|2:0,0:0:0:0:
387,264,30086,2,0,L|349:243,1,30.6666666666667,0|0,0:0|2:0,0:0:0:0:
385,297,30140,2,0,L|345:308,1,30.6666666666667,0|0,0:0|2:0,0:0:0:0:
412,314,30194,6,0,P|374:357|326:363,1,74.7499965782167,10|0,0:0|0:0,0:0:0:0:
271,305,30356,2,0,P|281:269|273:233,1,74.7499965782167
147,278,30519,2,0,P|140:318|154:357,1,83.3750025444031,2|0,0:1|0:0,0:0:0:0:
53,226,30681,2,0,P|71:195|125:168,1,83.3750025444031
257,109,30843,5,2,0:2:0:0:
341,124,30924,1,0,0:0:0:0:
390,188,31005,2,0,L|386:280,1,92,2|0,0:2|0:0,0:0:0:0:
213,356,31167,5,2,0:2:0:0:
129,370,31248,1,0,0:0:0:0:
80,306,31329,2,0,L|82:214,1,92,2|0,0:2|0:0,0:0:0:0:
341,124,31492,6,0,P|304:162|266:172,1,74.7499965782167,2|0,0:1|0:0,0:0:0:0:
193,95,31654,2,0,P|203:60|229:31,1,74.7499965782167
321,243,31816,2,0,P|275:250|231:232,1,83.3750025444031,2|0,0:0|0:0,0:0:0:0:
126,147,31978,2,0,P|111:113|116:66,1,83.3750025444031
253,23,32140,6,0,P|319:24|383:76,1,115
457,108,32302,2,0,P|437:151|465:227,1,115,8|0,0:0|0:0,0:0:0:0:
496,322,32465,2,0,L|350:305,1,115,8|0,0:0|0:0,0:0:0:0:
279,360,32627,1,0,0:0:0:0:
201,287,32708,1,0,0:0:0:0:
248,190,32789,6,0,P|274:117|272:21,1,160.99999508667,6|0,0:0|0:0,0:0:0:0:
148,19,33113,6,0,L|167:126,1,92,8|0,0:0|0:0,0:0:0:0:
167,206,33275,2,0,P|96:176|-10:167,1,160.99999508667,2|0,0:0|0:0,0:0:0:0:
255,374,33600,6,0,L|260:273,1,92
335,202,33762,2,0,P|404:229|518:233,1,160.99999508667,10|0,0:0|0:0,0:0:0:0:
375,90,34086,6,0,P|375:48|390:-14,1,80.499997543335,10|0,0:0|2:0,0:0:0:0:
261,21,34248,1,0,0:0:0:0:
247,26,34329,1,0,0:0:0:0:
231,33,34411,2,0,P|255:119|234:224,1,160.99999508667
86,311,34735,6,0,L|-31:293,1,80.499997543335
141,212,34897,2,0,L|223:222,1,80.499997543335
267,98,35059,2,2,B|128:86|128:86|69:132,1,184,10|0,0:0|2:0,0:0:0:0:
353,178,35384,6,0,L|490:174,1,115,0|0,0:0|2:0,0:0:0:0:
359,95,35546,2,0,P|290:124|388:253,1,275.999991577149,0|0,0:0|2:0,0:0:0:0:
128,270,36032,6,0,L|14:263,1,115,0|0,0:0|2:0,0:0:0:0:
121,187,36194,2,0,P|190:216|89:344,1,275.999991577149,0|0,0:0|2:0,0:0:0:0:
287,376,36681,5,0,0:0:0:0:
342,308,36843,1,0,0:0:0:0:
490,307,37005,1,0,0:0:0:0:
436,231,37167,1,0,0:0:0:0:
262,187,37329,5,0,0:0:0:0:
262,163,37411,1,0,0:0:0:0:
283,155,37492,1,0,0:0:0:0:
299,170,37573,1,0,0:0:0:0:
290,191,37654,2,0,P|278:235|286:279,1,68.9999978942872,0|0,0:0|2:0,0:0:0:0:
208,332,37816,6,0,P|130:340|72:307,1,115,2|0,0:0|2:0,0:0:0:0:
41,206,37978,5,8,0:0:0:0:
50,217,38059,1,0,0:0:0:0:
36,217,38140,1,0,0:0:0:0:
47,39,38302,5,0,0:0:0:0:
56,29,38383,1,0,0:0:0:0:
38,29,38464,1,0,0:0:0:0:
160,136,38627,5,0,0:0:0:0:
185,177,38708,1,0,0:0:0:0:
220,201,38789,1,0,0:0:0:0:
260,214,38870,1,0,0:0:0:0:
303,211,38951,1,0,0:0:0:0:
337,184,39032,1,0,0:0:0:0:
374,162,39113,1,0,0:0:0:0:
417,164,39194,1,0,0:0:0:0:
454,185,39275,6,0,L|453:292,1,100.625,0|0,0:0|2:0,0:0:0:0:
453,299,39600,6,0,L|486:82,1,201.25,0|0,0:0|2:0,0:0:0:0:
485,48,39924,6,0,L|484:379,1,322,8|0,0:0|2:0,0:0:0:0:
477,353,40248,6,0,P|390:319|351:398,1,137.999995788574,0|0,0:0|2:0,0:0:0:0:
161,374,40573,5,12,0:0:0:0:
128,230,40735,1,0,0:0:0:0:
282,331,40897,1,0,0:0:0:0:
252,186,41059,1,0,0:0:0:0:
63,281,41221,2,0,B|46:238|46:238|55:182,1,92,0|0,0:0|2:0,0:0:0:0:
141,156,41384,2,0,B|153:106|153:106|131:45,1,92,0|0,0:0|2:0,0:0:0:0:
44,25,41546,6,2,B|28:21|28:21|12:37|12:37|-4:37|-4:37|-4:53|-4:53|-20:69|-20:69|-4:81|-4:81|-4:101|-4:101|16:101|16:101|32:117|32:117|48:101|48:101|68:101|68:101|68:81,1,230,2|0,0:0|2:0,0:0:0:0:
217,280,41870,5,0,0:0:0:0:
266,60,42032,1,0,0:0:0:0:
213,292,42194,5,0,0:0:0:0:
268,46,42356,1,0,0:0:0:0:
422,140,42519,5,0,0:0:0:0:
435,165,42600,1,0,0:0:0:0:
415,186,42681,1,0,0:0:0:0:
388,173,42762,1,0,0:0:0:0:
390,145,42843,2,0,B|384:114|399:93|399:93|415:142|355:215|429:292,1,241.499992630005,0|0,0:0|2:0,0:0:0:0:
484,327,43167,6,0,P|442:356|391:356,1,103.499996841431,2|0,0:0|0:0,0:0:0:0:
307,296,43329,2,0,P|257:276|188:324,1,103.499996841431,2|0,0:0|0:0,0:0:0:0:
142,350,43492,2,0,P|124:318|134:247,1,103.499996841431,2|0,0:0|0:0,0:0:0:0:
195,187,43654,2,0,P|220:141|201:63,1,103.499996841431
132,52,43816,6,0,L|23:28,1,103.499996841431,2|0,0:0|0:0,0:0:0:0:
257,21,43978,2,0,L|380:-3,1,103.499996841431
103,95,44139,6,0,L|-10:68,1,103.499996841431,2|0,0:0|0:0,0:0:0:0:
278,43,44302,2,0,L|399:25,1,103.499996841431,2|0,0:0|0:0,0:0:0:0:
486,113,44465,6,2,P|503:200|372:194,1,241.499992630005,2|0,0:0|0:0,0:0:0:0:
381,210,44789,2,2,P|469:208|442:336,1,241.499992630005,2|0,0:0|2:0,0:0:0:0:
364,377,45113,5,2,0:0:0:0:
291,301,45221,1,0,0:0:0:0:
206,370,45329,1,0,0:0:0:0:
135,283,45438,2,0,P|100:207|118:95,1,172.499994735718,2|2,0:0|0:0,0:0:0:0:
190,31,45762,5,2,0:0:0:0:
365,85,45870,1,0,0:0:0:0:
278,56,45978,1,0,0:0:0:0:
451,119,46087,2,0,P|464:210|427:298,1,172.499994735718,2|2,0:0|0:0,0:0:0:0:
234,194,46411,2,2,P|282:116|320:243,1,245.333333333333,0|2,0:0|0:0,0:0:0:0:
286,337,46735,5,2,0:0:0:0:
189,354,46843,1,0,0:0:0:0:
108,298,46951,1,0,0:0:0:0:
122,201,47059,5,2,0:0:0:0:
181,123,47167,1,0,0:0:0:0:
124,42,47275,1,0,0:0:0:0:
30,74,47384,5,2,0:0:0:0:
22,83,47492,1,0,0:0:0:0:
18,73,47600,1,0,0:0:0:0:
78,215,47708,6,0,P|144:225|225:179,1,122.666666666667,2|0,0:0|0:0,0:0:0:0:
434,214,47924,2,0,P|374:225|316:206,1,122.666666666667,0|2,0:0|0:0,0:0:0:0:
256,21,48140,2,0,L|256:174,1,122.666666666667
256,296,48356,5,0,0:0:0:0:
256,192,53546,12,0,55816,0:0:0:0:
110,122,56140,6,0,P|243:108|119:280,1,482.99998526001,8|0,0:0|2:0,0:0:0:0:
123,283,56789,6,0,P|290:188|110:122,1,482.99998526001,8|0,0:0|2:0,0:0:0:0:
109,122,57438,6,0,P|175:134|238:101,1,137.999995788574,8|0,0:0|2:0,0:0:0:0:
235,103,57762,6,0,P|175:89|107:125,1,137.999995788574,0|0,0:0|2:0,0:0:0:0:
109,122,58086,6,0,P|169:136|237:100,1,137.999995788574,0|0,0:0|2:0,0:0:0:0:
234,102,58411,6,0,P|170:89|83:223,1,230,0|0,0:0|2:0,0:0:0:0:
142,318,58735,5,2,2:0:0:0:
157,236,58897,1,0,0:0:0:0:
224,349,59059,5,2,2:0:0:0:
244,238,59221,1,2,2:0:0:0:
311,376,59384,5,2,2:0:0:0:
333,237,59546,1,0,0:0:0:0:
315,349,59708,5,0,0:0:0:0:
314,328,59789,1,0,0:0:0:0:
328,313,59870,1,0,0:0:0:0:
317,294,59951,1,0,0:0:0:0:
327,265,60032,5,2,2:0:0:0:
348,137,60194,1,0,0:0:0:0:
402,292,60356,5,2,2:0:0:0:
272,176,60519,1,2,2:0:0:0:
432,126,60681,1,2,2:0:0:0:
368,210,60843,1,0,0:0:0:0:
212,76,61005,5,2,2:0:0:0:
107,110,61113,5,2,2:0:0:0:
188,183,61221,5,2,2:0:0:0:
170,123,61329,5,2,2:0:0:0:
135,242,61492,1,0,0:0:0:0:
257,220,61654,5,0,0:0:0:0:
262,232,61735,1,0,0:0:0:0:
267,244,61816,1,0,0:0:0:0:
272,256,61897,1,0,0:0:0:0:
277,268,61978,1,0,0:0:0:0:
373,203,62140,1,2,2:0:0:0:
270,131,62302,1,2,2:0:0:0:
207,241,62465,1,2,2:0:0:0:
100,167,62627,6,0,L|94:123,1,34.4999989471436,2|0,2:0|2:0,0:0:0:0:
35,244,62789,2,0,L|-7:249,1,34.4999989471436,2|0,2:0|2:0,0:0:0:0:
111,314,62951,2,0,L|116:349,1,34.4999989471436,2|0,2:0|2:0,0:0:0:0:
172,242,63113,2,0,L|225:240,1,34.4999989471436,2|0,2:0|2:0,0:0:0:0:
372,321,63275,5,2,0:2:0:0:
228,310,63438,1,0,0:0:0:0:
343,318,63600,5,0,0:0:0:0:
323,316,63681,1,0,0:0:0:0:
304,315,63762,1,0,0:0:0:0:
285,313,63843,1,0,0:0:0:0:
266,312,63924,5,8,0:0:0:0:
172,242,64086,1,0,0:0:0:0:
310,217,64248,5,2,0:2:0:0:
117,167,64411,1,2,0:2:0:0:
345,126,64573,6,0,L|327:57,1,51.7499984207154,2|0,0:2|2:0,0:0:0:0:
187,12,64735,2,0,L|203:78,1,51.7499984207154,0|0,0:0|2:0,0:0:0:0:
284,144,64897,5,2,0:2:0:0:
324,135,64978,1,0,0:0:0:0:
360,153,65059,1,0,0:0:0:0:
399,141,65140,1,0,0:0:0:0:
437,156,65221,5,8,0:0:0:0:
504,243,65384,1,0,0:0:0:0:
335,322,65546,5,2,0:2:0:0:
391,223,65708,1,2,0:2:0:0:
243,159,65870,5,0,0:2:0:0:
303,252,66032,1,2,0:2:0:0:
352,152,66194,6,0,L|354:108,1,43.1250016450883,2|0,0:2|2:0,0:0:0:0:
286,87,66356,2,0,L|293:7,1,43.1250016450883,0|0,0:0|2:0,0:0:0:0:
164,27,66519,6,0,L|177:126,1,57.5,2|0,0:2|2:0,0:0:0:0:
50,89,66681,2,0,L|61:166,1,57.5,0|0,0:0|2:0,0:0:0:0:
188,163,66843,6,0,L|176:273,1,71.875,2|0,0:2|2:0,0:0:0:0:
62,237,67005,2,0,L|47:334,1,71.875,0|0,0:0|2:0,0:0:0:0:
161,340,67167,5,0,0:0:0:0:
216,353,67248,1,0,0:0:0:0:
268,330,67329,1,0,0:0:0:0:
296,271,67411,1,0,0:0:0:0:
344,227,67492,1,0,0:0:0:0:
415,221,67573,1,0,0:0:0:0:
476,269,67654,1,0,0:0:0:0:
459,353,67735,1,0,0:0:0:0:
345,355,67816,6,0,P|323:290|350:218,1,137.999995788574,8|0,0:0|0:0,0:0:0:0:
344,227,68140,2,0,B|393:287|346:355|346:355|240:279|138:323,1,298.999986312867
211,309,68789,6,0,P|70:325|131:197,1,345,8|0,0:0|2:0,0:0:0:0:
243,245,69113,6,0,B|383:264|383:264|456:225,1,184,2|0,0:0|0:0,0:0:0:0:
476,155,69356,1,2,0:0:0:0:
476,155,69438,2,0,P|487:105|472:53,1,92
375,10,69600,2,0,L|279:37,1,92,2|0,0:0|0:0,0:0:0:0:
138,30,69762,6,0,P|168:90|109:223,1,184,2|0,0:0|0:0,0:0:0:0:
92,282,70005,1,2,0:0:0:0:
92,282,70086,2,0,L|-17:264,1,92
144,366,70248,2,0,L|253:348,1,92,2|0,0:0|0:0,0:0:0:0:
362,245,70411,6,0,B|365:183|365:183|343:132,1,92,2|0,0:0|0:0,0:0:0:0:
219,250,70573,2,0,B|216:312|216:312|238:363,1,92,0|2,0:0|0:0,0:0:0:0:
375,223,70735,6,0,B|378:161|378:161|356:110,1,92
232,228,70897,2,2,B|229:290|229:290|251:341,1,92,2|0,0:0|0:0,0:0:0:0:
439,367,71059,6,0,L|441:276,1,86.2500032901765,2|0,0:0|2:0,0:0:0:0:
466,297,71384,6,0,L|470:210,1,86.2500032901765,2|0,0:0|2:0,0:0:0:0:
498,231,71708,6,0,L|505:40,1,184,2|0,0:0|0:0,0:0:0:0:
403,53,71951,1,2,0:0:0:0:
403,53,72032,2,0,P|353:90|285:78,1,92
241,34,72194,2,0,P|192:25|132:47,1,92,2|0,0:0|0:0,0:0:0:0:
44,102,72356,6,0,P|37:80|39:58,1,46,2|0,0:0|2:0,0:0:0:0:
198,149,72519,2,0,P|191:127|178:107,1,46,0|0,0:0|2:0,0:0:0:0:
29,237,72681,2,0,P|33:214|44:194,1,46,2|0,0:0|2:0,0:0:0:0:
170,299,72843,2,0,L|160:254,1,46,0|0,0:0|2:0,0:0:0:0:
264,362,73005,6,0,P|334:332|437:373,1,184,2|2,0:0|0:0,0:0:0:0:
493,320,73248,1,0,0:0:0:0:
493,320,73329,2,0,B|471:288|425:269|425:269|391:213|429:142,1,184,2|0,0:0|0:0,0:0:0:0:
454,89,73573,1,0,0:0:0:0:
454,89,73654,5,2,0:0:0:0:
308,116,73816,6,0,L|247:106,3,61.3333333333333
373,170,74059,6,0,L|454:156,2,63.2500019302369,2|2|2,0:2|0:2|0:2,0:0:0:0:
340,237,74302,6,0,P|268:317|185:320,1,184,6|0,1:0|0:0,0:0:0:0:
114,267,74546,1,2,0:0:0:0:
114,267,74627,2,0,P|132:200|122:153,1,92
34,38,74789,2,0,P|16:105|26:152,1,92,2|0,1:0|1:0,1:0:0:0:
129,178,74951,6,0,B|231:177|231:177|309:132,1,184,2|0,0:0|0:0,0:0:0:0:
346,61,75194,1,2,0:0:0:0:
368,44,75275,2,0,P|451:28|488:52,1,92
475,170,75438,2,0,P|424:186|368:163,1,92,2|0,0:0|0:0,0:0:0:0:
423,106,75600,6,0,B|441:184|441:184|394:252|435:324,1,206.999993682861,8|0,0:0|2:0,0:0:0:0:
367,363,75843,6,0,P|270:380|157:298,1,206.999993682861,8|0,0:0|2:0,0:0:0:0:
132,260,76086,6,0,B|153:125|153:125|92:17,1,206.999993682861,8|0,0:0|2:0,0:0:0:0:
45,103,76329,6,0,B|24:238|24:238|85:346,1,206.999993682861,8|0,0:0|2:0,0:0:0:0:
141,367,76573,6,0,P|183:356|229:305,1,103.499996841431,8|0,0:0|2:0,0:0:0:0:
235,214,76735,2,0,P|216:156|240:81,1,103.499996841431,0|0,0:0|2:0,0:0:0:0:
302,37,76897,5,2,0:0:0:0:
326,50,76978,1,0,0:0:0:0:
320,77,77059,1,0,0:0:0:0:
292,80,77140,1,0,0:0:0:0:
280,54,77221,2,0,P|240:35|131:83,1,92,2|0,0:0|2:0,0:0:0:0:
58,120,77384,2,0,P|98:139|207:91,1,92,2|0,0:0|2:0,0:0:0:0:
235,214,77546,6,0,L|224:328,2,99.6666621042889,2|0|0,0:0|0:0|0:0,0:0:0:0:
322,301,77870,6,0,L|314:381,2,76.6666666666667,2|0|0,0:0|0:0|0:0,0:0:0:0:
394,231,78194,6,0,L|383:142,1,68.9999978942872,2|0,0:0|2:0,0:0:0:0:
378,109,78356,1,2,0:0:0:0:
285,286,78519,6,0,L|274:176,1,68.9999978942872,10|0,0:0|2:0,0:0:0:0:
273,136,78681,1,0,0:0:0:0:
193,326,78843,6,0,L|184:226,1,68.9999978942872,2|0,0:0|2:0,0:0:0:0:
9,150,79005,2,0,L|16:220,1,68.9999978942872
106,337,79167,5,2,1:0:0:0:
101,259,79248,1,0,0:0:0:0:
97,181,79329,1,0,0:0:0:0:
93,102,79411,1,0,0:0:0:0:
149,23,79492,6,0,P|250:22|331:133,1,184,2|0,0:0|0:0,0:0:0:0:
397,147,79735,1,2,0:0:0:0:
397,147,79816,2,0,P|451:140|499:95,1,92
499,30,79978,2,0,P|445:37|397:82,1,92,2|0,0:0|0:0,0:0:0:0:
384,181,80140,6,0,P|291:182|211:134,1,184,2|0,0:0|0:0,0:0:0:0:
159,33,80384,1,2,0:0:0:0:
159,33,80465,2,0,P|88:9|44:22,1,92
0,92,80627,2,0,P|71:116|115:103,1,92,2|0,0:0|0:0,0:0:0:0:
148,217,80789,6,0,B|141:274|141:274|153:345,1,92,2|0,0:0|0:0,0:0:0:0:
272,265,80951,2,0,B|267:323|267:323|282:372,1,92,0|2,0:0|0:0,0:0:0:0:
391,255,81113,6,0,B|402:194|402:194|396:133,1,92
509,177,81275,2,0,B|516:115|516:115|503:45,1,92,2|0,0:0|0:0,0:0:0:0:
347,34,81438,6,0,P|304:24|246:41,1,86.2500032901765,2|0,0:0|2:0,0:0:0:0:
195,52,81762,6,0,P|237:44|278:54,1,86.2500032901765,2|0,0:0|2:0,0:0:0:0:
329,103,82086,6,0,P|241:87|134:132,1,184,2|0,0:0|0:0,0:0:0:0:
48,185,82329,1,2,0:0:0:0:
48,185,82411,2,0,L|62:294,1,92
196,244,82573,2,0,L|182:353,1,92,2|0,0:0|0:0,0:0:0:0:
314,375,82735,5,2,0:0:0:0:
341,371,82816,1,2,0:0:0:0:
389,300,82897,5,2,0:0:0:0:
361,295,82978,1,0,0:0:0:0:
305,236,83059,5,2,0:0:0:0:
332,231,83140,1,0,0:0:0:0:
381,167,83221,5,0,0:0:0:0:
354,159,83302,1,0,0:0:0:0:
300,101,83384,6,0,P|323:37|446:31,1,184,2|2,0:0|0:0,0:0:0:0:
427,18,83627,1,0,0:0:0:0:
434,25,83708,2,0,P|343:68|221:16,1,184,2|0,0:0|0:0,0:0:0:0:
167,10,83951,1,0,0:0:0:0:
96,73,84032,6,0,L|112:180,1,92,2|0,0:0|0:0,0:0:0:0:
197,254,84194,6,0,P|223:254|191:245,1,92
120,305,84356,2,0,P|82:300|22:266,2,61.3333333333333
176,373,84519,2,0,P|210:337|292:342,1,92
328,378,84681,6,0,L|345:167,1,184,2|0,0:0|0:0,0:0:0:0:
413,139,84924,1,2,0:0:0:0:
413,139,85005,2,0,P|460:161|529:160,1,92
440,42,85167,2,0,P|383:35|328:72,1,92,2|0,0:0|0:0,0:0:0:0:
291,124,85329,6,0,P|204:134|110:71,1,184,2|0,0:0|0:0,0:0:0:0:
65,24,85573,1,2,0:0:0:0:
65,24,85654,2,0,P|41:68|53:136,1,92
97,249,85816,2,0,P|112:205|91:147,1,92,2|0,0:0|0:0,0:0:0:0:
31,201,85978,6,0,L|227:220,1,184,2|0,0:0|0:0,0:0:0:0:
292,261,86221,1,2,0:0:0:0:
292,261,86302,2,0,P|329:213|331:160,1,92
273,119,86465,2,0,P|262:52|289:12,1,92,2|0,0:0|0:0,0:0:0:0:
375,23,86627,6,0,L|456:14,1,46,2|0,0:0|2:0,0:0:0:0:
137,23,86789,2,0,L|56:14,1,46,0|0,0:0|2:0,0:0:0:0:
398,50,86951,6,0,L|479:41,1,46,2|0,0:0|2:0,0:0:0:0:
114,50,87113,2,0,L|33:41,1,46,2|0,0:0|2:0,0:0:0:0:
78,372,87438,6,0,P|52:243|106:178,1,206.999993682861,8|0,0:0|2:0,0:0:0:0:
176,247,87681,6,0,L|411:222,1,206.999993682861,8|0,0:0|2:0,0:0:0:0:
460,156,87924,6,0,P|466:58|363:15,1,206.999993682861,8|0,0:0|2:0,0:0:0:0:
324,99,88167,6,0,B|225:110|225:110|171:89|162:21,1,206.999993682861,8|0,0:0|2:0,0:0:0:0:
59,35,88411,6,0,B|61:104|96:143|96:143|94:202|48:237,1,206.999993682861,8|0,0:0|2:0,0:0:0:0:
117,328,88654,6,0,P|217:341|273:222,1,206.999993682861,8|0,0:0|2:0,0:0:0:0:
369,218,88897,6,0,B|453:250|453:250|474:309|402:381,1,206.999993682861,8|0,0:0|2:0,0:0:0:0:
280,363,89140,6,0,B|186:349|186:349|210:285|175:244,1,206.999993682861,8|0,0:0|2:0,0:0:0:0:
232,21,89384,6,0,B|326:35|326:35|302:99|337:140,1,206.999993682861,8|0,0:0|2:0,0:0:0:0:
468,282,89627,6,0,L|478:182,1,86.2500032901765,8|0,0:0|2:0,0:0:0:0:
255,196,90194,5,8,0:0:0:0:
256,192,90275,12,0,91654,2:0:0:0:
360,34,91816,5,0,0:0:0:0:
360,34,92140,2,0,P|265:94|173:43,1,206.999993682861,8|0,0:0|2:0,0:0:0:0:
147,41,92465,6,0,B|118:178|118:178|147:261,1,194.350003632793,2|0,0:0|0:0,0:0:0:0:
184,296,92708,1,2,0:0:0:0:
248,248,92789,2,0,P|308:236|368:284,1,97.1750018163967
488,316,92951,2,0,P|428:328|368:280,1,97.1750018163967,2|0,0:0|0:0,0:0:0:0:
331,209,93113,6,0,B|305:148|305:148|312:82,1,97.1750018163967,2|0,0:0|0:0,0:0:0:0:
437,22,93275,2,0,B|463:83|463:83|456:149,1,97.1750018163967,2|0,0:0|0:0,0:0:0:0:
321,227,93438,6,0,B|295:166|295:166|302:100,1,97.1750018163967,2|0,0:0|0:0,0:0:0:0:
421,44,93600,2,0,B|447:105|447:105|440:171,1,97.1750018163967,2|0,0:0|0:0,0:0:0:0:
399,280,93762,6,0,P|314:318|260:289,1,97.1750018163967,2|0,0:0|0:0,0:0:0:0:
200,223,93924,1,2,0:0:0:0:
189,181,94005,1,0,0:0:0:0:
183,141,94086,2,0,P|111:129|66:163,1,97.1750018163967,2|0,0:0|0:0,0:0:0:0:
13,254,94248,1,0,0:0:0:0:
31,296,94329,1,0,0:0:0:0:
50,337,94411,6,0,B|138:357|138:357|204:337,2,129.566669088529,2|0|2,0:0|0:0|0:0,0:0:0:0:
144,272,94735,6,0,P|197:266|254:310,1,97.1750018163967,2|0,0:3|0:0,0:0:0:0:
307,344,94897,2,0,P|339:366|427:370,1,97.1750018163967,2|0,0:3|0:0,0:0:0:0:
486,291,95059,6,0,B|504:167|504:167|489:95,1,194.350003632793,6|0,0:0|0:0,0:0:0:0:
371,41,95302,1,2,0:0:0:0:
352,56,95384,2,0,P|301:62|221:20,1,97.1750018163967
94,93,95546,2,0,P|147:88|190:105,1,97.1750018163967,2|0,0:0|0:0,0:0:0:0:
231,223,95708,6,0,L|229:334,1,97.1750018163967,2|0,0:0|0:0,0:0:0:0:
100,342,95870,1,0,0:0:0:0:
64,327,95951,2,0,P|44:275|73:185,1,97.1750018163967,2|0,0:0|0:0,0:0:0:0:
94,93,96113,1,0,0:0:0:0:
121,111,96194,2,0,P|146:178|136:225,1,97.1750018163967,2|0,0:0|0:0,0:0:0:0:
263,355,96356,6,0,L|399:349,1,97.1750018163967,2|0,0:0|0:0,0:0:0:0:
455,251,96519,1,0,0:0:0:0:
458,221,96600,1,2,0:0:0:0:
460,185,96681,2,0,P|394:156|323:178,1,97.1750018163967
289,263,96843,2,0,P|234:270|165:238,1,97.1750018163967,2|0,0:0|0:0,0:0:0:0:
64,188,97005,6,0,L|51:46,1,115,10|0,0:0|0:0,0:0:0:0:
143,46,97167,2,0,L|148:95,3,48.5875009081984
184,125,97329,5,10,0:0:0:0:
262,121,97411,1,0,0:0:0:0:
320,69,97492,1,0,0:0:0:0:
397,63,97573,1,0,0:0:0:0:
461,106,97654,6,0,L|455:285,1,172.5,2|0,1:2|2:0,0:0:0:0:
455,304,97978,2,0,P|400:270|338:286,1,115,2|2,0:2|0:2,0:0:0:0:
192,339,98302,6,0,P|252:359|313:322,1,115,2|0,0:2|2:0,0:0:0:0:
135,106,98627,2,0,L|125:304,1,172.5,2|0,0:2|2:0,0:0:0:0:
126,301,98951,6,0,P|66:273|37:273,1,80.499997543335,2|0,0:0|0:0,0:0:0:0:
213,185,99113,2,0,P|281:164|299:143,1,80.499997543335,2|0,0:0|0:0,0:0:0:0:
197,49,99275,2,0,P|123:24|64:53,2,107.33333005778,2|0|0,0:0|0:0|0:0,0:0:0:0:
367,144,99600,1,2,0:0:0:0:
367,144,99924,6,0,B|408:112|408:112|345:88|301:151|240:121,1,206.999993682861,8|0,0:0|2:0,0:0:0:0:
68,155,100248,6,0,L|71:258,1,80.499997543335,2|0,0:0|0:0,0:0:0:0:
140,295,100411,2,0,L|144:347,3,40.2499987716675,2|0|0|0,0:0|0:0|0:0|0:0,0:0:0:0:
208,376,100573,2,0,P|285:385|330:350,2,107.33333005778,2|0|0,0:0|0:0|0:0,0:0:0:0:
162,188,100897,1,2,0:0:0:0:
162,188,101221,6,0,P|200:125|85:74,1,206.999993682861,8|0,0:0|0:0,0:0:0:0:
155,221,101546,6,0,L|130:127,1,97.1750018163967,2|0,0:0|0:0,0:0:0:0:
249,300,101708,2,0,L|267:193,1,97.1750018163967,2|0,0:0|0:0,0:0:0:0:
324,92,101870,6,0,P|322:71|335:39,1,38.3333333333333,2|0,0:0|0:0,0:0:0:0:
349,100,101978,2,0,P|353:79|373:51,1,38.3333333333333
372,107,102086,2,0,P|381:88|408:66,1,38.3333333333333
396,114,102194,6,0,P|419:186|359:273,1,97.1750018163967,2|0,0:0|0:0,0:0:0:0:
277,367,102356,2,0,P|250:297|291:228,1,97.1750018163967,2|0,0:0|0:0,0:0:0:0:
188,92,102519,6,0,P|190:71|177:39,1,38.3333333333333,2|0,0:0|0:0,0:0:0:0:
163,100,102627,2,0,P|159:79|139:51,1,38.3333333333333
140,107,102735,2,0,P|131:88|104:66,1,38.3333333333333
116,114,102843,5,2,0:0:0:0:
79,159,102924,1,0,0:0:0:0:
80,217,103005,1,2,0:0:0:0:
112,265,103086,1,0,0:0:0:0:
177,282,103167,5,10,0:0:0:0:
240,256,103248,1,0,0:0:0:0:
287,194,103329,5,8,0:0:0:0:
374,179,103411,1,0,0:0:0:0:
446,243,103492,5,4,0:0:0:0:
