osu file format v14

[General]
AudioFilename: [SDVX III] F.K.S. [EXH].mp3
AudioLeadIn: 0
PreviewTime: 66535
Countdown: 1
SampleSet: Normal
StackLeniency: 0.7
Mode: 0
LetterboxInBreaks: 1
WidescreenStoryboard: 0

[Editor]
DistanceSpacing: 1
BeatDivisor: 4
GridSize: 8
TimelineZoom: 3.499999

[Metadata]
Title:F.K.S
TitleUnicode:F.K.S
Artist:Nizikawa
ArtistUnicode:Nizikawa
Creator:Necroluttah
Version:GRAVITY
Source:SOUND VOLTEX III GRAVITY WARS
Tags:sound voltex gravity wars necroh tarrasky yauxo srskyplayer nhawak hardcore
BeatmapID:763002
BeatmapSetID:345519

[Difficulty]
HPDrainRate:6
CircleSize:4
OverallDifficulty:8
ApproachRate:9.5
SliderMultiplier:2.2
SliderTickRate:1

[Events]
//Background and Video events
0,0,"fks.png",0,0
//Break Periods
2,48572,53037
//Storyboard Layer 0 (Background)
//Storyboard Layer 1 (Fail)
//Storyboard Layer 2 (Pass)
//Storyboard Layer 3 (Foreground)
//Storyboard Sound Samples

[TimingPoints]
373,324.324324324324,4,1,0,55,1,0
2643,-100,4,1,0,25,0,0
2967,-100,4,1,0,55,0,0
4264,-200,4,1,0,55,0,0
6210,-133.333333333333,4,1,0,55,0,0
7183,-100,4,1,0,55,0,0
7508,-133.333333333333,4,1,0,55,0,0
7832,-100,4,1,0,55,0,0
8156,-133.333333333333,4,1,0,55,0,0
9129,-100,4,1,0,55,0,0
9454,-83.3333333333333,4,1,0,55,0,0
11400,-100,4,1,0,55,0,0
14643,-83.3333333333333,4,1,0,55,0,0
19386,-83.3333333333333,4,1,0,25,0,0
19508,-83.3333333333333,4,1,0,55,0,0
19548,-83.3333333333333,4,1,0,25,0,0
19832,-83.3333333333333,4,1,0,55,0,0
22427,-100,4,1,0,55,0,0
26318,-133.333333333333,4,1,0,55,0,0
26643,-83.3333333333333,4,1,0,55,0,0
32805,-133.333333333333,4,1,0,55,0,0
33656,-133.333333333333,4,1,0,25,0,0
33778,-133.333333333333,4,1,0,55,0,0
33818,-133.333333333333,4,1,0,25,0,0
33940,-133.333333333333,4,1,0,55,0,0
33981,-133.333333333333,4,1,0,25,0,0
34102,-133.333333333333,4,1,0,55,0,0
35075,-83.3333333333333,4,1,0,55,0,0
35400,-200,4,1,0,55,0,0
35400,-200,4,1,0,55,0,0
37670,-83.3333333333333,4,1,0,55,0,0
37710,-83.3333333333333,4,1,0,25,0,0
37832,-83.3333333333333,4,1,0,55,0,0
37872,-83.3333333333333,4,1,0,25,0,0
37994,-66.6666666666667,4,1,0,55,0,0
39291,-200,4,1,0,55,0,0
40589,-133.333333333333,4,1,0,55,0,0
43224,-133.333333333333,4,1,0,25,0,0
43345,-133.333333333333,4,1,0,55,0,0
43386,-133.333333333333,4,1,0,25,0,0
43508,-133.333333333333,4,1,0,55,0,0
43548,-133.333333333333,4,1,0,25,0,0
43670,-133.333333333333,4,1,0,55,0,0
43710,-133.333333333333,4,1,0,25,0,0
43832,-133.333333333333,4,1,0,55,0,0
43872,-133.333333333333,4,1,0,25,0,0
43994,-133.333333333333,4,1,0,55,0,0
44035,-133.333333333333,4,1,0,25,0,0
44156,-133.333333333333,4,1,0,55,0,0
44197,-133.333333333333,4,1,0,25,0,0
44318,-133.333333333333,4,1,0,55,0,0
44359,-133.333333333333,4,1,0,25,0,0
44481,-133.333333333333,4,1,0,55,0,0
55832,-133.333333333333,4,1,0,25,0,0
56156,-153.846153846154,4,1,0,55,0,0
58102,-100,4,1,0,55,0,0
58427,-83.3333333333333,4,1,0,55,0,0
63494,-133.333333333333,4,1,0,55,0,0
68805,-83.3333333333333,4,1,0,55,0,0
69129,-66.6666666666667,4,1,0,55,0,1
71075,-66.6666666666667,4,1,0,55,0,0
71724,-66.6666666666667,4,1,0,55,0,1
72372,-83.3333333333333,4,1,0,55,0,1
73832,-83.3333333333333,4,1,0,40,0,1
73994,-83.3333333333333,4,1,0,55,0,1
74318,-66.6666666666667,4,1,0,55,0,1
75616,-100,4,1,0,55,0,0
76913,-100,4,1,0,55,0,1
78210,-100,4,1,0,55,0,0
79508,-66.6666666666667,4,1,0,55,0,1
81454,-66.6666666666667,4,1,0,55,0,0
82102,-66.6666666666667,4,1,0,55,0,1
86643,-66.6666666666667,4,1,0,55,0,0
87454,-100,4,1,0,55,0,0
92156,-66.6666666666667,4,1,0,55,0,0
92481,-66.6666666666667,4,1,0,55,0,1
94102,-83.3333333333333,4,1,0,55,0,1
94751,-83.3333333333333,4,1,0,55,0,0
95075,-66.6666666666667,4,1,0,55,0,1
97670,-66.6666666666667,4,1,0,55,0,0
99940,-83.3333333333333,4,1,0,55,0,0
101886,-83.3333333333333,4,1,0,40,0,0
102210,-83.3333333333333,4,1,0,55,0,0
102535,-83.3333333333333,4,1,0,40,0,0
102859,-83.3333333333333,4,1,0,55,0,0

[HitObjects]
256,192,1021,12,0,2643,0:0:0:0:
392,304,2967,6,0,L|264:288,1,73.3333333333334,4|0,0:0|0:0,0:0:0:0:
247,281,3183,5,0,0:0:0:0:
174,268,3291,6,0,L|265:172,1,73.3333333333334,4|0,0:0|0:0,0:0:0:0:
276,161,3508,5,0,0:0:0:0:
321,103,3616,6,0,L|193:116,1,73.3333333333334,4|0,0:0|0:0,0:0:0:0:
175,119,3832,5,0,0:0:0:0:
102,129,3940,6,0,L|-29:144,1,110,4|0,0:0|0:0,0:0:0:0:
21,188,4183,1,0,0:0:0:0:
21,188,4264,2,0,P|37:254|1:349,1,165,4|0,0:0|0:0,0:0:0:0:
104,344,4913,2,0,B|192:357|192:357|282:331,1,165,4|0,0:0|0:0,0:0:0:0:
376,300,5562,2,0,P|360:234|396:139,1,165,4|0,0:0|0:0,0:0:0:0:
448,52,6210,6,0,B|408:66|408:66|344:74,1,82.5000031471254
256,88,6535,2,0,B|218:80|218:80|141:78,1,82.5000031471254
48,64,6859,6,0,P|75:112|54:204,1,123.750004720688,2|0,0:0|0:0,0:0:0:0:
60,236,7183,2,0,P|65:286|66:232,1,165,4|0,0:0|0:0,0:0:0:0:
120,164,7508,6,0,L|260:178,1,123.750004720688,2|0,0:0|0:0,0:0:0:0:
316,188,7832,2,0,B|352:295|352:295|353:203,1,165,4|0,0:0|0:0,0:0:0:0:
412,152,8156,5,2,0:0:0:0:
448,284,8318,1,0,0:0:0:0:
412,152,8481,2,0,L|270:164,1,123.750004720688,2|0,0:0|0:0,0:0:0:0:
216,172,8805,5,8,0:0:0:0:
254,225,8886,1,8,0:0:0:0:
212,276,8967,1,8,0:0:0:0:
149,254,9048,1,8,0:0:0:0:
148,188,9129,6,0,P|165:149|146:176,1,165,8|8,0:0|0:0,0:0:0:0:
72,184,9454,6,0,B|83:249|83:249|64:320,1,131.99999597168,4|0,0:0|0:0,0:0:0:0:
60,364,9697,1,8,0:0:0:0:
208,292,9859,1,0,0:0:0:0:
252,356,9940,1,0,0:0:0:0:
388,296,10102,6,0,B|377:231|377:231|396:160,1,131.99999597168
400,116,10345,1,8,0:0:0:0:
216,172,10508,1,0,0:0:0:0:
248,104,10589,1,0,0:0:0:0:
72,184,10751,6,0,L|115:31,1,131.99999597168
128,4,10994,1,8,0:0:0:0:
216,172,11156,1,0,0:0:0:0:
248,104,11237,1,0,0:0:0:0:
264,316,11400,6,0,P|319:290|449:326,1,183.333333333333,4|0,0:0|0:0,0:0:0:0:
484,352,11724,6,0,L|503:150,1,183.333333333333,4|0,0:0|0:0,0:0:0:0:
512,104,12048,5,4,0:0:0:0:
352,244,12210,1,0,0:0:0:0:
352,244,12291,2,0,L|216:272,1,110,8|0,0:0|0:0,0:0:0:0:
176,288,12535,1,0,0:0:0:0:
340,112,12697,5,8,0:0:0:0:
280,320,12859,1,8,0:0:0:0:
404,104,13021,1,8,0:0:0:0:
280,256,13183,1,8,0:0:0:0:
60,196,13345,6,0,L|188:216,1,110,4|0,0:0|0:0,0:0:0:0:
444,236,13670,2,0,P|373:223|275:161,1,165,2|0,0:0|0:0,0:0:0:0:
232,112,13994,2,0,L|205:251,1,110,2|0,0:0|0:0,0:0:0:0:
196,295,14237,5,8,0:0:0:0:
126,328,14318,1,8,0:0:0:0:
69,274,14400,1,8,0:0:0:0:
110,209,14481,1,8,0:0:0:0:
186,217,14562,1,8,0:0:0:0:
252,252,14643,6,0,P|332:260|419:237,1,131.99999597168,4|0,0:0|0:0,0:0:0:0:
457,227,14886,1,8,0:0:0:0:
368,80,15048,1,0,0:0:0:0:
341,154,15129,1,0,0:0:0:0:
281,298,15291,6,0,L|133:284,1,131.99999597168
70,276,15535,1,8,0:0:0:0:
164,104,15697,1,0,0:0:0:0:
198,175,15778,1,0,0:0:0:0:
269,316,15940,6,0,B|337:302|337:302|418:312,1,131.99999597168
475,328,16183,1,8,0:0:0:0:
440,136,16345,1,0,0:0:0:0:
412,212,16427,1,0,0:0:0:0:
342,354,16589,5,10,0:0:0:0:
308,305,16670,1,0,0:0:0:0:
257,291,16751,1,0,0:0:0:0:
213,307,16832,1,0,0:0:0:0:
193,341,16913,1,10,0:0:0:0:
164,356,16994,1,0,0:0:0:0:
137,356,17075,1,0,0:0:0:0:
119,346,17156,1,0,0:0:0:0:
107,330,17237,6,0,P|150:221|139:182,1,131.99999597168,4|0,0:0|0:0,0:0:0:0:
120,48,17562,2,0,P|100:142|51:203,1,131.99999597168,8|0,0:0|0:0,0:0:0:0:
0,312,17886,2,0,L|84:296,1,65.9999979858399
168,280,18048,2,0,L|252:300,1,65.9999979858399
336,320,18210,2,0,L|420:300,1,65.9999979858399,8|0,0:0|0:0,0:0:0:0:
512,268,18372,2,0,L|424:224,1,65.9999979858399
272,152,18535,5,0,0:0:0:0:
288,364,18697,1,0,0:0:0:0:
372,108,18859,2,0,P|348:181|395:131,1,197.99999395752,8|0,0:0|0:0,0:0:0:0:
440,76,19183,1,0,0:0:0:0:
304,288,19345,6,0,L|272:272,1,32.99999899292,8|0,0:0|0:0,0:0:0:0:
444,232,19508,6,0,L|412:216,1,32.99999899292,8|0,0:0|0:0,0:0:0:0:
272,152,19832,6,0,P|193:171|115:157,1,131.99999597168,6|0,0:0|0:0,0:0:0:0:
56,152,20075,1,0,0:0:0:0:
56,152,20156,2,0,B|15:200|15:200|-8:280,1,131.99999597168,8|0,0:0|0:0,0:0:0:0:
88,384,20481,1,2,0:0:0:0:
115,355,20562,1,0,0:0:0:0:
152,341,20643,1,0,0:0:0:0:
191,337,20724,1,0,0:0:0:0:
230,342,20805,2,0,P|356:349|379:340,1,131.99999597168,8|0,0:0|0:0,0:0:0:0:
468,284,21129,6,0,B|440:227|440:227|439:134,1,131.99999597168,2|0,0:0|0:0,0:0:0:0:
448,88,21372,1,0,0:0:0:0:
448,88,21454,2,0,L|306:130,1,131.99999597168,8|0,0:0|0:0,0:0:0:0:
240,216,21778,6,0,L|264:145,1,65.9999979858399,2|0,0:0|0:0,0:0:0:0:
160,168,21940,1,0,0:0:0:0:
160,168,22021,1,0,0:0:0:0:
160,168,22102,2,0,B|120:170|120:170|54:136,1,65.9999979858399,8|0,0:0|0:0,0:0:0:0:
36,136,22264,1,0,0:0:0:0:
96,296,22427,6,0,L|232:312,1,110,2|0,0:0|0:0,0:0:0:0:
237,314,22670,1,0,0:0:0:0:
237,314,22751,2,0,L|379:291,1,110,8|0,0:0|0:0,0:0:0:0:
476,276,23075,5,2,0:0:0:0:
465,244,23156,1,0,0:0:0:0:
454,212,23237,1,0,0:0:0:0:
443,180,23318,1,0,0:0:0:0:
396,200,23400,5,8,0:0:0:0:
385,168,23481,1,0,0:0:0:0:
374,136,23562,1,0,0:0:0:0:
363,104,23643,1,0,0:0:0:0:
351,73,23724,6,0,B|295:82|295:82|236:65,1,110,6|0,0:0|0:0,0:0:0:0:
76,28,24048,6,0,B|85:84|85:84|68:143,1,110,6|0,0:0|0:0,0:0:0:0:
20,296,24372,6,0,B|76:287|76:287|135:304,1,110,6|0,0:0|0:0,0:0:0:0:
312,352,24697,6,0,B|303:296|303:296|320:237,1,110,6|0,0:0|0:0,0:0:0:0:
351,194,24940,5,0,0:0:0:0:
392,150,25021,1,0,0:0:0:0:
361,97,25102,1,0,0:0:0:0:
301,105,25183,1,0,0:0:0:0:
289,164,25264,1,0,0:0:0:0:
296,232,25345,6,0,L|143:226,1,110,4|8,0:0|0:0,0:0:0:0:
40,232,25670,5,0,0:0:0:0:
47,291,25751,1,0,0:0:0:0:
106,301,25832,1,0,0:0:0:0:
131,246,25913,1,0,0:0:0:0:
99,194,25994,6,0,L|213:210,1,110,6|8,0:0|0:0,0:0:0:0:
414,220,26318,6,0,P|381:188|395:232,1,123.750004720688,4|0,0:0|0:0,0:0:0:0:
452,264,26643,2,0,L|468:111,1,131.99999597168,8|0,0:0|0:0,0:0:0:0:
208,80,26967,6,0,L|216:112,1,32.99999899292
248,72,27048,2,0,L|256:104,1,32.99999899292
288,64,27129,2,0,L|296:96,1,32.99999899292
328,56,27210,2,0,L|336:88,1,32.99999899292
368,48,27291,6,0,P|355:115|387:193,1,131.99999597168,8|0,0:0|0:0,0:0:0:0:
400,224,27535,1,0,0:0:0:0:
471,237,27616,1,2,0:0:0:0:
506,173,27697,1,0,0:0:0:0:
451,125,27778,1,0,0:0:0:0:
384,152,27859,1,0,0:0:0:0:
356,211,27940,6,0,P|347:276|371:340,1,131.99999597168,8|0,0:0|0:0,0:0:0:0:
424,373,28183,1,0,0:0:0:0:
424,373,28264,1,2,0:0:0:0:
493,352,28345,1,0,0:0:0:0:
512,281,28427,1,0,0:0:0:0:
467,223,28508,1,0,0:0:0:0:
401,217,28589,6,0,P|381:133|390:78,1,131.99999597168,8|0,0:0|0:0,0:0:0:0:
184,144,28913,5,10,0:0:0:0:
185,157,28994,1,0,0:0:0:0:
186,170,29075,1,0,0:0:0:0:
187,183,29156,1,0,0:0:0:0:
188,196,29237,1,10,0:0:0:0:
189,209,29318,1,0,0:0:0:0:
190,222,29400,1,0,0:0:0:0:
191,235,29481,1,0,0:0:0:0:
192,248,29562,1,10,0:0:0:0:
193,261,29643,1,0,0:0:0:0:
194,274,29724,1,0,0:0:0:0:
195,287,29805,1,0,0:0:0:0:
197,300,29886,6,0,L|217:346,6,32.99999899292
304,360,30210,6,0,L|330:246,1,65.9999979858399,6|0,0:0|0:0,0:0:0:0:
368,184,30372,2,0,L|386:262,1,65.9999979858399
344,48,30535,2,0,L|341:140,1,65.9999979858399,10|0,0:0|0:0,0:0:0:0:
352,268,30697,1,0,0:0:0:0:
352,268,30778,1,0,0:0:0:0:
352,268,30859,6,0,L|232:260,1,65.9999979858399,6|0,0:0|0:0,0:0:0:0:
120,272,31021,6,0,L|28:304,1,65.9999979858399,4|0,0:0|0:0,0:0:0:0:
284,216,31183,6,0,L|221:194,1,65.9999979858399,14|0,0:0|0:0,0:0:0:0:
420,72,31345,6,0,L|357:93,1,65.9999979858399,12|0,0:0|0:0,0:0:0:0:
448,200,31508,6,2,L|462:264,1,65.9999979858399,2|0,0:0|0:0,0:0:0:0:
332,368,31670,2,0,L|352:271,1,65.9999979858399
248,200,31832,2,0,L|234:264,1,65.9999979858399,10|0,0:0|0:0,0:0:0:0:
380,148,31994,1,0,0:0:0:0:
380,148,32075,1,0,0:0:0:0:
380,148,32156,6,0,L|396:244,1,65.9999979858399,6|0,0:0|0:0,0:0:0:0:
304,28,32318,6,0,L|288:124,1,65.9999979858399,4|0,0:0|0:0,0:0:0:0:
216,224,32481,6,0,L|232:320,1,65.9999979858399,14|0,0:0|0:0,0:0:0:0:
120,56,32643,6,0,L|109:121,1,65.9999979858399,12|0,0:0|0:0,0:0:0:0:
72,280,32805,6,0,L|215:279,1,123.750004720688,6|0,0:0|0:0,0:0:0:0:
268,272,33129,1,8,0:0:0:0:
452,264,33291,2,0,P|441:200|465:125,1,123.750004720688
480,76,33616,6,0,L|448:56,1,20.6250007867813,8|0,0:0|0:0,0:0:0:0:
352,324,33778,6,0,L|324:308,1,20.6250007867813,8|0,0:0|0:0,0:0:0:0:
332,148,33940,6,0,L|304:132,1,20.6250007867813
156,360,34102,5,4,0:0:0:0:
176,184,34264,2,0,L|191:261,1,41.2500015735627
216,32,34427,1,4,0:0:0:0:
280,280,34589,2,0,L|292:228,1,41.2500015735627
328,80,34751,1,4,0:0:0:0:
128,276,34913,1,8,0:0:0:0:
390,195,35075,6,0,P|321:215|392:231,1,197.99999395752,12|8,0:0|0:0,0:0:0:0:
464,216,35400,6,0,P|447:158|482:38,1,165,4|0,0:0|0:0,0:0:0:0:
336,112,36048,2,0,B|256:130|256:130|159:106,1,165,4|0,0:0|0:0,0:0:0:0:
43,57,36697,2,0,L|49:124,1,55,4|0,0:0|0:0,0:0:0:0:
20,288,37021,2,0,L|52:238,1,55,4|0,0:0|0:0,0:0:0:0:
148,108,37345,5,8,0:0:0:0:
155,137,37427,1,8,0:0:0:0:
161,166,37508,1,8,0:0:0:0:
168,195,37589,1,8,0:0:0:0:
176,224,37670,6,0,L|212:204,1,32.99999899292,8|0,0:0|0:0,0:0:0:0:
140,360,37832,6,0,L|176:340,1,32.99999899292,8|0,0:0|0:0,0:0:0:0:
326,242,37994,6,0,L|349:346,1,82.5000031471254,4|0,0:0|0:0,0:0:0:0:
388,136,38156,1,0,0:0:0:0:
388,136,38237,1,0,0:0:0:0:
388,136,38318,2,8,L|411:240,1,82.5000031471254
448,368,38481,2,0,L|464:272,1,82.5000031471254
480,184,38643,1,4,0:0:0:0:
431,173,38724,1,0,0:0:0:0:
382,162,38805,1,0,0:0:0:0:
333,151,38886,1,0,0:0:0:0:
320,96,38967,5,8,0:0:0:0:
271,107,39048,1,0,0:0:0:0:
222,118,39129,1,0,0:0:0:0:
173,129,39210,1,0,0:0:0:0:
131,142,39291,6,0,P|56:185|140:207,1,220,4|4,0:0|0:0,0:0:0:0:
360,56,40264,2,0,L|277:88,1,82.5,4|0,0:0|0:0,0:0:0:0:
208,120,40589,5,6,0:0:0:0:
81,181,40751,1,0,0:0:0:0:
149,303,40913,1,10,0:0:0:0:
275,243,41075,1,8,0:0:0:0:
392,176,41237,1,2,0:0:0:0:
464,288,41400,1,0,0:0:0:0:
352,352,41562,6,0,P|314:334|349:358,1,123.750004720688,12|0,0:0|0:0,0:0:0:0:
424,360,41886,5,8,0:0:0:0:
305,284,42048,1,8,0:0:0:0:
438,241,42210,1,8,0:0:0:0:
316,171,42372,1,8,0:0:0:0:
443,110,42535,5,0,0:0:0:0:
417,152,42616,1,0,0:0:0:0:
367,150,42697,1,0,0:0:0:0:
338,109,42778,1,0,0:0:0:0:
364,67,42859,1,8,0:0:0:0:
276,232,43021,1,0,0:0:0:0:
104,224,43183,6,0,L|72:232,1,20.6250007867813,4|0,0:0|0:0,0:0:0:0:
160,140,43345,6,0,L|139:134,1,20.6250007867813
256,212,43508,6,0,L|224:220,1,20.6250007867813,4|0,0:0|0:0,0:0:0:0:
320,128,43670,6,0,L|299:122,1,20.6250007867813
424,224,43832,6,0,L|392:232,1,20.6250007867813,4|0,0:0|0:0,0:0:0:0:
488,140,43994,6,0,L|467:134,1,20.6250007867813
408,44,44156,6,0,L|424:12,1,20.6250007867813,4|0,0:0|0:0,0:0:0:0:
340,216,44318,6,0,L|324:248,1,20.6250007867813
172,72,44481,2,0,P|184:129|157:229,1,123.750004720688,4|0,0:0|0:0,0:0:0:0:
120,264,44805,2,0,B|182:286|182:286|241:267,1,123.750004720688,4|0,0:0|0:0,0:0:0:0:
278,241,45129,5,8,0:0:0:0:
340,220,45237,1,8,0:0:0:0:
405,221,45345,1,8,0:0:0:0:
468,241,45454,2,0,P|454:158|465:91,1,110.000004196167,4|0,0:0|0:0,0:0:0:0:
469,68,45778,6,0,L|405:106,1,55.0000020980836,8|0,0:0|0:0,0:0:0:0:
365,130,45994,1,8,0:0:0:0:
367,64,46102,2,0,L|231:135,1,110.000004196167,4|0,0:0|0:0,0:0:0:0:
192,156,46427,6,0,B|211:210|211:210|203:290,1,110.000004196167,4|0,0:0|0:0,0:0:0:0:
181,323,46751,2,0,L|276:315,1,55.0000020980836,8|8,0:0|0:0,0:0:0:0:
301,312,46967,1,8,0:0:0:0:
366,307,47075,2,0,L|322:257,1,55.0000020980836,4|0,0:0|0:0,0:0:0:0:
281,220,47291,1,8,0:0:0:0:
234,171,47400,6,0,L|366:156,1,110.000004196167,4|0,0:0|0:0,0:0:0:0:
408,151,47724,1,8,0:0:0:0:
432,268,47832,1,8,0:0:0:0:
504,200,47940,1,8,0:0:0:0:
340,224,48048,6,0,P|282:252|159:231,1,165.000006294251,4|4,0:0|0:0,0:0:0:0:
256,192,53562,12,0,55832,0:0:0:0:
100,88,56156,6,0,P|42:147|158:168,1,250.249988544465,4|0,0:0|0:0,0:0:0:0:
154,176,56805,6,0,P|175:121|341:138,1,250.249988544465,4|0,0:0|0:0,0:0:0:0:
336,130,57454,6,0,P|330:195|353:245,1,107.249995090485,4|0,0:0|0:0,0:0:0:0:
344,233,57778,6,0,P|395:249|429:298,1,107.249995090485,4|0,0:0|0:0,0:0:0:0:
426,290,58102,6,0,P|466:298|421:252,1,165,4|0,0:0|0:0,0:0:0:0:
425,244,58427,6,0,B|368:183|286:338|214:185,1,197.99999395752,8|0,0:0|0:0,0:0:0:0:
242,230,58751,5,6,0:0:0:0:
288,48,59075,5,2,0:0:0:0:
296,336,59400,5,2,0:0:0:0:
44,176,59724,5,0,0:0:0:0:
68,184,59805,1,0,0:0:0:0:
86,190,59886,1,0,0:0:0:0:
104,196,59967,1,0,0:0:0:0:
122,202,60048,1,2,0:0:0:0:
412,140,60372,5,0,0:0:0:0:
392,224,60535,5,0,0:0:0:0:
376,308,60697,5,2,0:0:0:0:
168,272,61021,5,0,0:0:0:0:
192,184,61129,1,0,0:0:0:0:
280,160,61237,1,0,0:0:0:0:
296,72,61345,1,2,0:0:0:0:
440,364,61670,5,0,0:0:0:0:
429,325,61751,1,0,0:0:0:0:
419,286,61832,1,0,0:0:0:0:
409,247,61913,1,0,0:0:0:0:
399,208,61994,1,2,0:0:0:0:
356,84,62156,1,0,0:0:0:0:
464,204,62318,1,2,0:0:0:0:
232,152,62481,1,0,0:0:0:0:
256,352,62643,6,0,L|280:324,1,32.99999899292
212,244,62805,6,0,L|236:216,1,32.99999899292
120,352,62967,6,0,L|144:324,1,32.99999899292
84,240,63129,6,0,L|108:212,1,32.99999899292
184,108,63291,2,0,P|242:124|375:94,1,197.99999395752
444,56,63616,1,8,0:0:0:0:
442,80,63697,1,8,0:0:0:0:
440,104,63778,1,8,0:0:0:0:
438,128,63859,1,8,0:0:0:0:
436,156,63940,6,0,L|430:259,1,82.5000031471254,2|0,0:0|0:0,0:0:0:0:
424,352,64264,1,2,0:0:0:0:
344,176,64427,2,0,L|338:279,1,82.5000031471254,0|2,0:0|0:0,0:0:0:0:
336,360,64751,1,0,0:0:0:0:
272,200,64913,5,2,0:0:0:0:
272,187,64994,1,0,0:0:0:0:
272,174,65075,1,0,0:0:0:0:
272,161,65156,1,0,0:0:0:0:
272,148,65237,1,2,0:0:0:0:
376,344,65400,1,0,0:0:0:0:
472,208,65562,1,2,0:0:0:0:
376,256,65724,6,0,L|262:238,1,82.5000031471254,0|2,0:0|0:0,0:0:0:0:
160,224,66048,1,0,0:0:0:0:
264,144,66210,1,8,0:0:0:0:
276,142,66291,1,8,0:0:0:0:
288,141,66372,1,8,0:0:0:0:
300,140,66454,1,8,0:0:0:0:
312,138,66535,6,0,L|418:154,1,82.5000031471254,4|0,0:0|0:0,0:0:0:0:
488,168,66778,2,0,L|436:82,1,82.5000031471254,2|0,0:0|0:0,0:0:0:0:
404,28,67021,1,8,0:0:0:0:
372,268,67183,5,0,0:0:0:0:
341,289,67264,1,0,0:0:0:0:
303,288,67345,1,0,0:0:0:0:
271,266,67427,1,0,0:0:0:0:
252,233,67508,1,8,0:0:0:0:
220,213,67589,1,0,0:0:0:0:
183,208,67670,1,8,0:0:0:0:
149,224,67751,1,8,0:0:0:0:
134,258,67832,6,0,L|37:193,1,82.5000031471254,4|0,0:0|0:0,0:0:0:0:
132,72,68156,2,0,P|178:95|277:85,1,123.750004720688
316,60,68481,2,0,B|321:169|321:169|342:129,1,123.750004720688
384,132,68805,2,0,P|414:127|402:126,1,197.99999395752,4|0,0:0|0:0,0:0:0:0:
416,72,69129,6,0,L|219:83,1,165.000006294251,4|0,0:0|0:0,0:0:0:0:
172,84,69372,1,8,0:0:0:0:
236,316,69535,1,0,0:0:0:0:
265,247,69616,1,0,0:0:0:0:
321,109,69778,6,0,L|355:284,1,165.000006294251
367,343,70021,1,8,0:0:0:0:
464,176,70183,1,0,0:0:0:0:
396,206,70264,1,0,0:0:0:0:
228,128,70427,6,0,L|176:292,1,165.000006294251
155,356,70670,1,8,0:0:0:0:
76,176,70832,1,0,0:0:0:0:
135,220,70913,1,0,0:0:0:0:
376,144,71075,5,4,0:0:0:0:
148,288,71400,5,4,0:0:0:0:
428,332,71724,5,6,0:0:0:0:
248,140,71886,1,0,0:0:0:0:
229,211,71967,1,0,0:0:0:0:
215,283,72048,2,0,L|322:248,1,82.5000031471254,8|0,0:0|0:0,0:0:0:0:
488,168,72210,2,0,L|368:180,1,82.5000031471254
176,176,72372,6,2,L|139:169,1,32.99999899292
272,236,72535,6,0,L|235:229,1,32.99999899292
376,204,72697,6,0,L|339:197,1,32.99999899292,8|0,0:0|0:0,0:0:0:0:
468,276,72859,6,0,L|431:269,1,32.99999899292
192,232,73021,5,2,0:0:0:0:
304,44,73183,1,0,0:0:0:0:
320,184,73345,2,0,P|380:156|299:156,1,197.99999395752,2|0,0:0|0:0,0:0:0:0:
256,212,73670,1,2,0:0:0:0:
396,340,73832,6,0,L|428:296,1,32.99999899292,8|8,0:0|0:0,0:0:0:0:
376,340,73913,2,0,L|408:296,1,32.99999899292,8|8,0:0|0:0,0:0:0:0:
352,340,73994,1,8,0:0:0:0:
325,340,74075,1,8,0:0:0:0:
298,340,74156,1,8,0:0:0:0:
271,341,74237,1,8,0:0:0:0:
244,342,74318,6,0,P|264:269|231:143,1,165.000006294251,4|0,0:0|0:0,0:0:0:0:
216,115,74562,1,8,0:0:0:0:
400,228,74724,1,0,0:0:0:0:
364,164,74805,1,0,0:0:0:0:
268,380,74967,6,0,L|244:208,1,165.000006294251
232,144,75210,1,8,0:0:0:0:
132,328,75372,1,0,0:0:0:0:
94,262,75454,1,0,0:0:0:0:
0,96,75616,6,0,P|78:115|132:103,1,110,4|0,0:0|0:0,0:0:0:0:
172,72,75859,2,0,B|225:88|225:88|307:72,1,110,4|0,0:0|0:0,0:0:0:0:
352,48,76102,2,0,B|334:120|334:120|370:100,1,110,4|0,0:0|0:0,0:0:0:0:
426,57,76345,2,0,B|458:40|458:40|440:112,1,110,4|0,0:0|0:0,0:0:0:0:
424,188,76589,1,8,0:0:0:0:
400,352,76751,1,8,0:0:0:0:
288,192,76913,5,0,0:0:0:0:
246,249,76994,1,0,0:0:0:0:
178,225,77075,1,0,0:0:0:0:
180,153,77156,1,0,0:0:0:0:
246,127,77237,1,8,0:0:0:0:
328,320,77400,1,8,0:0:0:0:
448,88,77562,6,0,P|380:109|272:78,1,165
220,48,77886,2,0,B|214:137|214:137|174:211,1,165,8|0,0:0|0:0,0:0:0:0:
124,256,78210,5,4,0:0:0:0:
169,344,78372,1,0,0:0:0:0:
192,172,78535,1,4,0:0:0:0:
237,260,78697,1,0,0:0:0:0:
264,96,78859,5,4,0:0:0:0:
309,184,79021,1,0,0:0:0:0:
372,52,79183,2,0,L|395:121,1,55,8|8,0:0|0:0,0:0:0:0:
424,204,79345,2,0,L|412:285,1,55,8|8,0:0|0:0,0:0:0:0:
368,376,79508,6,0,L|174:366,1,165.000006294251,4|0,0:0|0:0,0:0:0:0:
129,359,79751,1,8,0:0:0:0:
264,176,79913,1,0,0:0:0:0:
275,249,79994,1,0,0:0:0:0:
428,72,80156,6,0,L|456:288,1,165.000006294251
464,308,80400,1,8,0:0:0:0:
256,252,80562,1,0,0:0:0:0:
245,179,80643,1,0,0:0:0:0:
88,256,80805,6,0,L|66:92,1,165.000006294251
50,20,81048,1,8,0:0:0:0:
260,92,81210,1,0,0:0:0:0:
250,165,81291,1,0,0:0:0:0:
208,340,81454,5,4,0:0:0:0:
448,136,81778,5,4,0:0:0:0:
336,340,82102,6,0,B|254:325|254:325|151:339,1,165.000006294251,6|0,0:0|0:0,0:0:0:0:
101,353,82345,1,8,0:0:0:0:
88,140,82508,1,0,0:0:0:0:
116,208,82589,1,0,0:0:0:0:
224,60,82751,5,2,0:0:0:0:
211,99,82832,1,0,0:0:0:0:
231,134,82913,1,0,0:0:0:0:
268,151,82994,1,0,0:0:0:0:
306,137,83075,1,10,0:0:0:0:
366,111,83156,1,0,0:0:0:0:
431,118,83237,1,8,0:0:0:0:
470,170,83318,1,8,0:0:0:0:
458,235,83400,6,0,P|372:216|257:251,1,165.000006294251,4|0,0:0|0:0,0:0:0:0:
84,304,83724,2,0,B|101:227|101:227|76:126,1,165.000006294251,2|0,0:0|0:0,0:0:0:0:
56,80,83967,1,0,0:0:0:0:
56,80,84048,2,0,P|186:101|236:84,1,165.000006294251,6|8,0:0|0:0,0:0:0:0:
276,68,84291,1,0,0:0:0:0:
340,53,84372,1,8,0:0:0:0:
403,74,84454,1,8,0:0:0:0:
434,131,84535,1,8,0:0:0:0:
405,190,84616,1,8,0:0:0:0:
339,187,84697,6,0,P|237:157|133:175,1,165.000006294251,4|0,0:0|0:0,0:0:0:0:
107,178,84940,1,8,0:0:0:0:
240,352,85102,1,0,0:0:0:0:
259,280,85183,1,0,0:0:0:0:
288,92,85345,6,0,L|340:268,1,165.000006294251
356,322,85589,1,8,0:0:0:0:
460,120,85751,1,0,0:0:0:0:
484,192,85832,1,0,0:0:0:0:
288,136,85994,6,0,B|204:160|204:160|120:147,1,165.000006294251
54,134,86237,1,8,0:0:0:0:
156,336,86400,1,0,0:0:0:0:
187,268,86481,1,0,0:0:0:0:
256,112,86643,5,2,0:0:0:0:
316,244,86805,1,2,0:0:0:0:
392,192,86967,5,2,0:0:0:0:
440,288,87129,1,2,0:0:0:0:
164,216,87454,6,0,P|220:196|281:209,1,110,4|0,0:0|0:0,0:0:0:0:
332,224,87697,2,0,B|373:287|373:287|382:208,1,110,4|0,0:0|0:0,0:0:0:0:
376,168,87940,2,0,B|379:133|379:133|420:196,1,110,4|0,0:0|0:0,0:0:0:0:
464,260,88183,2,0,L|486:138,1,110,4|0,0:0|0:0,0:0:0:0:
496,72,88427,2,0,B|415:99|415:99|453:50,1,110,4|0,0:0|0:0,0:0:0:0:
340,120,88670,6,0,B|282:134|282:134|217:118,1,110,4|0,0:0|0:0,0:0:0:0:
160,88,88913,2,0,B|159:174|159:174|125:144,1,110,4|0,0:0|0:0,0:0:0:0:
168,252,89156,2,4,L|239:155,1,110
280,108,89400,2,0,B|329:135|329:135|391:130,1,110,4|0,0:0|0:0,0:0:0:0:
448,112,89643,5,4,0:0:0:0:
412,312,90048,6,0,L|323:302,1,55,2|0,0:0|0:0,0:0:0:0:
280,296,90210,1,8,0:0:0:0:
104,284,90372,1,0,0:0:0:0:
320,228,90535,1,0,0:0:0:0:
76,344,90697,5,8,0:0:0:0:
94,298,90778,1,8,0:0:0:0:
168,160,90940,5,0,0:0:0:0:
184,206,91021,1,0,0:0:0:0:
248,352,91183,1,0,0:0:0:0:
301,182,91345,5,8,0:0:0:0:
320,228,91427,1,8,0:0:0:0:
416,68,91589,5,0,0:0:0:0:
397,114,91671,1,0,0:0:0:0:
320,228,91832,1,4,0:0:0:0:
160,120,92156,6,0,P|82:144|155:97,1,247.500009441376,4|0,0:0|0:0,0:0:0:0:
184,64,92481,6,0,B|265:91|265:91|357:91,1,165.000006294251,4|0,0:0|0:0,0:0:0:0:
417,78,92724,1,8,0:0:0:0:
296,312,92886,1,0,0:0:0:0:
260,247,92967,1,0,0:0:0:0:
168,88,93129,5,8,0:0:0:0:
120,312,93291,1,0,0:0:0:0:
368,208,93454,1,8,0:0:0:0:
48,180,93616,1,8,0:0:0:0:
268,344,93778,5,4,0:0:0:0:
240,164,93940,1,0,0:0:0:0:
402,334,94102,2,0,P|370:320|417:331,1,197.99999395752,4|0,0:0|0:0,0:0:0:0:
488,336,94427,1,4,0:0:0:0:
464,251,94535,1,0,0:0:0:0:
498,170,94643,1,0,0:0:0:0:
469,86,94751,6,0,L|399:105,1,65.9999979858399,4|0,0:0|0:0,0:0:0:0:
296,96,94913,2,0,L|203:86,1,65.9999979858399
84,60,95075,6,0,B|100:140|100:140|75:231,1,165.000006294251,4|0,0:0|0:0,0:0:0:0:
48,288,95318,1,8,0:0:0:0:
232,120,95481,1,0,0:0:0:0:
241,193,95562,1,0,0:0:0:0:
252,384,95724,6,0,L|424:324,1,165.000006294251
474,297,95967,1,8,0:0:0:0:
304,88,96129,1,0,0:0:0:0:
283,159,96210,1,0,0:0:0:0:
228,352,96372,6,0,B|142:354|142:354|61:312,1,165.000006294251
11,272,96616,1,8,0:0:0:0:
172,96,96778,1,0,0:0:0:0:
188,168,96859,1,0,0:0:0:0:
216,372,97021,6,0,L|351:349,1,82.5000031471254,8|8,0:0|0:0,0:0:0:0:
416,344,97183,6,0,L|364:340,1,41.2500015735627
420,328,97264,2,0,L|376:320,1,41.2500015735627
424,312,97345,2,0,L|444:200,1,82.5000031471254,12|0,0:0|0:0,0:0:0:0:
464,128,97508,2,0,L|420:184,1,41.2500015735627
448,128,97589,2,0,L|404:184,1,41.2500015735627
432,128,97670,2,4,B|348:131|348:131|248:100,1,165.000006294251,12|12,0:0|0:0,0:0:0:0:
156,40,98156,5,8,0:0:0:0:
200,288,98481,1,8,0:0:0:0:
344,64,98805,1,8,0:0:0:0:
396,208,98967,5,2,0:0:0:0:
448,36,99129,1,2,0:0:0:0:
264,248,99291,1,8,0:0:0:0:
248,96,99454,1,8,0:0:0:0:
404,308,99616,5,2,0:0:0:0:
112,296,99940,6,0,P|57:272|121:289,1,197.99999395752,4|0,0:0|0:0,0:0:0:0:
172,328,100264,5,2,0:0:0:0:
160,64,100427,1,2,0:0:0:0:
320,288,100589,1,8,0:0:0:0:
48,204,100751,1,8,0:0:0:0:
328,120,100913,5,2,0:0:0:0:
440,360,101237,5,4,0:0:0:0:
456,196,101400,1,4,0:0:0:0:
248,368,101562,5,2,0:0:0:0:
232,204,101725,1,2,0:0:0:0:
360,304,101886,6,0,L|400:324,1,32.99999899292,8|8,0:0|0:0,0:0:0:0:
360,280,101967,2,0,L|400:300,1,32.99999899292,8|8,0:0|0:0,0:0:0:0:
360,256,102048,2,0,L|400:276,1,32.99999899292,8|8,0:0|0:0,0:0:0:0:
360,232,102129,2,0,L|400:252,1,32.99999899292,8|8,0:0|0:0,0:0:0:0:
360,208,102210,1,4,0:0:0:0:
144,368,102372,1,4,0:0:0:0:
96,160,102535,6,0,L|72:208,1,32.99999899292,8|8,0:0|0:0,0:0:0:0:
112,168,102616,2,0,L|88:216,1,32.99999899292,8|8,0:0|0:0,0:0:0:0:
128,176,102697,2,0,L|104:224,1,32.99999899292,8|8,0:0|0:0,0:0:0:0:
144,184,102778,2,0,L|120:232,1,32.99999899292,8|8,0:0|0:0,0:0:0:0:
160,192,102859,1,4,0:0:0:0:
280,312,103021,6,0,L|300:286,1,32.99999899292,4|0,0:0|0:0,0:0:0:0:
280,288,103102,2,0,L|300:262,1,32.99999899292,4|0,0:0|0:0,0:0:0:0:
280,264,103183,2,0,L|300:238,1,32.99999899292,12|0,0:0|0:0,0:0:0:0:
416,88,103345,1,12,0:0:0:0:
456,352,103508,5,4,0:0:0:0:
