osu file format v12

[General]
AudioFilename: Susume tomorrow.mp3
AudioLeadIn: 0
PreviewTime: 150624
Countdown: 0
SampleSet: Normal
StackLeniency: 0.7
Mode: 0
LetterboxInBreaks: 1
WidescreenStoryboard: 0

[Editor]
DistanceSpacing: 0.8
BeatDivisor: 4
GridSize: 4

[Metadata]
Title:Susume tomorrow
TitleUnicode:ススメ→トゥモロウ
Artist:Nitta Emi, Uchida Aya, Mimori Suzuko
ArtistUnicode:高坂穂乃果(新田恵海)南ことり(内田彩)園田海未(三森すずこ)
Creator:remy11
Version:Insane
Source:Love Live! School Idol Project
Tags:μ's m's love live kousaka honoka minami kotori sonoda umi
BeatmapID:369731
BeatmapSetID:149632

[Difficulty]
HPDrainRate:7
CircleSize:4
OverallDifficulty:7
ApproachRate:9
SliderMultiplier:1.8
SliderTickRate:2

[Events]
//Background and Video events
0,0,"BG.jpg",0,0
//Break Periods
2,173565,181608
2,226618,230871
//Storyboard Layer 0 (Background)
//Storyboard Layer 1 (Fail)
//Storyboard Layer 2 (Pass)
//Storyboard Layer 3 (Foreground)
//Storyboard Sound Samples
//Background Colour Transformations
3,100,163,162,255

[TimingPoints]
5685,600,4,2,0,50,1,0
5685,-133.333333333333,4,2,0,50,0,0
26208,315.789473684211,4,1,0,60,1,0
47015,-100,4,2,0,60,0,0
68523,-100,4,1,0,60,0,0
82023,-133.333333333333,4,1,0,50,0,0
82339,-133.333333333333,4,2,0,5,0,0
82418,-100,4,1,0,70,0,1
104839,-100,4,1,0,60,0,0
116523,-100,4,2,0,60,0,0
128365,-133.333333333333,4,2,0,60,0,0
128839,-100,4,2,0,60,0,0
136734,-100,4,1,0,60,0,0
150313,-133.333333333333,4,2,0,50,0,0
150313,-133.333333333333,4,2,0,5,0,0
150629,-100,4,1,0,70,0,1
173365,-100,4,1,0,70,0,0
182208,-133.333333333333,4,2,0,50,0,0
200050,-100,4,1,0,60,0,0
231471,-200,4,2,0,50,0,0
236523,-100,4,1,0,60,0,0
237786,-100,4,1,0,70,0,1
255155,-100,4,1,0,60,0,0

[Colours]
Combo1 : 255,117,117
Combo2 : 255,164,255
Combo3 : 255,158,62
Combo4 : 255,255,68

[HitObjects]
408,272,5685,1,2,0:0:0:0:
408,272,6285,1,0,0:0:0:0:
408,272,6885,2,0,P|356:316|292:328,1,135.000005149841,2|0,0:0|0:0,0:0:0:0:
316,88,8085,2,0,P|256:96|200:144,1,135.000005149842,2|0,0:0|0:0,0:0:0:0:
360,204,9285,1,2,0:0:0:0:
256,292,9585,1,2,0:0:0:0:
152,204,9885,1,2,0:0:0:0:
152,204,10485,6,0,P|168:140|204:76,1,135.000005149842,2|0,0:0|0:0,0:0:0:0:
360,180,11685,2,0,P|344:244|308:308,1,135.000005149842,2|0,0:0|0:0,0:0:0:0:
148,296,12885,2,0,L|80:296,1,67.5000025749208,2|0,0:0|0:0,0:0:0:0:
16,220,13485,2,0,L|84:220,1,67.5000025749208,2|0,0:0|0:0,0:0:0:0:
204,220,14085,1,2,0:0:0:0:
144,100,14385,1,2,0:0:0:0:
84,220,14685,1,2,0:0:0:0:
84,220,15285,6,0,P|108:284|160:324,1,135.000005149842,2|0,0:0|0:0,0:0:0:0:
332,152,16485,2,0,P|308:88|256:48,1,135.000005149842,2|0,0:0|0:0,0:0:0:0:
92,192,17685,1,2,0:0:0:0:
72,292,17985,2,0,P|60:328|40:356,2,67.5000025749208,0|0|0,0:0|0:0|0:0,0:0:0:0:
92,192,18885,1,2,0:0:0:0:
174,85,19185,1,2,0:0:0:0:
256,192,19485,1,2,0:0:0:0:
256,192,20085,6,0,L|304:240,1,67.5000025749208,2|0,0:0|0:0,0:0:0:0:
392,192,20685,2,0,L|344:144,1,67.5000025749208,0|0,0:0|0:0,0:0:0:0:
272,72,21285,1,2,0:0:0:0:
172,76,21585,2,0,P|136:80|100:92,2,67.5000025749208
222,163,22485,1,2,0:0:0:0:
160,240,22785,2,0,P|132:264|96:280,1,67.5000025749208,2|2,0:0|0:0,0:0:0:0:
64,184,23385,2,0,P|96:160|128:144,1,67.5000025749208,2|2,0:0|0:0,0:0:0:0:
224,192,26523,5,0,0:0:0:0:
292,112,26681,1,0,0:0:0:0:
292,112,26760,1,0,0:0:0:0:
292,112,26839,2,0,P|376:100|460:144,1,180,6|0,0:0|0:0,0:0:0:0:
352,228,27313,2,0,P|301:295|210:324,1,180,2|0,0:0|0:0,0:0:0:0:
104,324,27786,1,2,0:0:0:0:
224,192,27944,1,0,0:0:0:0:
88,192,28102,6,0,P|128:108|204:60,1,180,6|0,0:0|0:0,0:0:0:0:
328,108,28576,2,0,P|368:192|436:244,1,180,2|0,0:0|0:0,0:0:0:0:
436,136,29050,1,2,0:0:0:0:
384,308,29208,1,0,0:0:0:0:
384,308,29286,1,0,0:0:0:0:
384,308,29365,6,0,P|304:344|212:336,1,180,6|0,0:0|0:0,0:0:0:0:
188,324,29839,1,6,0:0:0:0:
16,212,30155,1,4,0:0:0:0:
196,212,30313,1,6,0:0:0:0:
104,112,30471,1,0,0:0:0:0:
192,12,30629,2,0,L|288:12,1,90,6|0,0:0|0:0,0:0:0:0:
392,12,30944,1,0,0:0:0:0:
336,104,31102,2,0,L|419:151,1,90,6|0,0:0|0:0,0:0:0:0:
508,200,31418,1,0,0:0:0:0:
416,256,31576,2,0,L|460:336,1,90,6|0,0:0|0:0,0:0:0:0:
324,336,31892,6,0,P|236:316|168:256,1,180,6|0,0:0|0:0,0:0:0:0:
124,180,32365,1,2,0:0:0:0:
280,28,32681,1,0,0:0:0:0:
432,84,32839,1,2,0:0:0:0:
332,124,32997,1,0,0:0:0:0:
332,124,33076,1,0,0:0:0:0:
332,124,33155,6,0,B|292:204|292:204|372:248,1,180,6|0,0:0|0:0,0:0:0:0:
472,284,33629,2,0,L|472:192,1,90,2|0,0:0|0:0,0:0:0:0:
472,84,33944,1,0,0:0:0:0:
388,192,34102,1,2,0:0:0:0:
388,56,34260,1,0,0:0:0:0:
300,44,34418,6,0,P|212:24|124:32,1,180,6|0,0:0|0:0,0:0:0:0:
36,52,34892,1,6,0:0:0:0:
200,192,35208,2,0,P|256:192|300:180,2,90,4|6|0,0:0|0:0|0:0,0:0:0:0:
100,284,35681,2,0,P|176:332|264:308,1,180,6|0,0:0|0:0,0:0:0:0:
332,260,36155,1,6,0:0:0:0:
256,56,36471,5,6,0:0:0:0:
388,36,36629,1,2,0:0:0:0:
340,160,36786,1,2,0:0:0:0:
472,140,36944,1,8,0:0:0:0:
256,56,37102,1,8,0:0:0:0:
72,312,37418,6,0,P|148:356|240:352,2,180
120,100,38365,2,0,P|96:64|56:40,2,90,0|0|0,0:0|0:0|0:0,0:0:0:0:
92,204,38839,2,0,P|116:240|156:264,1,90
184,176,39155,2,0,P|220:152|244:112,1,90,2|2,0:0|0:0,0:0:0:0:
256,24,39471,1,8,0:0:0:0:
352,176,39629,1,8,0:0:0:0:
256,328,39944,6,0,P|176:360|84:340,2,180,0|0|0,0:0|0:0|0:0,0:0:0:0:
256,236,40734,2,0,P|300:236|348:224,1,90,2|0,0:0|0:0,0:0:0:0:
292,132,41050,2,0,P|330:110|365:75,1,90,2|0,0:0|0:0,0:0:0:0:
268,28,41365,2,0,P|224:40|185:63,1,90,2|0,0:0|0:0,0:0:0:0:
184,172,41681,2,0,P|153:204|130:243,1,90,2|0,0:0|0:0,0:0:0:0:
100,328,41997,5,0,0:0:0:0:
44,204,42155,1,8,0:0:0:0:
100,80,42313,1,0,0:0:0:0:
204,48,42471,2,0,P|288:16|376:32,1,180,8|8,0:0|0:0,0:0:0:0:
340,280,43102,2,0,P|427:295|510:263,2,180,8|8|8,0:0|0:0|0:0,0:0:0:0:
256,248,43892,2,0,P|208:252|164:264,1,90,0|8,0:0|0:0,0:0:0:0:
80,288,44208,1,0,0:0:0:0:
36,112,44365,1,8,0:0:0:0:
56,200,44523,6,0,P|104:192|144:176,1,90,0|8,0:0|0:0,0:0:0:0:
220,132,44839,1,0,0:0:0:0:
300,88,44997,2,0,P|341:71|386:64,2,90,8|0|8,0:0|0:0|0:0,0:0:0:0:
304,188,45471,1,0,0:0:0:0:
216,32,45629,1,8,0:0:0:0:
256,308,45944,5,8,0:0:0:0:
388,212,46102,1,8,0:0:0:0:
224,212,46260,1,8,0:0:0:0:
356,308,46418,1,8,0:0:0:0:
356,308,46734,1,2,0:0:0:0:
356,308,47050,6,0,P|280:352|192:340,1,180,6|0,0:0|0:0,0:0:0:0:
112,296,47523,1,2,0:0:0:0:
112,296,47997,1,8,0:0:0:0:
292,96,48313,2,0,P|216:52|128:64,1,180,2|0,0:0|0:0,0:0:0:0:
44,100,48786,1,2,0:0:0:0:
44,100,49260,1,8,0:0:0:0:
200,192,49576,6,0,P|288:200|348:268,1,180,2|0,0:0|0:0,0:0:0:0:
380,348,50050,1,2,0:0:0:0:
380,348,50523,2,0,P|428:332|460:304,1,90,8|0,0:0|0:0,0:0:0:0:
352,192,50839,2,0,P|368:144|396:112,1,90,2|0,0:0|0:0,0:0:0:0:
460,56,51155,1,0,0:0:0:0:
280,32,51313,2,0,P|232:48|200:76,1,90,2|0,0:0|0:0,0:0:0:0:
168,204,51629,1,0,0:0:0:0:
36,216,51786,1,8,0:0:0:0:
164,344,51944,1,0,0:0:0:0:
36,216,52102,1,6,0:0:0:0:
332,348,52418,6,0,P|380:344|424:328,1,90,0|2,0:0|0:0,0:0:0:0:
504,292,52734,1,0,0:0:0:0:
356,224,52892,2,0,P|268:224|208:160,1,180
124,64,53365,2,0,P|80:76|40:104,1,90,2|0,0:0|0:0,0:0:0:0:
20,200,53681,1,0,0:0:0:0:
108,176,53839,2,0,P|104:232|84:260,1,90,2|0,0:0|0:0,0:0:0:0:
0,292,54155,1,0,0:0:0:0:
168,348,54313,1,8,0:0:0:0:
256,192,54471,1,0,0:0:0:0:
168,348,54629,6,0,P|248:312|340:332,1,180,2|0,0:0|0:0,0:0:0:0:
436,376,55102,2,0,P|427:288|363:219,1,180,2|0,0:0|0:0,0:0:0:0:
284,184,55576,2,0,P|296:136|328:104,1,90
323,107,55892,1,0,0:0:0:0:
188,120,56050,1,0,0:0:0:0:
88,212,56208,2,0,P|76:256|48:292,1,90,2|0,0:0|0:0,0:0:0:0:
20,112,56523,2,0,P|64:100|100:72,1,90,2|0,0:0|0:0,0:0:0:0:
224,212,56839,2,0,P|236:256|264:292,1,90,10|0,0:0|0:0,0:0:0:0:
348,112,57155,6,0,P|304:100|268:72,1,90,6|0,0:0|0:0,0:0:0:0:
192,24,57471,2,2,P|148:36|112:64,1,90,0|2,0:0|0:0,0:0:0:0:
336,344,57944,2,2,P|292:332|256:304,1,90,0|8,0:0|0:0,0:0:0:0:
204,232,58260,1,0,0:0:0:0:
76,192,58418,1,2,0:0:0:0:
224,92,58576,1,0,0:0:0:0:
116,280,58734,1,0,0:0:0:0:
264,168,58892,2,0,P|356:176|432:132,1,180,2|0,0:0|0:0,0:0:0:0:
488,64,59365,1,10,0:0:0:0:
332,88,59523,1,2,0:0:0:0:
460,228,59681,6,0,P|428:308|332:332,1,180,6|0,0:0|0:0,0:0:0:0:
256,324,60155,1,2,0:0:0:0:
388,28,60629,2,0,P|424:60|444:96,1,90,8|0,0:0|0:0,0:0:0:0:
480,176,60944,1,2,0:0:0:0:
324,224,61102,1,0,0:0:0:0:
480,176,61260,1,0,0:0:0:0:
324,224,61418,1,2,0:0:0:0:
324,224,61734,5,0,0:0:0:0:
168,272,61892,1,0,0:0:0:0:
64,148,62050,1,0,0:0:0:0:
216,100,62208,2,0,P|248:64|296:36,1,90,6|0,0:0|0:0,0:0:0:0:
364,112,62523,2,0,P|396:148|436:172,1,90,2|2,0:0|0:0,0:0:0:0:
24,192,63155,1,8,0:0:0:0:
136,308,63313,1,0,0:0:0:0:
248,192,63471,1,2,0:0:0:0:
248,192,63629,2,0,L|340:192,1,90
428,192,63944,2,0,B|484:120|484:120|428:48,1,180,2|0,0:0|0:0,0:0:0:0:
429,49,64418,1,8,0:0:0:0:
288,340,64734,6,0,P|200:352|124:304,1,180,6|0,0:0|0:0,0:0:0:0:
344,68,65365,2,0,P|256:56|180:104,1,180,6|0,0:0|0:3,0:0:0:0:
168,120,65760,1,0,0:3:0:0:
156,140,65839,1,0,0:3:0:0:
112,240,65997,2,0,P|136:280|172:304,1,90,4|0,0:0|0:0,0:0:0:0:
256,340,66313,1,8,0:0:0:0:
320,192,66471,1,8,0:0:0:0:
484,192,66629,1,8,0:0:0:0:
402,88,66786,1,8,0:0:0:0:
402,296,66944,1,8,0:0:0:0:
403,192,67102,1,8,0:0:0:0:
403,192,67418,5,8,0:0:0:0:
403,192,67497,1,8,0:0:0:0:
403,192,67576,2,8,P|380:151|350:118,1,90
288,56,67892,1,8,0:0:0:0:
200,28,68050,1,8,0:0:0:0:
380,28,68208,1,8,0:0:0:0:
200,28,68365,1,8,0:0:0:0:
92,192,68523,5,8,0:0:0:0:
92,192,68681,1,8,0:0:0:0:
92,192,68839,2,0,P|160:248|248:240,1,180,8|0,0:0|0:0,0:0:0:0:
388,180,69313,1,4,0:0:0:0:
144,52,69629,2,0,P|188:68|236:64,1,90,6|2,0:0|0:0,0:0:0:0:
320,48,69944,1,2,0:0:0:0:
256,192,70102,1,2,0:0:0:0:
256,192,70260,1,2,0:0:0:0:
256,192,70418,2,0,P|192:264|112:272,1,180,2|2,0:0|0:0,0:0:0:0:
256,44,71050,5,8,0:0:0:0:
356,192,71208,1,8,0:0:0:0:
456,44,71365,1,8,0:0:0:0:
156,192,71839,1,4,0:0:0:0:
156,192,72155,2,0,P|176:240|200:268,1,90,6|2,0:0|0:0,0:0:0:0:
268,328,72471,1,2,0:0:0:0:
356,192,72629,1,2,0:0:0:0:
356,192,72786,1,2,0:0:0:0:
356,192,72944,2,0,B|408:120|408:120|356:44,1,180,2|2,0:0|0:0,0:0:0:0:
288,324,73576,5,4,0:0:0:0:
288,324,73655,1,0,0:0:0:0:
288,324,73734,1,0,0:0:0:0:
288,324,73813,1,0,0:0:0:0:
288,324,73892,1,0,0:0:0:0:
12,230,74365,1,4,0:0:0:0:
12,230,74681,6,0,P|52:309|137:331,1,180,4|2,0:0|0:0,0:0:0:0:
165,295,75076,1,0,0:0:0:0:
189,258,75155,1,0,0:0:0:0:
225,230,75234,1,0,0:0:0:0:
267,215,75313,1,2,0:0:0:0:
312,214,75392,1,0,0:0:0:0:
357,212,75471,2,0,P|317:133|232:111,1,180,6|2,0:0|0:0,0:0:0:0:
24,56,76102,6,0,P|70:38|116:27,1,90,6|0,0:0|0:0,0:0:0:0:
24,168,76418,2,0,P|70:186|116:197,1,90,2|0,0:0|0:0,0:0:0:0:
256,56,76734,2,0,P|301:75|341:100,1,90,2|0,0:0|0:0,0:0:0:0:
256,284,77050,1,2,0:0:0:0:
256,284,77208,2,0,P|344:300|424:256,1,180,6|0,0:0|0:0,0:0:0:0:
480,192,77681,1,2,0:0:0:0:
176,77,77997,5,2,0:0:0:0:
60,192,78155,1,2,0:0:0:0:
216,233,78313,1,2,0:0:0:0:
216,232,78629,2,0,P|268:304|356:320,1,180,6|2,0:0|0:0,0:0:0:0:
356,160,79102,2,0,P|408:88|496:72,2,180,2|2|6,0:0|0:0|0:0,0:0:0:0:
60,308,80050,6,0,P|104:328|148:324,1,90,2|0,0:0|0:0,0:0:0:0:
232,300,80365,1,0,0:0:0:0:
124,180,80523,6,0,P|140:134|174:106,1,90,2|0,0:0|0:0,0:0:0:0:
251,64,80839,1,0,0:0:0:0:
260,172,80997,2,0,P|344:208|428:176,1,180,2|2,0:0|0:0,0:0:0:0:
492,120,81471,1,2,0:0:0:0:
348,92,81629,1,2,0:0:0:0:
504,200,81786,1,2,0:0:0:0:
288,308,82102,2,0,P|236:312|188:292,1,101.250003862381,2|0,0:0|0:0,0:0:0:0:
172,276,82418,6,0,L|76:260,1,90,6|0,0:0|0:0,0:0:0:0:
60,156,82734,2,0,L|156:172,1,90,2|0,0:0|0:0,0:0:0:0:
256,188,83050,1,2,0:0:0:0:
352,96,83208,1,0,0:0:0:0:
216,104,83365,1,2,0:0:0:0:
296,276,83523,1,0,0:0:0:0:
364,192,83681,2,0,P|408:176|440:144,1,90,2|0,0:0|0:0,0:0:0:0:
462,329,83997,2,0,P|420:314|388:284,1,90,2|0,0:0|0:0,0:0:0:0:
216,224,84313,2,0,P|172:240|140:272,1,90,2|0,0:0|0:0,0:0:0:0:
272,144,84629,2,0,P|256:100|224:68,1,90,2|0,0:0|0:0,0:0:0:0:
124,28,84944,6,0,B|48:80|48:80|60:124|48:172,1,180,6|0,0:0|0:0,0:0:0:0:
36,256,85418,1,0,0:0:0:0:
198,352,85576,1,2,0:0:0:0:
198,160,85734,1,0,0:0:0:0:
144,256,85892,1,0,0:0:0:0:
198,160,86050,1,0,0:0:0:0:
252,256,86208,2,0,L|348:256,1,90,2|0,0:0|0:0,0:0:0:0:
496,232,86523,2,0,P|469:191|454:149,1,90,2|0,0:0|0:0,0:0:0:0:
316,36,86839,2,0,P|289:77|274:119,1,90,2|0,0:0|0:0,0:0:0:0:
296,296,87155,2,0,P|255:323|213:338,1,90,2|0,0:0|0:0,0:0:0:0:
180,348,87392,1,0,0:0:0:0:
144,352,87471,6,0,B|104:344|104:344|68:308,1,90,6|0,0:0|0:0,0:0:0:0:
132,216,87786,2,0,B|124:176|124:176|88:140,1,90,2|0,0:0|0:0,0:0:0:0:
24,76,88102,1,2,0:0:0:0:
24,76,88260,2,0,P|64:44|104:32,1,90,0|2,0:0|0:0,0:0:0:0:
168,92,88576,2,0,P|256:104|340:60,1,180,2|2,0:0|0:0,0:0:0:0:
256,268,89208,2,0,P|288:300|332:316,1,90,0|2,0:0|0:0,0:0:0:0:
420,336,89523,1,0,0:0:0:0:
332,196,89681,1,2,0:0:0:0:
80,92,89997,6,0,P|148:48|248:48,1,180,6|0,0:0|0:0,0:0:0:0:
332,72,90471,1,0,0:0:0:0:
256,152,90629,1,2,0:0:0:0:
400,228,90786,1,0,0:0:0:0:
256,152,90944,1,0,0:0:0:0:
400,228,91102,1,0,0:0:0:0:
296,252,91260,1,2,0:0:0:0:
256,352,91418,1,0,0:0:0:0:
156,308,91576,6,0,P|112:296|64:300,1,90,2|0,0:0|0:0,0:0:0:0:
28,168,91892,2,0,P|60:135|103:115,1,90,2|0,0:0|0:0,0:0:0:0:
256,152,92208,2,0,P|268:108|264:60,1,90,2|0,0:0|0:0,0:0:0:0:
173,32,92523,5,6,0:0:0:0:
354,32,92681,1,0,0:0:0:0:
354,208,92839,1,2,0:0:0:0:
173,208,92997,1,0,0:0:0:0:
264,116,93155,2,0,L|264:208,1,90,2|0,0:0|0:0,0:0:0:0:
264,296,93471,2,0,L|264:204,1,90,2|0,0:0|0:0,0:0:0:0:
354,208,93786,2,0,L|262:208,1,90,2|0,0:0|0:0,0:0:0:0:
173,208,94102,2,0,L|265:208,1,90,2|0,0:0|0:0,0:0:0:0:
354,208,94418,1,2,0:0:0:0:
492,296,94576,1,0,0:0:0:0:
492,120,94734,1,2,0:0:0:0:
384,104,94892,5,0,0:0:0:0:
384,104,94971,1,0,0:0:0:0:
384,104,95050,2,0,P|344:76|300:60,1,90,6|0,0:0|0:0,0:0:0:0:
220,32,95365,1,0,0:0:0:0:
128,128,95523,1,0,0:0:0:0:
32,32,95681,1,2,0:0:0:0:
128,128,95839,1,0,0:0:0:0:
32,220,95997,1,0,0:0:0:0:
220,220,96155,1,0,0:0:0:0:
220,220,96313,2,0,P|260:248|284:288,1,90,2|0,0:0|0:0,0:0:0:0:
400,220,96629,2,0,P|440:192|464:152,1,90,2|0,0:0|0:0,0:0:0:0:
312,100,96944,2,0,P|284:60|244:36,1,90,2|0,0:0|0:0,0:0:0:0:
188,236,97260,2,0,P|160:276|120:300,1,90,2|0,0:0|0:0,0:0:0:0:
92,312,97497,1,0,0:0:0:0:
56,316,97576,6,0,L|16:232,1,90,6|0,0:0|0:0,0:0:0:0:
64,108,97892,2,0,L|104:192,1,90,2|0,0:0|0:0,0:0:0:0:
236,224,98208,1,2,0:0:0:0:
236,224,98365,2,0,L|156:60,1,180,2|2,0:0|0:0,0:0:0:0:
428,40,98997,2,0,P|388:124|408:208,1,180,2|0,0:0|0:0,0:0:0:0:
448,284,99471,1,2,0:0:0:0:
488,136,99629,1,2,0:0:0:0:
292,120,99786,1,2,0:0:0:0:
292,120,100102,6,0,P|236:192|152:208,1,180,6|0,0:0|0:0,0:0:0:0:
44,192,100576,1,0,0:0:0:0:
88,276,100734,2,0,P|144:348|228:364,1,180,6|0,0:0|0:0,0:0:0:0:
332,332,101208,1,0,0:0:0:0:
252,256,101365,2,0,P|292:232|340:236,1,90,6|0,0:0|0:0,0:0:0:0:
444,156,101681,2,0,P|404:132|356:136,1,90,2|0,0:0|0:0,0:0:0:0:
200,160,101997,2,0,P|166:127|157:80,1,90,2|0,0:0|0:0,0:0:0:0:
44,228,102313,2,0,P|20:268|24:316,1,90,2|0,0:0|0:0,0:0:0:0:
108,288,102629,5,6,0:0:0:0:
256,352,102786,1,0,0:0:0:0:
108,288,102944,1,0,0:0:0:0:
256,352,103102,1,0,0:0:0:0:
256,192,103260,1,6,0:0:0:0:
108,128,103418,1,0,0:0:0:0:
256,192,103576,1,0,0:0:0:0:
108,128,103734,1,0,0:0:0:0:
364,36,104050,2,0,L|456:36,1,90,6|6,0:0|0:0,0:0:0:0:
500,192,104365,2,0,L|408:192,1,90,6|6,0:0|0:0,0:0:0:0:
12,192,104839,5,0,0:0:0:0:
116,160,104997,1,0,0:0:0:0:
116,160,105076,1,0,0:0:0:0:
116,160,105155,2,0,P|200:148|284:192,1,180,6|0,0:0|0:0,0:0:0:0:
396,216,105629,2,0,P|345:283|254:312,1,180,2|0,0:0|0:0,0:0:0:0:
148,312,106102,1,2,0:0:0:0:
256,192,106260,1,0,0:0:0:0:
120,192,106418,6,0,P|160:108|236:60,1,180,6|0,0:0|0:0,0:0:0:0:
316,40,106892,2,0,P|356:124|424:176,1,180,2|0,0:0|0:0,0:0:0:0:
428,64,107365,1,2,0:0:0:0:
332,228,107523,1,0,0:0:0:0:
332,228,107602,1,0,0:0:0:0:
332,228,107681,6,0,P|412:264|504:256,1,180,6|0,0:0|0:0,0:0:0:0:
502,256,108155,1,6,0:0:0:0:
143,286,108471,2,0,L|77:352,2,90,2|4|0,0:0|0:0|0:0,0:0:0:0:
192,160,108944,2,0,P|158:128|117:109,1,90,6|0,0:0|0:0,0:0:0:0:
280,76,109260,2,0,P|314:44|355:25,1,90,2|4,0:0|0:0,0:0:0:0:
404,180,109576,2,0,P|438:212|479:231,1,90,2|0,0:0|0:0,0:0:0:0:
304,328,109892,2,0,P|338:296|379:277,1,90,6|0,0:0|0:0,0:0:0:0:
476,230,110208,5,6,0:0:0:0:
260,72,110523,1,0,0:0:0:0:
260,72,110681,2,0,P|196:132|104:128,1,180,2|0,0:0|0:0,0:0:0:0:
24,96,111155,1,2,0:0:0:0:
24,232,111313,1,0,0:0:0:0:
24,232,111392,1,0,0:0:0:0:
24,232,111471,2,0,P|52:268|92:288,1,90,6|0,0:0|0:0,0:0:0:0:
216,232,111786,1,0,0:0:0:0:
256,360,111944,2,0,P|344:352|416:296,1,180,2|0,0:0|0:0,0:0:0:0:
476,208,112418,1,2,0:0:0:0:
204,192,112734,6,0,P|144:216|76:204,2,135,6|0|2,0:0|0:0|0:0,0:0:0:0:
132,112,113365,2,0,P|174:97|218:99,1,90,0|0,0:0|0:0,0:0:0:0:
328,112,113681,2,0,P|367:91|396:57,1,90,2|0,0:0|0:0,0:0:0:0:
500,24,113997,2,0,P|484:112|416:168,1,180,6|0,0:0|0:0,0:0:0:0:
396,176,114392,1,0,0:0:0:0:
376,184,114471,1,0,0:0:0:0:
316,96,114629,2,0,P|256:72|188:84,2,135,2|0|0,0:0|2:3|3:3,0:0:0:0:
140,300,115418,2,0,L|48:300,1,90,2|2,0:0|0:0,0:0:0:0:
132,192,115734,2,0,L|224:192,1,90,2|2,0:0|0:0,0:0:0:0:
476,112,116523,6,0,P|412:56|320:68,1,180,6|0,0:0|0:0,0:0:0:0:
232,128,116997,1,2,0:0:0:0:
232,128,117471,1,8,0:0:0:0:
444,292,117786,2,0,P|380:348|288:336,1,180,2|0,0:0|0:0,0:0:0:0:
200,276,118260,1,2,0:0:0:0:
200,276,118734,1,8,0:0:0:0:
344,48,119050,6,0,P|388:56|432:48,1,90,2|0,0:0|0:0,0:0:0:0:
424,156,119365,2,0,P|415:200|423:244,1,90,0|2,0:0|0:0,0:0:0:0:
456,348,119681,1,0,0:0:0:0:
312,260,119839,1,0,0:0:0:0:
200,276,119997,2,0,P|163:250|137:213,1,90,8|0,0:0|0:0,0:0:0:0:
36,160,120313,2,0,P|100:104|192:116,1,180,2|0,0:0|0:0,0:0:0:0:
288,160,120786,2,0,P|372:154|429:80,1,180,2|0,0:0|0:0,0:0:0:0:
428,83,121260,1,8,0:0:0:0:
164,36,121576,6,0,P|124:56|92:88,1,90,6|0,0:0|0:0,0:0:0:0:
180,152,121892,2,0,P|160:192|128:224,1,90,0|2,0:0|0:0,0:0:0:0:
36,284,122208,2,0,B|80:364|80:364|124:348|168:344,1,180,0|8,0:0|0:0,0:0:0:0:
288,104,122839,2,0,B|368:148|368:148|352:192|348:236,1,180,2|0,0:0|0:0,0:0:0:0:
344,344,123313,1,2,0:0:0:0:
344,344,123786,1,8,0:0:0:0:
120,192,124102,6,0,P|72:176|40:148,1,90,2|0,0:0|0:0,0:0:0:0:
216,104,124418,2,0,P|200:56|172:24,1,90,0|2,0:0|0:0,0:0:0:0:
344,88,124734,2,0,P|392:72|424:44,2,90,0|0|8,0:0|0:0|0:0,0:0:0:0:
288,183,125208,1,0,0:0:0:0:
256,312,125365,1,0,0:0:0:0:
288,184,125523,1,0,0:0:0:0:
352,268,125681,2,0,P|400:284|432:308,1,90,2|0,0:0|0:0,0:0:0:0:
504,192,125997,2,0,P|488:144|464:112,1,90,2|0,0:0|0:0,0:0:0:0:
240,136,126313,2,0,P|256:88|280:56,1,90,2|0,0:0|0:0,0:0:0:0:
279,56,126629,1,6,0:0:0:0:
88,248,126944,6,0,L|176:232,1,90,2|2,0:0|0:0,0:0:0:0:
256,344,127260,2,0,L|168:360,1,90,2|2,0:0|0:0,0:0:0:0:
448,68,127892,1,2,0:0:0:0:
432,204,128050,1,2,0:0:0:0:
448,68,128208,1,2,0:0:0:0:
432,204,128365,2,0,P|348:208|268:176,1,168.750006437302,2|0,0:0|0:0,0:0:0:0:
252,164,128839,6,0,P|208:168|164:156,1,90,6|0,0:0|0:0,0:0:0:0:
200,52,129155,2,0,P|156:48|112:60,1,90,2|0,0:0|0:0,0:0:0:0:
28,92,129471,1,0,0:0:0:0:
96,152,129629,1,2,0:0:0:0:
48,20,129786,1,0,0:0:0:0:
4,164,129944,1,0,0:0:0:0:
72,224,130102,5,8,0:0:0:0:
12,344,130260,1,0,0:0:0:0:
148,344,130418,2,0,P|240:348|304:292,1,180,2|0,0:0|0:0,0:0:0:0:
352,196,130892,1,2,0:0:0:0:
352,196,131365,1,8,0:0:0:0:
80,192,131681,6,0,P|64:236|24:264,1,90,6|0,0:0|0:0,0:0:0:0:
132,296,131997,2,0,P|148:340|188:368,1,90,0|2,0:0|0:0,0:0:0:0:
488,192,132629,1,8,0:0:0:0:
376,76,132787,1,0,0:0:0:0:
264,192,132945,1,2,0:0:0:0:
264,192,133103,2,0,L|172:192,1,90
84,192,133418,2,0,B|28:120|28:120|84:48,1,180,2|0,0:0|0:0,0:0:0:0:
83,49,133892,1,8,0:0:0:0:
164,120,134050,5,0,0:0:0:0:
164,120,134129,1,0,0:0:0:0:
164,120,134208,2,0,P|236:72|332:72,1,180,4|0,0:0|0:0,0:0:0:0:
484,288,134839,2,0,P|412:336|316:336,1,180,4|0,0:0|0:0,0:0:0:0:
300,332,135234,1,0,0:0:0:0:
280,324,135313,1,0,0:0:0:0:
180,288,135471,1,8,0:0:0:0:
96,324,135629,1,8,0:0:0:0:
188,192,135786,1,8,0:0:0:0:
96,196,135944,1,8,0:0:0:0:
280,192,136102,1,8,0:0:0:0:
96,196,136260,1,8,0:0:0:0:
96,84,136418,2,0,L|180:48,1,90,8|8,0:0|0:0,0:0:0:0:
260,12,136734,5,8,0:0:0:0:
260,12,136892,1,8,0:0:0:0:
260,12,137050,1,8,0:0:0:0:
456,268,137523,2,0,P|392:328|300:308,1,180,4|4,0:0|0:0,0:0:0:0:
128,192,138155,1,2,0:0:0:0:
256,96,138313,1,2,0:0:0:0:
384,192,138471,1,2,0:0:0:0:
256,292,138629,2,0,L|256:200,1,90,2|0,0:0|0:0,0:0:0:0:
256,202,138944,1,2,0:0:0:0:
256,202,139260,5,8,0:0:0:0:
256,202,139418,1,8,0:0:0:0:
256,202,139576,2,0,P|240:116|160:72,1,180,8|0,0:0|0:0,0:0:0:0:
152,180,140050,1,0,0:0:0:0:
352,356,140365,2,0,P|392:352|436:328,1,90,4|0,0:0|0:0,0:0:0:0:
504,268,140681,5,2,0:0:0:0:
424,128,140839,1,2,0:0:0:0:
504,268,140997,1,2,0:0:0:0:
424,128,141155,2,0,P|368:56|280:40,1,180,2|2,0:0|0:0,0:0:0:0:
137,196,141786,1,4,0:0:0:0:
113,204,141865,1,0,0:0:0:0:
87,206,141944,1,0,0:0:0:0:
62,202,142023,1,0,0:0:0:0:
38,193,142102,1,0,0:0:0:0:
416,344,142576,6,0,P|328:351|256:295,1,180,4|4,0:0|0:0,0:0:0:0:
360,212,143050,2,0,P|404:188|452:180,1,90,0|2,0:0|0:0,0:0:0:0:
464,176,143286,1,0,0:0:0:0:
488,176,143365,1,0,0:0:0:0:
488,268,143523,1,2,0:0:0:0:
488,84,143681,2,0,B|396:84|396:84|360:56|308:52,1,180,2|2,0:0|0:0,0:0:0:0:
28,336,144313,6,0,P|74:354|120:365,1,90,6|0,0:0|0:0,0:0:0:0:
28,224,144629,2,0,P|74:206|120:195,1,90,2|0,0:0|0:0,0:0:0:0:
260,336,144945,2,0,P|305:317|345:292,1,90,2|0,0:0|0:0,0:0:0:0:
260,108,145261,1,2,0:0:0:0:
260,108,145419,2,0,P|348:92|428:136,1,180,6|0,0:0|0:0,0:0:0:0:
484,200,145892,1,2,0:0:0:0:
180,315,146208,5,2,0:0:0:0:
64,200,146366,1,2,0:0:0:0:
220,159,146524,1,2,0:0:0:0:
220,160,146840,2,0,P|272:88|360:72,1,180,6|2,0:0|0:0,0:0:0:0:
360,232,147313,2,0,P|412:304|500:320,2,180,2|2|6,0:0|0:0|0:0,0:0:0:0:
64,84,148261,6,0,P|108:64|152:68,1,90,2|0,0:0|0:0,0:0:0:0:
236,92,148576,1,0,0:0:0:0:
128,212,148734,6,0,P|144:258|178:286,1,90,2|0,0:0|0:0,0:0:0:0:
255,328,149050,1,0,0:0:0:0:
264,220,149208,2,0,P|348:184|432:216,1,180,2|2,0:0|0:0,0:0:0:0:
496,272,149682,1,2,0:0:0:0:
352,300,149840,1,2,0:0:0:0:
508,192,149997,1,2,0:0:0:0:
308,52,150313,2,0,P|258:62|217:95,1,101.250003862381
200,112,150629,6,0,L|112:80,1,90,6|0,0:0|0:0,0:0:0:0:
4,160,150944,2,0,L|92:192,1,90,2|0,0:0|0:0,0:0:0:0:
192,224,151260,1,2,0:0:0:0:
112,332,151418,1,0,0:0:0:0:
248,332,151576,1,2,0:0:0:0:
332,224,151734,1,0,0:0:0:0:
416,332,151892,2,0,L|508:332,1,90,2|0,0:0|0:0,0:0:0:0:
332,224,152208,2,0,L|240:224,1,90,2|0,0:0|0:0,0:0:0:0:
248,332,152523,2,0,L|340:332,1,90,2|0,0:0|0:0,0:0:0:0:
192,224,152839,2,0,L|100:224,1,90,2|0,0:0|0:0,0:0:0:0:
60,96,153155,6,0,P|132:44|224:52,1,180,6|0,0:0|0:0,0:0:0:0:
324,84,153629,1,0,0:0:0:0:
404,192,153786,1,2,0:0:0:0:
484,32,153944,1,0,0:0:0:0:
324,84,154102,1,0,0:0:0:0:
404,192,154260,1,0,0:0:0:0:
488,264,154418,1,2,0:0:0:0:
320,264,154576,1,0,0:0:0:0:
216,348,154734,2,0,P|168:344|128:328,1,90,2|0,0:0|0:0,0:0:0:0:
224,176,155050,2,0,P|220:128|204:88,1,90,2|0,0:0|0:0,0:0:0:0:
60,192,155365,2,0,P|87:231|121:258,1,90,2|0,0:0|0:0,0:0:0:0:
156,256,155602,1,0,0:0:0:0:
192,256,155681,6,0,B|284:256|284:256|320:288|368:288,1,180,6|0,0:0|0:0,0:0:0:0:
472,292,156155,1,0,0:0:0:0:
356,200,156313,1,2,0:0:0:0:
492,184,156471,1,0,0:0:0:0:
336,308,156629,1,0,0:0:0:0:
228,320,156786,2,0,B|165:252|165:252|117:249|83:215,1,180,6|2,0:0|0:0,0:0:0:0:
16,136,157260,1,2,0:0:0:0:
160,28,157418,1,2,0:0:0:0:
160,136,157576,2,0,L|252:136,2,90,2|2|2,0:0|0:0|0:0,0:0:0:0:
416,192,158208,6,0,P|344:240|328:328,1,180,6|0,0:0|0:0,0:0:0:0:
432,300,158681,1,0,0:0:0:0:
304,148,158839,2,0,P|256:76|168:60,1,180,2|0,0:0|0:0,0:0:0:0:
196,164,159312,1,0,0:0:0:0:
44,228,159471,1,2,0:0:0:0:
168,60,159629,1,0,0:0:0:0:
300,32,159786,2,0,P|348:28|392:12,1,90,2|0,0:0|0:0,0:0:0:0:
428,192,160102,2,0,P|432:144|448:100,1,90,2|0,0:0|0:0,0:0:0:0:
348,280,160418,2,0,P|300:284|256:300,1,90,2|0,0:0|0:0,0:0:0:0:
160,336,160734,5,6,0:0:0:0:
68,236,160892,1,0,0:0:0:0:
160,136,161050,1,2,0:0:0:0:
252,236,161208,1,0,0:0:0:0:
160,136,161365,1,2,0:0:0:0:
68,36,161523,1,0,0:0:0:0:
252,36,161681,1,2,0:0:0:0:
160,136,161839,1,0,0:0:0:0:
344,136,161997,2,0,L|436:136,1,90,2|0,0:0|0:0,0:0:0:0:
488,228,162313,2,0,L|396:228,1,90,2|0,0:0|0:0,0:0:0:0:
320,68,162629,2,0,P|364:64|412:68,1,90,2|0,0:0|0:0,0:0:0:0:
512,296,162944,2,0,P|468:300|420:296,1,90,2|0,0:0|0:0,0:0:0:0:
312,296,163260,6,0,P|248:356|160:336,1,180,6|0,0:0|0:0,0:0:0:0:
88,260,163734,1,0,0:0:0:0:
128,160,163892,2,0,P|192:100|280:120,1,180,2|0,0:0|0:0,0:0:0:0:
352,196,164366,1,0,0:0:0:0:
460,196,164523,2,0,P|472:156|512:124,1,90,2|0,0:0|0:0,0:0:0:0:
408,36,164839,2,0,P|368:48|336:88,1,90,2|0,0:0|0:0,0:0:0:0:
156,84,165155,2,0,P|116:72|84:32,1,90,2|0,0:0|0:0,0:0:0:0:
68,240,165471,2,0,P|80:280|120:312,1,90,2|0,0:0|0:0,0:0:0:0:
148,324,165708,1,0,0:0:0:0:
184,328,165786,6,0,P|260:284|348:304,1,180,6|0,0:0|0:0,0:0:0:0:
440,360,166260,1,0,0:0:0:0:
440,252,166418,2,0,P|396:175|309:149,1,180,2|0,0:0|0:0,0:0:0:0:
202,151,166892,1,2,0:0:0:0:
202,151,167208,2,0,P|152:220|60:232,1,180,2|2,0:0|0:0,0:0:0:0:
24,132,167681,2,0,P|40:88|68:52,2,90,2|2|2,0:0|0:0|0:0,0:0:0:0:
80,340,168313,6,0,P|164:364|232:308,1,180,6|0,0:0|0:0,0:0:0:0:
268,208,168786,1,0,0:0:0:0:
432,208,168944,1,6,0:0:0:0:
350,48,169102,1,0,0:0:0:0:
256,48,169260,1,0,0:0:0:0:
444,48,169418,1,0,0:0:0:0:
260,128,169576,1,6,0:0:0:0:
436,128,169734,1,0,0:0:0:0:
350,208,169892,2,0,L|350:300,1,90,2|0,0:0|0:0,0:0:0:0:
192,340,170208,2,0,L|257:274,1,90,2|0,0:0|0:0,0:0:0:0:
96,192,170523,2,0,L|186:192,1,90,2|0,0:0|0:0,0:0:0:0:
152,88,170839,6,0,P|232:36|312:52,1,180,6|0,0:0|0:0,0:0:0:0:
404,108,171313,1,0,0:0:0:0:
308,160,171471,6,0,P|327:253|395:298,1,180,6|0,0:0|0:0,0:0:0:0:
500,324,171945,1,0,0:0:0:0:
256,192,172418,12,4,173365,0:0:0:0:
44,104,182208,6,0,P|100:68|172:56,1,135.000005149842,0|2,0:0|0:0,0:0:0:0:
200,296,182839,2,0,P|256:332|328:344,1,135.000005149842,0|2,0:0|0:0,0:0:0:0:
424,92,183471,2,0,P|358:106|299:148,1,135.000005149842,0|2,0:0|0:0,0:0:0:0:
320,344,184102,2,0,P|250:333|191:291,1,135.000005149842,0|2,0:0|0:0,0:0:0:0:
116,192,184734,1,4,0:0:0:0:
192,80,185050,6,0,P|256:56|324:56,1,135.000005149842,0|2,0:0|0:0,0:0:0:0:
192,264,185681,2,0,P|256:288|324:288,1,135.000005149842,0|2,0:0|0:0,0:0:0:0:
500,192,186313,2,0,L|364:192,1,135.000005149842,0|2,0:0|0:0,0:0:0:0:
164,192,186944,2,0,L|88:192,2,67.5000025749208,0|0|6,0:0|0:0|0:0,0:0:0:0:
368,192,187576,6,0,B|312:236|312:236|312:276|272:288,1,135.000005149842,0|2,0:0|0:0,0:0:0:0:
52,192,188208,1,0,0:0:0:0:
256,60,188523,1,2,0:0:0:0:
460,192,188839,1,0,0:0:0:0:
256,324,189155,1,2,0:0:0:0:
256,192,189471,2,0,L|120:192,1,135.000005149842,0|2,0:0|0:0,0:0:0:0:
256,192,190102,2,0,L|392:192,1,135.000005149842,0|2,0:0|0:0,0:0:0:0:
164,284,190734,6,0,B|120:228|120:228|80:228|68:188,1,135.000005149842,0|2,0:0|0:0,0:0:0:0:
348,100,191365,2,0,B|392:156|392:156|432:156|444:196,1,135.000005149842,0|2,0:0|0:0,0:0:0:0:
256,276,191997,1,0,0:0:0:0:
168,192,192155,1,0,0:0:0:0:
256,108,192313,1,6,0:0:0:0:
484,192,192629,6,0,L|344:192,1,135.000005149842,0|2,0:0|0:0,0:0:0:0:
28,192,193260,2,0,L|168:192,1,135.000005149842,0|2,0:0|0:0,0:0:0:0:
256,328,193892,2,0,L|256:192,1,135.000005149842,0|2,0:0|0:0,0:0:0:0:
256,56,194523,1,0,0:0:0:0:
184,156,194681,1,0,0:0:0:0:
328,156,194839,1,6,0:0:0:0:
132,304,195155,6,0,L|81:354,2,67.5000025749208,0|0|2,0:0|0:0|0:0,0:0:0:0:
380,80,195786,2,0,L|430:29,2,67.5000025749208,0|0|2,0:0|0:0|0:0,0:0:0:0:
144,68,196418,2,0,L|93:17,2,67.5000025749208,0|0|2,0:0|0:0|0:0,0:0:0:0:
368,316,197050,2,0,L|418:366,2,67.5000025749208,0|0|6,0:0|0:0|0:0,0:0:0:0:
424,80,197681,6,0,P|456:140|468:208,1,135.000005149842,0|2,0:0|0:0,0:0:0:0:
88,304,198313,2,0,P|56:244|44:176,1,135.000005149842,0|2,0:0|0:0,0:0:0:0:
296,76,198944,1,0,0:0:0:0:
216,308,199260,1,2,0:0:0:0:
400,76,199576,1,0,0:0:0:0:
112,308,199892,1,2,0:0:0:0:
112,192,200050,6,0,L|112:100,1,90,2|0,0:0|0:0,0:0:0:0:
244,68,200365,2,0,L|244:160,1,90,2|0,0:0|0:0,0:0:0:0:
376,192,200681,2,0,L|376:282,1,90,2|0,0:0|0:0,0:0:0:0:
508,316,200997,2,0,L|508:224,1,90,2|0,0:0|0:0,0:0:0:0:
508,136,201313,2,2,L|508:44,1,90
416,44,201629,1,2,0:0:0:0:
328,56,201786,5,2,0:0:0:0:
312,60,201865,1,0,0:0:0:0:
296,60,201944,1,0,0:0:0:0:
280,60,202023,1,0,0:0:0:0:
264,64,202102,1,2,0:0:0:0:
248,72,202181,1,0,0:0:0:0:
232,84,202260,1,0,0:0:0:0:
220,96,202339,1,0,0:0:0:0:
208,108,202418,2,0,B|180:148|136:156|136:156|80:232,1,180,4|0,0:0|0:0,0:0:0:0:
336,320,203050,6,0,B|376:292|384:248|384:248|460:192,2,180
256,360,203839,1,0,0:0:0:0:
220,228,203997,1,0,0:0:0:0:
124,360,204155,1,0,0:0:0:0:
88,228,204313,1,0,0:0:0:0:
28,316,204471,1,2,0:0:0:0:
154,128,204629,1,0,0:0:0:0:
154,128,204786,6,0,B|200:112|220:72|220:72|312:72,1,180,6|0,0:0|0:0,0:0:0:0:
348,64,205181,1,0,0:0:0:0:
381,55,205260,1,2,0:0:0:0:
416,57,205339,1,0,0:0:0:0:
448,70,205418,1,0,0:0:0:0:
475,93,205497,1,0,0:0:0:0:
493,123,205576,1,2,0:0:0:0:
502,156,205655,1,0,0:0:0:0:
499,191,205734,1,0,0:0:0:0:
486,223,205813,1,0,0:0:0:0:
464,250,205892,1,2,0:0:0:0:
392,168,206050,6,0,B|346:152|326:112|326:112|234:112,1,180,4|0,0:0|0:0,0:0:0:0:
198,104,206444,1,0,0:0:0:0:
165,95,206523,1,2,0:0:0:0:
130,97,206602,1,0,0:0:0:0:
98,110,206681,1,0,0:0:0:0:
71,133,206760,1,0,0:0:0:0:
53,163,206839,1,2,0:0:0:0:
44,196,206918,1,0,0:0:0:0:
47,231,206997,1,0,0:0:0:0:
60,263,207076,1,0,0:0:0:0:
82,290,207155,1,2,0:0:0:0:
332,192,207471,6,0,L|248:224,1,90
236,360,207786,2,0,L|320:328,1,90,2|0,0:0|0:0,0:0:0:0:
424,292,208102,1,0,0:0:0:0:
428,156,208260,1,0,0:0:0:0:
348,84,208418,1,2,0:0:0:0:
348,84,208576,2,0,P|268:44|172:60,1,180
124,148,209050,2,0,P|80:160|32:156,1,90,2|0,0:0|0:0,0:0:0:0:
196,192,209365,2,0,P|184:236|188:284,1,90
256,364,209681,5,2,0:0:0:0:
256,364,209839,2,0,P|336:324|432:340,1,180,4|0,0:0|0:0,0:0:0:0:
456,348,210234,1,0,0:0:0:0:
466,319,210313,1,2,0:0:0:0:
476,291,210392,1,0,0:0:0:0:
486,263,210471,1,0,0:0:0:0:
463,249,210550,1,0,0:0:0:0:
438,233,210629,1,2,0:0:0:0:
416,212,210708,1,0,0:0:0:0:
399,188,210786,1,0,0:0:0:0:
384,162,210865,1,0,0:0:0:0:
374,134,210944,1,2,0:0:0:0:
336,292,211102,6,0,P|256:252|160:268,1,180,4|0,0:0|0:0,0:0:0:0:
136,276,211497,1,0,0:0:0:0:
125,247,211576,1,2,0:0:0:0:
115,219,211655,1,0,0:0:0:0:
105,191,211734,1,0,0:0:0:0:
128,177,211813,1,0,0:0:0:0:
153,161,211892,1,2,0:0:0:0:
175,140,211971,1,0,0:0:0:0:
192,116,212050,1,0,0:0:0:0:
207,90,212129,1,0,0:0:0:0:
217,62,212208,1,2,0:0:0:0:
480,252,212523,5,0,0:0:0:0:
480,252,212681,2,0,P|452:220|408:196,1,90,0|2,0:0|0:0,0:0:0:0:
384,304,212997,2,4,P|356:336|312:360,1,90,0|0,0:0|0:0,0:0:0:0:
176,192,213313,2,4,P|215:213|245:247,1,90,0|2,0:0|0:0,0:0:0:0:
220,340,213629,2,0,P|132:356|72:292,1,180
44,192,214102,1,2,0:0:0:0:
208,148,214260,1,0,0:0:0:0:
44,192,214418,1,2,0:0:0:0:
208,148,214576,1,0,0:0:0:0:
100,84,214734,1,2,0:0:0:0:
264,40,214892,6,0,B|352:16|352:16|392:96,1,180,4|0,0:0|0:0,0:0:0:0:
396,104,215286,1,0,0:0:0:0:
400,112,215365,1,2,0:0:0:0:
404,120,215444,1,0,0:0:0:0:
408,128,215523,1,0,0:0:0:0:
412,136,215602,1,0,0:0:0:0:
416,144,215681,1,2,0:0:0:0:
420,152,215760,1,0,0:0:0:0:
424,160,215839,1,0,0:0:0:0:
428,168,215918,1,0,0:0:0:0:
432,176,215997,1,2,0:0:0:0:
436,184,216076,6,0,L|456:224,5,45
456,248,216471,1,0,0:0:0:0:
440,276,216550,1,0,0:0:0:0:
423,293,216629,1,2,0:0:0:0:
401,309,216708,1,0,0:0:0:0:
376,319,216786,1,0,0:0:0:0:
350,323,216865,1,0,0:0:0:0:
323,321,216944,2,0,P|248:276|156:288,1,180,2|2,0:0|0:0,0:0:0:0:
88,108,217576,6,0,P|163:62|255:74,1,180,4|2,0:0|0:0,0:0:0:0:
256,288,218208,1,0,0:0:0:0:
164,192,218365,1,0,0:0:0:0:
348,192,218523,1,2,0:0:0:0:
256,96,218681,6,0,P|180:50|88:62,1,180,4|0,0:0|0:0,0:0:0:0:
8,92,219155,1,2,0:0:0:0:
256,288,219471,2,0,P|228:320|184:344,2,90,0|0|2,0:0|0:0|0:0,0:0:0:0:
412,4,220102,2,0,P|344:56|256:36,1,180,4|2,0:0|0:0,0:0:0:0:
124,64,220576,2,0,P|96:100|52:112,1,90,2|0,0:0|0:0,0:0:0:0:
184,208,220892,2,0,P|212:244|256:256,1,90,2|0,0:0|0:0,0:0:0:0:
424,192,221208,2,0,P|452:156|496:144,1,90,6|0,0:0|0:0,0:0:0:0:
428,56,221523,6,0,L|336:56,1,90,0|8,0:0|0:0,0:0:0:0:
256,128,221839,2,0,L|348:128,1,90
256,188,222155,2,0,L|164:188,1,90,0|8,0:0|0:0,0:0:0:0:
84,260,222471,2,0,L|176:260,1,90
256,296,222786,1,0,0:0:0:0:
426,332,222944,2,0,L|336:332,1,90,8|0,0:0|0:0,0:0:0:0:
86,332,223260,2,0,L|176:332,1,90,0|0,0:0|0:0,0:0:0:0:
256,224,223576,1,8,0:0:0:0:
256,224,223734,1,0,0:0:0:0:
256,64,223892,6,0,L|256:160,1,90,6|6,0:0|0:0,0:0:0:0:
28,300,224365,2,0,P|76:224|60:136,2,180
300,288,225313,5,12,0:0:0:0:
432,192,225471,1,12,0:0:0:0:
268,192,225629,1,12,0:0:0:0:
400,288,225786,1,12,0:0:0:0:
352,116,226418,1,12,0:0:0:0:
256,192,231471,5,2,0:0:0:0:
256,228,232734,1,2,0:0:0:0:
256,264,233997,2,0,P|180:308|88:304,1,180,2|2,0:0|0:0,0:0:0:0:
256,264,235260,2,0,P|332:308|424:304,1,180,2|2,0:0|0:0,0:0:0:0:
256,24,236523,1,2,0:0:0:0:
256,112,236839,1,2,0:0:0:0:
256,292,237155,1,2,0:0:0:0:
256,292,237234,1,0,0:0:0:0:
256,292,237313,2,0,L|256:200,1,90,0|2,0:0|0:0,0:0:0:0:
28,56,237786,6,0,L|120:40,1,90,6|0,0:0|0:0,0:0:0:0:
188,160,238102,2,0,L|96:176,1,90,2|0,0:0|0:0,0:0:0:0:
64,116,238418,2,0,L|156:100,1,90,2|0,0:0|0:0,0:0:0:0:
216,220,238734,2,0,L|124:236,1,90,2|0,0:0|0:0,0:0:0:0:
40,252,239050,1,2,0:0:0:0:
192,344,239208,1,0,0:0:0:0:
296,220,239365,1,2,0:0:0:0:
400,344,239523,1,0,0:0:0:0:
296,220,239681,1,2,0:0:0:0:
400,96,239839,1,0,0:0:0:0:
192,96,239997,1,2,0:0:0:0:
88,64,240155,5,0,0:0:0:0:
88,64,240234,1,0,0:0:0:0:
88,64,240313,2,0,P|52:96|24:136,1,90,6|0,0:0|0:0,0:0:0:0:
148,192,240629,2,0,P|184:224|212:260,1,90
256,336,240944,1,2,0:0:0:0:
164,336,241102,1,0,0:0:0:0:
300,260,241260,1,0,0:0:0:0:
436,336,241418,1,0,0:0:0:0:
404,232,241576,2,0,P|432:192|472:168,1,90,2|0,0:0|0:0,0:0:0:0:
352,96,241892,2,0,P|324:56|284:32,1,90,2|0,0:0|0:0,0:0:0:0:
164,164,242208,2,0,P|212:159|253:137,1,90,2|0,0:0|0:0,0:0:0:0:
64,200,242523,2,0,P|92:240|132:264,1,90,2|0,0:0|0:0,0:0:0:0:
232,288,242839,5,6,0:0:0:0:
364,192,242997,1,0,0:0:0:0:
232,288,243155,1,2,0:0:0:0:
364,192,243313,1,0,0:0:0:0:
232,96,243471,1,2,0:0:0:0:
232,96,243629,2,0,P|192:64|152:48,1,90,0|2,0:0|0:0,0:0:0:0:
32,156,243944,2,0,B|88:228|88:228|64:268|92:312,1,180,6|2,0:0|0:0,0:0:0:0:
108,340,244576,1,2,0:0:0:0:
256,272,244734,1,2,0:0:0:0:
404,340,244892,1,2,0:0:0:0:
256,272,245050,1,2,0:0:0:0:
412,28,245365,6,0,P|372:48|328:60,1,90,6|0,0:0|0:0,0:0:0:0:
180,124,245681,2,0,P|220:144|264:156,1,90
412,224,245997,2,0,P|372:244|328:256,1,90,6|0,0:0|0:0,0:0:0:0:
180,320,246313,2,0,P|220:340|264:352,1,90
352,372,246629,1,6,0:0:0:0:
180,222,246786,1,0,0:0:0:0:
84,272,246944,2,0,P|44:248|16:212,1,90,2|0,0:0|0:0,0:0:0:0:
108,152,247260,2,0,P|148:128|176:92,1,90,2|0,0:0|0:0,0:0:0:0:
276,128,247576,2,0,P|316:152|344:188,1,90,2|0,0:0|0:0,0:0:0:0:
256,292,247892,6,0,L|164:292,1,90,6|0,0:0|0:0,0:0:0:0:
76,292,248208,1,2,0:0:0:0:
256,68,248523,1,2,0:0:0:0:
436,292,248839,1,2,0:0:0:0:
256,92,249155,6,0,L|348:92,1,90,6|0,0:0|0:0,0:0:0:0:
436,92,249471,1,2,0:0:0:0:
256,316,249786,1,2,0:0:0:0:
76,92,250102,1,2,0:0:0:0:
328,192,250418,6,0,P|368:180|416:184,1,90,6|2,0:0|0:0,0:0:0:0:
496,292,250734,2,0,P|456:304|408:300,1,90,2|2,0:0|0:0,0:0:0:0:
100,192,251208,2,0,P|60:180|12:184,2,90,2|2|2,0:0|0:0|0:0,0:0:0:0:
172,304,251681,6,4,B|220:308|220:308|260:280,1,90,6|2,0:0|0:0,0:0:0:0:
340,148,251997,2,0,B|292:144|292:144|252:172,1,90,2|2,0:0|0:0,0:0:0:0:
40,332,252471,1,2,0:0:0:0:
120,192,252629,1,2,0:0:0:0:
200,332,252786,1,2,0:0:0:0:
280,192,252944,6,0,P|324:120|412:84,1,180,6|2,0:0|0:0,0:0:0:0:
392,192,253418,2,0,P|432:266|419:360,2,180,2|2|2,0:0|0:0|0:0,0:0:0:0:
148,76,254365,1,6,0:0:0:0:
119,249,254523,1,6,0:0:0:0:
219,191,254681,1,6,0:0:0:0:
47,133,254839,1,6,0:0:0:0:
444,136,255155,5,0,0:0:0:0:
412,240,255313,1,0,0:0:0:0:
412,240,255392,1,0,0:0:0:0:
412,240,255471,2,0,P|360:308|268:316,1,180,6|0,0:0|0:0,0:0:0:0:
312,228,255944,2,0,P|260:160|168:152,1,180,2|0,0:0|0:0,0:0:0:0:
216,232,256418,1,2,0:0:0:0:
300,92,256576,1,0,0:0:0:0:
192,76,256734,6,0,B|104:64|104:64|80:104|36:124,1,180,6|0,0:0|0:0,0:0:0:0:
132,176,257208,2,0,B|144:264|144:264|104:288|84:332,1,180,2|0,0:0|0:0,0:0:0:0:
188,352,257681,1,2,0:0:0:0:
292,228,257839,1,0,0:0:0:0:
292,228,257918,1,0,0:0:0:0:
292,228,257997,6,0,P|344:296|436:296,1,180,6|0,0:0|0:0,0:0:0:0:
396,196,258471,2,0,P|394:108|326:55,1,180,2|0,0:0|0:0,0:0:0:0:
240,32,258944,1,2,0:0:0:0:
188,156,259102,1,0,0:0:0:0:
136,64,259260,6,0,P|100:92|72:128,1,90,6|0,0:0|0:0,0:0:0:0:
12,216,259576,1,2,0:0:0:0:
116,192,259734,2,0,P|158:174|203:168,1,90,6|2,0:0|0:0,0:0:0:0:
257,308,260050,1,0,0:0:0:0:
376,244,260208,2,0,P|348:208|312:180,1,90,6|0,0:0|0:0,0:0:0:0:
208,156,260523,6,0,P|268:92|364:84,1,180,6|0,0:0|0:0,0:0:0:0:
312,180,260997,2,0,P|314:267|252:341,1,180,2|0,0:0|0:0,0:0:0:0:
212,240,261471,1,2,0:0:0:0:
104,264,261629,5,0,0:0:0:0:
104,264,261708,1,0,0:0:0:0:
104,264,261786,2,0,P|64:240|44:200,1,90,6|0,0:0|0:0,0:0:0:0:
44,68,262102,2,0,P|84:92|104:132,1,90,0|2,0:0|0:0,0:0:0:0:
368,192,262576,1,0,0:0:0:0:
464,324,262734,1,2,0:0:0:0:
272,324,262892,1,0,0:0:0:0:
264,216,263050,6,0,P|248:172|220:136,1,90,6|0,0:0|0:0,0:0:0:0:
292,64,263365,2,0,P|249:44|204:38,1,90
20,32,263681,2,0,P|64:48|100:76,1,90,2|0,0:0|0:0,0:0:0:0:
32,168,263997,2,0,P|67:194|110:209,1,90
196,140,264313,2,0,L|104:140,1,90,6|0,0:0|0:0,0:0:0:0:
104,288,264629,2,0,L|196:288,1,90,2|0,0:0|0:0,0:0:0:0:
304,288,264944,5,6,0:0:0:0:
304,104,265102,1,0,0:0:0:0:
304,104,265181,1,0,0:0:0:0:
304,104,265260,1,2,0:0:0:0:
304,104,265339,1,0,0:0:0:0:
304,104,265418,1,0,0:0:0:0:
400,236,265576,2,0,L|432:280,2,45
208,236,265892,2,0,L|176:280,2,45
304,192,266208,1,6,0:0:0:0:
