osu file format v14

[General]
AudioFilename: Future style.mp3
AudioLeadIn: 0
PreviewTime: 46884
Countdown: 0
SampleSet: Soft
StackLeniency: 0.6
Mode: 0
LetterboxInBreaks: 1
EpilepsyWarning: 1
WidescreenStoryboard: 1

[Editor]
DistanceSpacing: 1
BeatDivisor: 4
GridSize: 4
TimelineZoom: 1

[Metadata]
Title:Future style (Movie Edit)
TitleUnicode:Future style (Movie Edit)
Artist:Nitta Emi, Uchida Aya, Mimori Suzuko
ArtistUnicode:新田恵海・内田彩・三森すずこ
Creator:Lortus
Version:Normal
Source:Love Live! The School Idol Movie
Tags:ラブライブ! Notes of School Idol Days ~Curtain Call~ μ's u's lovelive LL muse second years 高坂 穂乃果 Kousaka Honoka 南 ことり Minami Kotori 園田 海未 Sonoda Umi
BeatmapID:865003
BeatmapSetID:397719

[Difficulty]
HPDrainRate:3
CircleSize:3
OverallDifficulty:3
ApproachRate:4
SliderMultiplier:0.9
SliderTickRate:1

[Events]
//Background and Video events
0,0,"bg.jpg",0,0
//Break Periods
//Storyboard Layer 0 (Background)
//Storyboard Layer 1 (Fail)
//Storyboard Layer 2 (Pass)
//Storyboard Layer 3 (Foreground)
//Storyboard Sound Samples

[TimingPoints]
1017,342.857142857143,4,2,1,70,1,0
12674,-100,4,2,0,70,0,0
13017,-100,4,2,1,70,0,0
15417,-100,4,2,0,70,0,0
15759,-100,4,2,1,70,0,0
18159,-100,4,2,0,70,0,0
18502,-100,4,2,1,70,0,0
24331,-100,4,2,0,70,0,0
24674,-100,4,2,1,70,0,0
25702,-100,4,2,0,70,0,0
26045,-100,4,2,1,70,0,0
33931,-100,4,2,1,60,0,0
34274,-100,4,2,0,60,0,0
34445,-100,4,2,0,60,0,0
34617,-100,4,2,0,60,0,0
34959,-100,4,2,1,60,0,0
35645,-100,4,2,0,60,0,0
35817,-100,4,2,1,60,0,0
35988,-100,4,2,0,60,0,0
36331,-100,4,2,1,60,0,0
37017,-100,4,2,0,60,0,0
37702,-100,4,2,1,60,0,0
38388,-100,4,2,0,60,0,0
39074,-100,4,2,1,60,0,0
39759,-100,4,2,0,60,0,0
39931,-100,4,2,1,60,0,0
40102,-100,4,2,0,60,0,0
40445,-100,4,2,1,60,0,0
41131,-100,4,2,0,60,0,0
41302,-100,4,2,1,60,0,0
41474,-100,4,2,0,60,0,0
41817,-100,4,2,1,70,0,0
47645,-100,4,2,1,74,0,1
47731,-100,4,2,1,74,0,0
50388,-100,4,2,1,74,0,1
54674,-100,4,2,1,64,0,1
55017,-100,4,2,0,74,0,1
55188,-100,4,2,1,74,0,1
59302,-100,4,2,0,74,0,1
59645,-100,4,2,1,74,0,1
64102,-100,4,2,1,74,0,0
66845,-100,4,2,1,74,0,1
71131,-100,4,2,1,64,0,1
71474,-100,4,2,0,74,0,1
71645,-100,4,2,1,74,0,1
86045,-100,4,2,1,74,0,0
88788,-100,4,2,1,10,0,0

[Colours]
Combo1 : 27,64,192
Combo2 : 255,128,0
Combo3 : 139,145,146

[HitObjects]
256,152,331,6,0,L|256:56,2,90,2|2|4,0:1|0:1|0:0,0:0:0:0:
256,242,1359,1,4,0:0:0:0:
256,332,1702,1,4,0:0:0:0:
168,328,2045,6,0,L|112:328,1,45,4|4,0:0|0:0,0:0:0:0:
80,248,2559,2,0,L|125:248,1,45,4|4,0:0|0:0,0:0:0:0:
108,160,3074,1,4,0:0:0:0:
256,60,3759,6,0,P|344:40|444:60,1,180,4|2,0:0|0:0,0:0:0:0:
436,144,4788,1,8,0:0:0:0:
440,232,5131,2,0,P|408:260|356:272,1,90,2|8,0:0|0:0,0:0:0:0:
272,276,5817,2,0,L|256:180,1,90,2|8,0:0|0:0,0:0:0:0:
244,96,6502,6,0,P|168:72|72:112,1,180,2|2,0:0|0:0,0:0:0:0:
80,196,7531,1,8,0:0:0:0:
85,286,7874,2,0,P|177:290|241:226,1,180,2|2,0:0|0:0,0:0:0:0:
260,146,8902,1,8,0:0:0:0:
336,100,9245,6,0,L|440:96,1,90,2|8,0:0|0:0,0:0:0:0:
452,184,9931,2,0,L|362:187,1,90,2|8,0:0|0:0,0:0:0:0:
340,276,10617,1,2,0:1:0:0:
264,328,10959,1,2,0:1:0:0:
184,288,11302,2,0,L|168:192,1,90,2|8,0:1|0:0,0:0:0:0:
84,172,11988,1,4,0:0:0:0:
52,88,12331,6,0,P|132:48|224:60,1,180,8|8,0:0|0:0,0:0:0:0:
216,148,13359,2,0,P|312:172|384:116,1,180,2|2,0:0|0:0,0:0:0:0:
436,64,14388,1,8,0:0:0:0:
484,236,15074,6,0,P|404:232|316:300,1,180,8|8,0:0|0:0,0:0:0:0:
256,344,16102,2,0,P|180:344|112:256,1,180,2|2,0:0|0:0,0:0:0:0:
148,188,17131,1,8,0:0:0:0:
252,44,17817,6,0,L|444:48,1,180,8|8,0:0|0:0,0:0:0:0:
448,136,18845,2,0,L|468:328,1,180,2|2,0:0|0:0,0:0:0:0:
380,332,19874,1,8,0:0:0:0:
292,324,20217,6,0,P|268:216|328:176,2,180,2|2|4,0:0|0:0|0:0,0:0:0:0:
152,208,22274,2,0,L|56:200,1,90,2|8,0:0|0:0,0:0:0:0:
36,116,22959,6,0,P|92:56|192:56,1,180,2|2,0:0|0:0,0:0:0:0:
248,120,23988,2,0,B|280:224|220:200|260:300,1,180,8|8,0:0|0:0,0:0:0:0:
344,324,25017,1,2,0:0:0:0:
432,300,25359,6,0,P|448:220|424:112,1,180,8|8,0:0|0:0,0:0:0:0:
380,52,26388,2,0,P|340:36|280:40,1,90,2|8,0:0|0:0,0:0:0:0:
304,124,27074,2,0,L|292:224,1,90,2|8,0:0|0:0,0:0:0:0:
212,248,27759,6,0,L|224:348,2,90,2|8|2,0:0|0:0|0:0,0:0:0:0:
128,212,28788,2,0,L|116:112,2,90,8|2|8,0:0|0:0|0:0,0:0:0:0:
100,304,29817,2,0,P|160:320|192:304,1,90,2|8,0:0|0:0,0:0:0:0:
244,244,30502,2,0,L|256:152,1,90,2|8,0:0|0:0,0:0:0:0:
256,192,31188,12,4,32559,0:0:0:0:
320,128,33931,6,0,B|248:108|268:148|187:128,2,135,2|2|8,0:0|0:0|0:0,0:0:0:0:
408,108,35302,2,0,P|369:42|306:40,2,135,2|2|8,0:0|0:0|0:0,0:0:0:0:
456,184,36674,6,2,P|376:272|256:208,1,270,2|8,0:0|0:0,0:1:0:0:
260,122,38045,2,2,P|184:29|61:87,1,270,0|8,0:0|0:0,0:1:0:0:
48,172,39417,6,0,L|24:308,2,135,2|2|8,0:0|0:0|0:0,0:0:0:0:
140,172,40788,2,0,L|120:32,2,135,2|2|8,0:0|0:0|0:0,0:0:0:0:
220,208,42159,5,4,0:0:0:0:
160,272,42502,1,8,0:0:0:0:
72,296,42845,2,0,P|24:224|52:136,1,180,2|2,0:0|0:0,0:0:0:0:
140,140,43874,1,8,0:0:0:0:
198,71,44217,2,0,P|246:67|302:71,1,90,2|8,0:0|0:0,0:0:0:0:
372,100,44902,6,0,L|432:100,2,45,2|8|8,0:0|0:0|0:0,0:0:0:0:
328,180,45588,2,0,L|280:180,2,45,2|8|8,0:0|0:0|0:0,0:0:0:0:
384,252,46274,2,0,L|444:252,2,45,2|8|8,0:0|0:0|0:0,0:0:0:0:
308,300,46959,6,0,L|208:292,1,90,8|8,0:0|0:0,0:0:0:0:
132,272,47645,2,0,L|32:276,2,90,2|2|2,1:0|1:0|1:0,0:0:0:0:
202,215,48674,2,0,L|266:211,1,45,2|2,1:0|1:0,0:0:0:0:
232,128,49188,1,2,1:0:0:0:
232,128,49359,2,0,P|188:100|140:96,1,90,2|2,1:0|1:0,0:0:0:0:
72,132,50045,1,8,1:0:0:0:
64,220,50388,6,2,P|96:296|200:312,1,180,6|0,1:0|0:0,0:1:0:0:
260,272,51417,1,8,0:0:0:0:
344,244,51759,1,4,0:0:0:0:
436,88,52445,6,0,P|380:72|336:80,1,90,2|2,1:0|1:0,0:0:0:0:
272,124,53131,2,0,L|284:216,2,90,2|2|2,1:0|1:0|1:0,0:0:0:0:
196,76,54159,1,2,1:0:0:0:
196,76,54331,2,0,P|116:64|40:180,1,225,2|2,1:0|1:0,3:0:0:0:
68,256,55531,1,8,1:0:0:0:
136,316,55874,6,0,P|220:288|236:204,2,180,6|2|2,0:0|0:0|0:0,0:0:0:0:
152,228,57588,1,8,0:0:0:0:
168,140,57931,2,0,P|208:116|264:116,1,90,2|8,0:0|0:0,0:0:0:0:
340,124,58617,5,4,0:0:0:0:
424,92,58959,2,0,L|424:280,1,180,8|8,0:0|0:0,0:0:0:0:
376,348,59988,2,0,P|332:360|284:352,1,90,6|8,0:0|0:0,0:0:0:0:
220,296,60674,2,0,L|220:112,1,180,2|4,0:0|0:0,0:0:0:0:
136,84,61702,1,8,0:0:0:0:
60,132,62045,2,0,L|60:232,2,90,2|8|4,0:0|0:0|0:0,0:0:0:0:
204,44,63417,5,2,1:0:0:0:
204,132,63759,1,2,1:0:0:0:
204,224,64102,1,2,1:0:0:0:
204,316,64445,6,0,P|256:320|300:296,1,90,2|2,1:0|1:0,0:0:0:0:
348,236,65131,2,0,L|394:220,1,45,2|2,1:0|1:0,0:0:0:0:
344,148,65645,1,2,1:0:0:0:
344,148,65817,2,0,L|332:56,1,90,2|2,1:0|1:0,0:0:0:0:
248,28,66502,1,8,1:0:0:0:
158,34,66845,6,2,B|112:40|90:90|90:90|94:190,2,180,6|2|6,1:0|0:0|0:0,0:1:0:0:
180,120,68559,1,8,0:0:0:0:
172,209,68902,2,0,L|164:309,1,90,2|2,1:0|1:0,0:0:0:0:
252,280,69588,6,0,L|260:184,2,90,2|2|2,1:0|1:0|1:0,0:0:0:0:
332,332,70617,1,2,1:0:0:0:
332,332,70788,2,0,P|412:272|384:160,1,225,2|2,1:0|1:0,3:0:0:0:
308,120,71988,1,8,0:0:0:0:
220,144,72331,6,0,P|128:128|112:40,2,180,4|0|2,1:0|0:0|0:0,0:0:0:0:
228,56,74045,1,8,0:0:0:0:
312,92,74388,2,0,P|356:80|412:88,2,90,2|8|4,0:0|0:0|0:0,0:0:0:0:
320,180,75417,6,0,L|332:276,1,90,8|2,0:0|0:0,0:0:0:0:
260,324,76102,1,8,0:0:0:0:
168,324,76445,2,0,P|144:224|148:140,1,180,4|2,0:0|0:0,0:0:0:0:
220,92,77474,1,8,0:0:0:0:
304,124,77817,6,0,L|500:116,2,180,4|2|4,0:0|0:0|0:0,0:0:0:0:
260,200,79531,1,8,0:0:0:0:
300,280,79874,2,0,B|244:304|200:264|200:264|124:272,1,180,2|4,0:0|0:0,0:0:0:0:
40,284,80902,5,8,0:0:0:0:
56,196,81245,2,0,L|52:144,2,45,2|8|8,0:0|0:0|0:0,0:0:0:0:
148,196,81931,2,0,P|204:184|240:148,1,90,4|8,0:0|0:0,0:0:0:0:
244,76,82617,2,0,L|236:28,2,45,2|8|8,0:0|0:0|0:0,0:0:0:0:
320,124,83302,6,0,P|368:144|424:136,1,90,4|8,0:0|0:0,0:0:0:0:
484,96,83988,2,0,L|492:48,2,45,2|8|8,0:0|0:0|0:0,0:0:0:0:
472,184,84674,6,0,L|460:284,1,90,4|8,0:0|0:0,0:0:0:0:
384,320,85359,2,0,L|336:328,2,45,2|8|8,0:0|0:0|0:0,0:0:0:0:
256,192,86045,12,0,88788,0:0:0:0:
