osu file format v12

[General]
AudioFilename: TV.mp3
AudioLeadIn: 0
PreviewTime: 82054
Countdown: 0
SampleSet: Soft
StackLeniency: 0.7
Mode: 0
LetterboxInBreaks: 0
WidescreenStoryboard: 1

[Editor]
Bookmarks: 22629,51197,75829,99829,117480,118743
DistanceSpacing: 2
BeatDivisor: 4
GridSize: 4
TimelineZoom: 1

[Metadata]
Title:Susume Tomorrow (TV Size)
TitleUnicode:ススメ→トゥモロウ(TVサイズ)
Artist:Nitta Emi, Mimori Suzuko & Uchida Aya
ArtistUnicode:新田恵海, 三森すずこ & 内田彩
Creator:Kiyura
Version:Insane
Source:Love Live! School Idol Project
Tags:Kousaka Honoka Umi Sonoda Kotori Minami u's muse ending 1
BeatmapID:325173
BeatmapSetID:128411

[Difficulty]
HPDrainRate:7
CircleSize:4
OverallDifficulty:9
ApproachRate:9
SliderMultiplier:1.8
SliderTickRate:2

[Events]
//Background and Video events
Video,1116,"SSME.avi"
0,0,"BG1.png",0,0
//Break Periods
//Storyboard Layer 0 (Background)
//Storyboard Layer 1 (Fail)
//Storyboard Layer 2 (Pass)
//Storyboard Layer 3 (Foreground)
//Storyboard Sound Samples
//Background Colour Transformations
3,100,163,162,255

[TimingPoints]
2979,600,4,2,1,70,1,0
2979,-133.333333333333,4,2,1,70,0,0
24579,-133.333333333333,4,2,2,70,0,0
26566,315.789473684211,4,2,2,70,1,0
36908,-100,4,2,2,55,0,0
39118,-100,4,2,2,70,0,0
39434,-100,4,2,2,55,0,0
40460,-100,4,2,2,70,0,0
44250,-166.666666666667,4,2,2,70,0,0
45513,-100,4,2,2,70,0,0
47092,-100,4,2,3,70,0,0
76934,-166.666666666667,4,2,3,70,0,0
80881,-100,4,2,3,70,0,0
82144,-86.9565217391304,4,2,3,75,0,1
104881,-100,4,2,3,70,0,0

[Colours]
Combo1 : 255,243,28
Combo2 : 0,102,255
Combo3 : 9,255,27
Combo4 : 255,21,21

[HitObjects]
108,136,5379,6,0,P|188:124|256:140,1,135.000005149842,2|0,0:0|0:0,0:0:0:0:
408,280,6579,1,2,0:0:0:0:
324,360,6879,2,0,P|288:312|284:228,1,135.000005149842,0|0,0:0|0:0,0:0:0:0:
392,108,7779,1,2,0:0:0:0:
232,168,8079,1,0,0:0:0:0:
284,48,8379,2,0,L|196:48,1,67.5000025749208,2|0,0:0|0:0,0:0:0:0:
100,148,8979,2,0,L|172:148,1,67.5000025749208,2|0,0:0|0:0,0:0:0:0:
296,252,9579,1,2,0:0:0:0:
152,352,10179,6,0,P|128:296|136:208,1,135.000005149842,2|2,0:0|0:0,0:0:0:0:
264,84,11379,1,2,0:0:0:0:
168,184,11679,2,0,P|116:208|84:212,1,67.5000025749208,0|2,0:0|0:0,0:0:0:0:
36,148,12279,2,0,P|44:100|100:28,1,135.000005149842,0|0,0:0|0:0,0:0:0:0:
264,60,13179,2,0,L|360:60,1,67.5000025749208,6|0,0:0|0:0,0:0:0:0:
440,172,13779,2,0,L|360:172,1,67.5000025749208,2|0,0:0|0:0,0:0:0:0:
232,208,14379,1,4,0:0:0:0:
304,340,14979,6,0,P|220:340|164:324,1,135.000005149842,2|2,0:0|0:0,0:0:0:0:
88,180,16179,1,2,0:0:0:0:
40,64,16479,2,0,P|96:52|136:64,1,67.5000025749208,0|2,0:0|0:0,0:0:0:0:
224,112,17079,1,0,0:0:0:0:
172,252,17379,1,2,0:0:0:0:
296,224,17679,1,0,0:0:0:0:
384,336,17979,2,0,L|460:336,1,67.5000025749208,2|0,0:0|0:0,0:0:0:0:
504,216,18579,2,0,L|436:216,1,67.5000025749208,2|0,0:0|0:0,0:0:0:0:
300,136,19179,1,2,0:0:0:0:
64,152,19779,6,0,P|60:124|68:80,1,67.5000025749208,2|0,0:0|0:0,0:0:0:0:
216,200,20379,1,0,0:0:0:0:
88,316,20679,1,2,0:0:0:0:
464,340,21279,2,0,P|400:344|380:340,1,67.5000025749208,0|2,0:0|0:0,0:0:0:0:
272,196,21879,1,0,0:0:0:0:
136,72,22179,2,0,P|120:120|124:148,1,67.5000025749208,0|4,0:0|0:0,0:0:0:0:
256,192,22629,12,0,25929,0:0:0:0:
344,44,26079,5,0,0:0:0:0:
344,44,26154,1,0,0:0:0:0:
344,44,26229,1,2,0:0:0:0:
96,56,26566,5,4,0:0:0:0:
424,292,27829,5,4,2:0:0:0:
424,48,29092,5,4,0:0:0:0:
256,56,29723,1,4,0:0:0:0:
80,84,30355,6,8,L|112:168,1,90,4|0,0:0|0:0,0:0:0:0:
164,264,30671,1,8,0:0:0:0:
164,264,30750,1,0,0:0:0:0:
164,264,30829,1,0,0:0:0:0:
352,220,30987,2,0,P|352:263|320:293,1,90,0|0,0:0|0:0,0:0:0:0:
184,152,31302,2,0,L|264:216,1,90,8|0,0:0|0:0,0:0:0:0:
424,320,31618,5,4,0:0:0:0:
76,304,32881,5,4,0:0:0:0:
56,52,34144,5,4,0:0:0:0:
252,52,34776,1,4,0:0:0:0:
376,280,35408,6,0,P|328:312|272:312,1,90,4|0,0:0|0:0,0:0:0:0:
236,160,35723,2,0,P|304:144|340:152,1,90,8|0,0:0|0:0,0:0:0:0:
200,320,36039,2,0,P|168:272|168:212,1,90,0|8,0:0|0:0,0:0:0:0:
168,212,36276,1,8,0:0:0:0:
176,188,36355,1,8,0:0:0:0:
244,72,36513,1,8,0:0:0:0:
300,196,36671,5,4,0:0:0:0:
432,216,36829,1,4,0:0:0:0:
316,284,36987,1,2,0:0:0:0:
448,308,37144,2,0,L|432:212,1,90,0|2,0:0|0:0,0:0:0:0:
416,88,37460,1,2,0:0:0:0:
416,88,37539,1,2,0:0:0:0:
416,88,37618,1,2,0:0:0:0:
336,184,37776,2,0,L|244:196,1,90
328,52,38092,6,0,L|424:40,1,90,2|2,0:0|0:0,0:0:0:0:
176,160,38408,2,0,L|272:144,1,90,0|2,0:0|0:0,0:0:0:0:
336,240,38723,1,2,0:0:0:0:
372,232,38802,1,2,0:0:0:0:
416,224,38881,1,2,0:0:0:0:
244,256,39039,1,0,0:0:0:0:
368,320,39197,6,0,L|276:340,1,90,4|4,0:0|0:0,0:0:0:0:
112,272,39513,2,0,P|164:248|220:256,1,90,2|0,0:0|0:0,0:0:0:0:
376,276,39829,1,2,0:0:0:0:
260,140,39987,1,2,0:0:0:0:
276,160,40066,1,2,0:0:0:0:
304,192,40144,1,2,0:0:0:0:
200,76,40302,1,0,0:0:0:0:
240,336,40460,5,4,0:0:0:0:
20,48,40776,1,4,0:0:0:0:
380,20,41092,2,0,L|276:36,1,90,4|8,0:0|0:0,0:0:0:0:
240,208,41408,2,0,L|352:188,1,90,12|8,0:0|0:0,0:0:0:0:
148,208,41723,5,12,0:0:0:0:
112,324,41881,2,0,P|172:332|216:316,1,90,0|8,0:0|0:0,0:0:0:0:
336,240,42197,2,0,P|280:232|232:240,1,90,0|8,0:0|0:0,0:0:0:0:
420,324,42513,2,0,P|360:328|320:320,2,90,0|8|0,0:0|0:0|0:0,0:0:0:0:
256,284,42987,1,8,0:0:0:0:
112,260,43144,2,0,P|100:192|116:148,1,90,0|8,0:0|0:0,0:0:0:0:
184,24,43460,2,0,P|192:88|176:136,1,90,0|8,0:0|0:0,0:0:0:0:
24,260,43776,2,0,L|124:260,1,90,0|8,0:0|0:0,0:0:0:0:
240,264,44092,1,0,0:0:0:0:
240,228,44171,1,0,0:0:0:0:
240,196,44250,6,8,L|240:24,2,161.999995056153
192,344,45671,5,8,0:0:0:0:
292,192,45829,1,8,0:0:0:0:
144,88,45987,1,8,0:0:0:0:
40,232,46144,1,8,0:0:0:0:
396,168,46460,1,4,0:0:0:0:
72,48,47092,6,0,P|56:100|72:152,1,90,0|8,0:0|0:0,0:0:0:0:
120,240,47408,1,0,0:0:0:0:
220,192,47566,1,0,0:0:0:0:
276,284,47723,2,0,P|200:288|168:276,1,90,8|0,0:0|0:0,0:0:0:0:
60,132,48039,2,0,P|112:120|160:132,1,90
324,120,48355,2,0,P|328:180|312:224,1,90,0|8,0:0|0:0,0:0:0:0:
196,344,48671,2,0,P|180:292|188:232,1,90
288,108,48987,2,0,B|248:60|248:60|192:60|192:60|144:108,1,180,10|2,0:0|0:0,0:0:0:0:
72,336,49618,6,0,B|124:336|124:336|153:312,1,90,0|8,0:0|0:0,0:0:0:0:
200,204,49934,1,0,0:0:0:0:
337,335,50092,2,0,B|285:335|285:335|256:312,1,90,0|8,0:0|0:0,0:0:0:0:
32,103,50566,2,0,P|76:102|119:115,1,90
200,248,50881,2,0,L|200:158,1,90,0|8,0:0|0:0,0:0:0:0:
376,268,51197,2,0,P|332:270|289:257,1,90
204,88,51513,1,10,0:0:0:0:
32,268,51829,5,4,0:0:0:0:
188,219,51987,2,0,P|179:263|147:295,1,90,0|0,0:0|0:0,0:0:0:0:
36,163,52302,2,0,P|79:174|110:205,1,90,8|0,0:0|0:0,0:0:0:0:
256,360,52618,2,0,L|256:270,1,90,0|8,0:0|0:0,0:0:0:0:
380,296,52934,2,0,P|347:265|339:221,1,90,0|0,0:0|0:0,0:0:0:0:
460,260,53250,1,0,0:0:0:0:
488,136,53408,2,0,P|432:160|404:208,1,90,0|8,0:0|0:0,0:0:0:0:
256,372,54039,2,0,L|256:176,1,180,10|2,0:0|0:0,0:0:0:0:
120,288,54671,6,0,P|80:248|36:236,2,90,0|8|0,0:0|0:0|0:0,0:0:0:0:
268,284,55144,2,0,P|308:244|352:232,2,90,0|8|0,0:0|0:0|0:0,0:0:0:0:
196,148,55618,2,0,L|196:244,1,90,0|0,0:0|0:0,0:0:0:0:
196,80,55934,1,2,0:0:0:0:
92,316,56250,1,2,0:0:0:0:
332,236,56566,1,10,0:0:0:0:
444,288,56723,1,0,0:0:0:0:
444,288,56802,1,0,0:0:0:0:
444,288,56881,1,4,0:0:0:0:
400,164,57197,6,0,L|288:164,1,90,0|8,0:0|0:0,0:0:0:0:
160,136,57513,2,0,L|236:224,1,90
288,304,57829,1,8,0:0:0:0:
156,296,57987,2,0,L|56:296,2,90
288,304,58460,1,0,0:0:0:0:
288,304,58618,2,0,B|324:264|324:264|400:264|400:264|436:308,1,180,8|0,0:0|0:0,0:0:0:0:
360,340,59092,2,0,L|360:156,1,180,10|2,0:0|0:0,0:0:0:0:
120,76,59723,6,0,L|180:152,1,90,0|8,0:0|0:0,0:0:0:0:
312,76,60039,2,0,L|252:152,1,90,0|0,0:0|0:0,0:0:0:0:
216,296,60355,1,8,0:0:0:0:
64,268,60513,2,0,P|108:220|168:200,1,90
208,76,60829,1,0,0:0:0:0:
284,208,60987,2,0,P|321:231|349:267,1,90,0|8,0:0|0:0,0:0:0:0:
208,328,61302,1,0,0:0:0:0:
208,328,61618,2,0,L|208:120,1,180,10|4,0:0|0:0,0:0:0:0:
492,28,62250,6,0,L|380:28,1,90,0|8,0:0|0:0,0:0:0:0:
432,180,62566,2,0,L|344:96,1,90
256,12,62881,1,8,0:0:0:0:
256,172,63039,2,0,L|256:82,2,90
80,180,63513,2,0,L|168:96,1,90,0|8,0:0|0:0,0:0:0:0:
20,28,63829,2,0,L|124:28,1,90
256,12,64144,1,10,0:0:0:0:
256,140,64302,6,0,L|256:240,2,90,0|4|0,0:0|0:0|0:0,0:0:0:0:
256,12,64776,1,0,0:0:0:0:
392,296,65092,2,0,P|347:302|303:294,1,90,4|0,0:0|0:0,0:0:0:0:
256,136,65408,1,8,0:0:0:0:
256,168,65487,1,0,0:0:0:0:
256,200,65566,1,0,0:0:0:0:
256,48,65723,1,12,0:0:0:0:
24,364,66039,6,0,L|96:296,1,90,8|0,0:0|0:0,0:0:0:0:
232,364,66355,2,0,L|164:300,1,90,8|8,0:0|0:0,0:0:0:0:
136,152,66671,2,0,L|132:248,1,90,8|8,0:0|0:0,0:0:0:0:
284,220,66987,1,2,0:0:0:0:
376,344,67144,1,2,0:0:0:0:
356,320,67223,1,0,0:0:0:0:
336,296,67302,1,10,0:0:0:0:
460,204,67460,2,0,P|392:192|348:208,1,90,2|10,0:0|0:0,0:0:0:0:
248,288,67776,2,0,P|316:300|360:284,1,90,2|10,0:0|0:0,0:0:0:0:
184,264,68092,1,0,0:0:0:0:
48,192,68250,5,14,0:0:0:0:
104,364,68408,1,10,0:0:0:0:
276,312,68566,1,14,0:0:0:0:
492,24,68881,2,8,L|376:24,1,90,0|8,0:0|0:0,0:0:0:0:
76,184,69355,1,12,0:0:0:0:
404,328,69671,2,0,L|512:328,2,90,2|8|2,0:0|0:0|0:0,0:0:0:0:
492,168,70144,2,0,B|436:132|376:200|320:156,1,180,8|8,0:0|0:0,0:0:0:0:
20,356,70776,5,12,0:0:0:0:
144,224,70934,1,8,0:0:0:0:
324,232,71092,1,12,0:0:0:0:
24,32,71408,2,8,L|132:32,1,90,0|8,0:0|0:0,0:0:0:0:
436,192,71881,1,12,0:0:0:0:
104,328,72197,2,0,L|4:328,2,90,2|8|2,0:0|0:0|0:0,0:0:0:0:
16,168,72671,2,8,B|96:124|112:212|216:160,1,180
472,280,73302,6,8,L|404:264,1,45
348,292,73460,2,8,L|296:280,1,45
256,208,73618,1,8,0:0:0:0:
28,360,73934,2,8,L|124:360,1,90,0|12,0:0|0:0,0:0:0:0:
440,200,74408,1,12,0:0:0:0:
120,32,74723,2,0,L|24:32,2,90,2|8|2,0:0|0:0|0:0,0:0:0:0:
40,196,75197,2,8,B|104:244|132:164|224:212,1,180
444,312,75829,6,0,B|376:344|376:344|304:320|264:336,1,180,4|8,0:0|0:0,0:0:0:0:
148,316,76302,1,8,0:0:0:0:
68,220,76460,2,0,L|160:220,1,90,0|0,0:0|0:0,0:0:0:0:
240,124,76776,1,8,0:0:0:0:
360,68,76934,6,0,B|392:140|308:196|368:240,1,161.999995056153,4|8,0:0|0:0,0:0:0:0:
236,332,77723,1,8,0:0:0:0:
276,52,78039,1,8,0:0:0:0:
60,108,78355,6,0,P|108:84|176:88,1,107.999996704102,4|8,0:0|0:0,0:0:0:0:
252,124,78829,1,8,0:0:0:0:
380,200,79144,1,2,0:0:0:0:
272,304,79460,1,4,0:0:0:0:
256,192,79618,12,0,81513,0:0:0:0:
256,56,81829,5,2,0:0:0:0:
376,168,82144,6,0,P|320:160|264:176,1,103.500001974106,14|0,0:0|0:0,0:0:0:0:
128,316,82460,2,0,P|196:332|240:320,1,103.500001974106,10|0,0:0|0:0,0:0:0:0:
276,172,82776,1,10,0:0:0:0:
360,328,82934,1,0,0:0:0:0:
276,172,83092,1,10,0:0:0:0:
128,316,83250,2,0,P|148:252|132:196,1,103.500001974106,0|10,0:0|0:0,0:0:0:0:
88,60,83566,5,0,0:0:0:0:
244,140,83723,1,10,0:0:0:0:
80,196,83881,1,0,0:0:0:0:
248,296,84039,2,0,P|312:304|368:288,2,103.500001974106,10|0|10,0:0|0:0|0:0,0:0:0:0:
332,140,84513,1,0,0:0:0:0:
424,324,84671,6,10,B|440:256|376:216|376:216|444:128,1,207.000003948212,12|10,0:0|0:0,0:0:0:0:
140,76,85302,2,0,P|136:160|112:192,1,103.500001974106,10|0,0:0|0:0,0:0:0:0:
192,360,85618,2,0,L|192:256,1,103.500001974106,10|0,0:0|0:0,0:0:0:0:
272,76,85934,2,0,P|276:160|300:192,1,103.500001974106,10|0,0:0|0:0,0:0:0:0:
332,344,86250,2,0,P|328:260|304:228,1,103.500001974106,10|0,0:0|0:0,0:0:0:0:
392,84,86566,2,0,L|392:187,1,103.500001974106,10|0,0:0|0:0,0:0:0:0:
460,344,86881,2,0,P|464:260|488:228,1,103.500001974106,10|0,0:0|0:0,0:0:0:0:
316,168,87197,6,0,P|412:176|436:164,1,103.500001974106,14|0,0:0|0:0,0:0:0:0:
256,68,87513,2,0,P|206:55|155:64,1,103.500001974106,10|0,0:0|0:0,0:0:0:0:
208,328,87829,2,0,P|272:332|336:316,1,103.500001974106,10|0,0:0|0:0,0:0:0:0:
384,248,88144,1,10,0:0:0:0:
120,320,88302,1,4,0:0:0:0:
124,144,88460,5,2,0:0:0:0:
272,208,88618,2,0,P|200:224|156:212,1,103.500001974106,0|10,0:0|0:0,0:0:0:0:
328,136,88934,1,0,0:0:0:0:
480,36,89092,1,8,0:0:0:0:
480,36,89250,1,8,0:0:0:0:
480,36,89408,1,8,0:0:0:0:
420,304,89723,6,0,P|360:316|304:300,1,103.500001974106,6|0,0:0|0:0,0:0:0:0:
160,172,90039,2,0,P|160:240|204:280,1,103.500001974106,10|8,0:0|0:0,0:0:0:0:
167,94,90355,2,0,P|208:64|272:84,1,103.500001974106,2|0,0:0|0:0,0:0:0:0:
428,172,90671,2,0,P|433:222|407:266,1,103.500001974106,10|0,0:0|0:0,0:0:0:0:
324,76,90987,2,0,P|373:68|414:98,1,103.500001974106,2|0,0:0|0:0,0:0:0:0:
332,312,91302,2,0,B|288:336|288:336|228:304,1,103.500001974106,10|0,0:0|0:0,0:0:0:0:
40,328,91618,2,0,P|100:340|156:324,1,103.500001974106,10|0,0:0|0:0,0:0:0:0:
288,236,91934,2,0,P|240:224|168:236,1,103.500001974106,10|0,0:0|0:0,0:0:0:0:
36,84,92250,6,0,B|100:56|164:136|240:60,1,207.000003948212,14|10,0:0|0:0,0:0:0:0:
420,152,92723,1,0,0:0:0:0:
224,220,92881,2,0,P|276:212|332:224,1,103.500001974106,10|0,0:0|0:0,0:0:0:0:
488,352,93197,2,0,P|396:352|360:336,1,103.500001974106,10|0,0:0|0:0,0:0:0:0:
224,220,93513,1,10,0:0:0:0:
364,68,93671,1,0,0:0:0:0:
424,268,93829,2,0,P|356:280|304:272,2,103.500001974106,10|0|10,0:0|0:0|0:0,0:0:0:0:
236,180,94302,2,0,P|292:172|352:188,1,103.500001974106,0|10,0:0|0:0,0:0:0:0:
44,48,94618,5,0,0:0:0:0:
248,72,94776,1,14,0:0:0:0:
248,72,95092,1,10,0:0:0:0:
76,184,95250,1,0,0:0:0:0:
208,344,95407,1,12,0:0:0:0:
208,344,95723,1,8,0:0:0:0:
384,264,95881,1,8,0:0:0:0:
384,56,96039,1,4,0:0:0:0:
384,264,96355,2,0,L|384:156,1,103.500001974106,10|0,0:0|0:0,0:0:0:0:
496,24,96671,2,0,L|416:104,1,103.500001974106,10|0,0:0|0:0,0:0:0:0:
260,24,96987,2,0,L|344:108,1,103.500001974106,10|0,0:0|0:0,0:0:0:0:
264,236,97302,5,14,0:0:0:0:
120,180,97460,1,0,0:0:0:0:
28,304,97618,2,0,L|124:356,1,103.500001974106,10|0,0:0|0:0,0:0:0:0:
320,296,97934,2,0,P|248:284|216:296,1,103.500001974106,10|0,0:0|0:0,0:0:0:0:
176,112,98250,2,0,L|68:120,1,103.500001974106,10|4,0:0|0:0,0:0:0:0:
280,104,98566,2,0,L|172:112,1,103.500001974106,2|0,0:0|0:0,0:0:0:0:
384,96,98881,2,0,L|276:104,1,103.500001974106,10|0,0:0|0:0,0:0:0:0:
84,36,99197,2,0,L|192:28,1,103.500001974106,8|0,0:0|0:0,0:0:0:0:
84,320,99513,1,4,0:0:0:0:
360,348,99829,6,0,P|444:288|452:260,2,103.500001974106,6|0|10,0:0|0:0|0:0,0:0:0:0:
148,340,100302,2,0,P|132:268|148:224,1,103.500001974106,8|2,0:0|0:0,0:0:0:0:
204,44,100618,2,0,P|220:108|196:172,2,103.500001974106,0|10|0,0:0|0:0|0:0,0:0:0:0:
340,204,101092,2,0,P|236:224|220:220,1,103.500001974106,4|0,0:0|0:0,0:0:0:0:
32,212,101408,2,0,P|92:196|160:212,1,103.500001974106,10|0,0:0|0:0,0:0:0:0:
288,336,101723,2,0,P|236:240|244:216,1,103.500001974106,10|0,0:0|0:0,0:0:0:0:
44,336,102039,2,0,P|83:303|97:254,1,103.500001974106,10|0,0:0|0:0,0:0:0:0:
252,112,102355,6,0,P|320:104|376:124,2,103.500001974106,6|0|2,0:0|0:0|0:0,0:0:0:0:
84,232,102829,1,0,0:0:0:0:
292,232,102987,1,6,0:0:0:0:
492,284,103144,2,0,P|428:304|368:284,2,103.500001974106,0|2|0,0:0|0:0|0:0,0:0:0:0:
296,216,103618,1,2,0:0:0:0:
28,272,103776,1,8,0:0:0:0:
240,332,103934,1,8,0:0:0:0:
164,108,104092,1,8,0:0:0:0:
128,336,104250,1,2,0:0:0:0:
412,60,104566,6,2,L|300:60,1,103.500001974106,2|0,0:0|0:0,0:0:0:0:
128,56,104881,1,4,0:0:0:0:
112,348,106144,5,4,0:0:0:0:
444,348,107408,5,4,0:0:0:0:
444,192,108039,1,4,0:0:0:0:
440,44,108671,6,0,L|336:96,1,90,4|0,0:0|0:0,0:0:0:0:
224,132,108987,1,8,0:0:0:0:
224,132,109066,1,0,0:0:0:0:
224,132,109144,1,0,0:0:0:0:
128,240,109302,2,0,P|188:244|244:220,1,90
312,144,109618,2,0,P|248:132|204:140,1,90,8|0,0:0|0:0,0:0:0:0:
64,316,109934,5,4,0:0:0:0:
68,56,111197,5,4,0:0:0:0:
396,56,112460,5,4,0:0:0:0:
404,192,113092,1,4,0:0:0:0:
260,192,113723,6,0,P|204:184|152:192,1,90,4|0,0:0|0:0,0:0:0:0:
52,324,114039,2,0,P|124:328|164:308,1,90,8|0,0:0|0:0,0:0:0:0:
40,172,114355,1,0,0:0:0:0:
152,32,114513,1,8,0:0:0:0:
132,56,114592,1,0,0:0:0:0:
112,80,114671,1,8,0:0:0:0:
456,192,114987,5,8,0:0:0:0:
400,192,115066,1,0,0:0:0:0:
348,192,115144,1,8,0:0:0:0:
292,192,115223,1,0,0:0:0:0:
236,192,115302,1,8,0:0:0:0:
20,192,115618,5,12,0:0:0:0:
