osu file format v12

[General]
AudioFilename: whiteeternity1.mp3
AudioLeadIn: 0
PreviewTime: 86191
Countdown: 0
SampleSet: Soft
StackLeniency: 0.7
Mode: 0
LetterboxInBreaks: 0
WidescreenStoryboard: 1

[Editor]
DistanceSpacing: 1.2
BeatDivisor: 4
GridSize: 4
TimelineZoom: 1

[Metadata]
Title:White Eternity
TitleUnicode:White Eternity
Artist:Nitta Emi
ArtistUnicode:新田恵海
Creator:Flower
Version:Insane
Source:Astralair no Shiroki Towa
Tags:FAVORITE galgame opening Yamamoto Mineko Nozaki Shinpei Gravity musik
BeatmapID:396554
BeatmapSetID:162622

[Difficulty]
HPDrainRate:6
CircleSize:4
OverallDifficulty:7
ApproachRate:9
SliderMultiplier:1.7
SliderTickRate:1

[Events]
//Background and Video events
0,0,"01_cr_wp_wuxga.jpg",0,0
Video,0,"astralair_op_movie.avi"
//Break Periods
//Storyboard Layer 0 (Background)
//Storyboard Layer 1 (Fail)
//Storyboard Layer 2 (Pass)
//Storyboard Layer 3 (Foreground)
//Storyboard Sound Samples
//Background Colour Transformations
3,100,163,162,255

[TimingPoints]
1922,337.078651685393,4,2,0,20,1,0
5292,-200,4,2,2,45,0,0
16079,-200,4,2,3,20,0,0
16163,-200,4,2,2,45,0,0
27539,-100,4,2,1,60,0,0
38326,-200,4,2,2,40,0,0
59899,-100,4,2,2,50,0,0
65292,-100,4,2,2,55,0,0
70517,-100,4,2,1,50,0,0
70686,-100,4,2,1,55,0,0
73551,-100,4,2,1,45,0,0
73719,-100,4,2,1,40,0,0
73888,-100,4,2,1,35,0,0
74056,-100,4,2,1,30,0,0
74730,-100,4,2,1,55,0,0
75405,-100,4,2,1,40,0,0
76079,-100,4,2,1,52,0,0
81472,-100,4,2,1,57,0,0
83747,-100,4,2,1,48,0,0
86528,-100,4,2,1,55,0,0
86865,-100,4,2,1,60,0,1
94702,-100,4,2,1,45,0,1
94955,-100,4,2,1,60,0,1
96472,-100,4,2,1,45,0,1
96641,-100,4,2,1,55,0,1
96978,-100,4,2,1,50,0,1
97652,-100,4,2,1,60,0,1
102792,-100,4,2,1,45,0,1
103045,-100,4,2,1,60,0,1
108186,-100,4,2,1,45,0,1
108438,-100,4,2,1,60,0,1
110966,-100,4,2,1,45,0,1
111135,-100,4,2,1,60,0,1
113663,-100,4,2,1,45,0,1
114169,-100,4,2,1,60,0,1
115938,-100,4,2,1,45,0,1
116191,-100,4,2,1,60,0,1
116275,-100,4,2,1,45,0,1
116528,-100,4,2,1,60,0,1
119225,-100,4,2,1,55,0,0
119309,-100,4,2,2,30,0,0

[Colours]
Combo1 : 143,85,253
Combo2 : 248,248,248
Combo3 : 238,102,133
Combo4 : 100,174,230

[HitObjects]
256,192,1922,12,0,4618,0:0:0:0:
84,316,5292,6,0,P|72:284|80:228,1,85,0|2,0:0|0:0,0:0:0:0:
188,76,5966,2,0,L|200:256,1,170,4|0,0:0|0:0,0:0:0:0:
248,316,6978,1,0,0:0:0:0:
284,340,7146,2,0,P|340:356|412:336,1,127.5,2|0,0:0|0:0,0:0:0:0:
472,284,7989,2,0,L|468:200,1,85,0|2,0:0|0:0,0:0:0:0:
304,136,8663,6,0,P|352:152|392:140,1,85,4|0,0:0|0:0,0:0:0:0:
424,128,9169,2,0,L|436:28,2,85,2|0|2,0:0|0:0|0:0,0:0:0:0:
32,152,10686,1,0,0:0:0:0:
164,48,11023,1,2,0:0:0:0:
80,84,11360,6,0,P|112:120|64:232,1,170,4|0,0:0|0:0,0:0:0:0:
264,280,12371,1,0,0:0:0:0:
264,280,12539,2,0,L|136:284,1,127.5,2|0,0:0|0:0,0:0:0:0:
40,288,13382,2,0,P|8:240|8:212,1,85,0|2,0:0|0:0,0:0:0:0:
140,112,14056,6,0,P|172:160|172:188,1,85,4|0,0:0|0:0,0:0:0:0:
208,208,14562,2,0,L|336:204,1,127.5,2|0,0:0|0:0,0:0:0:0:
392,268,15405,1,2,0:0:0:0:
464,224,15742,1,0,0:0:0:0:
476,184,15910,1,0,0:0:0:0:
456,144,16079,1,4,0:0:0:0:
288,72,16416,1,0,0:0:0:0:
88,136,16753,6,0,P|136:172|240:152,1,170,4|0,0:0|0:0,0:0:0:0:
288,72,17764,1,0,0:0:0:0:
320,100,17933,2,0,P|344:136|332:228,1,127.5,2|0,0:0|0:0,0:0:0:0:
176,264,18775,2,0,L|272:272,1,85,0|2,0:0|0:0,0:0:0:0:
448,328,19450,6,0,L|356:340,1,85,4|0,0:0|0:0,0:0:0:0:
324,320,19955,2,0,P|308:280|320:240,2,85,2|0|2,0:0|0:0|0:0,0:0:0:0:
384,204,20798,2,0,B|416:120|348:124|380:32,1,170,0|4,0:0|0:0,0:0:0:0:
60,168,22146,5,4,0:0:0:0:
296,92,22652,1,0,0:0:0:0:
128,116,22989,2,0,P|144:148|136:204,1,85,2|0,0:0|0:0,0:0:0:0:
360,348,24337,1,0,0:0:0:0:
400,336,24506,1,2,0:0:0:0:
428,304,24674,1,0,0:0:0:0:
440,264,24843,6,0,B|464:196|412:200|436:132,2,127.5,4|0|2,0:0|0:0|0:0,0:0:0:0:
76,124,26528,1,2,0:0:0:0:
156,100,26865,1,0,0:0:0:0:
96,40,27202,1,2,0:0:0:0:
76,124,27539,6,0,P|116:176|216:152,1,170,4|8,1:2|1:0,0:0:0:0:
244,80,28045,1,0,0:0:0:0:
144,208,28214,2,0,P|136:252|152:300,1,85,2|0,0:0|1:0,0:0:0:0:
320,120,28551,2,0,P|328:76|312:28,1,85,8|0,1:0|0:0,0:0:0:0:
240,184,28888,6,0,P|284:160|396:192,1,170,0|8,1:0|1:0,0:0:0:0:
432,268,29393,1,0,0:0:0:0:
316,248,29562,1,2,0:0:0:0:
452,144,29730,1,0,1:0:0:0:
380,348,29899,1,8,1:0:0:0:
240,184,30068,1,0,0:0:0:0:
240,184,30152,1,0,0:0:0:0:
240,184,30236,6,0,B|160:171|160:171|127:203|74:197,1,170,0|8,1:0|1:0,0:0:0:0:
184,260,30742,1,0,0:0:0:0:
96,112,30910,2,0,L|108:24,1,85,2|0,0:0|0:0,0:0:0:0:
0,168,31247,2,0,L|8:264,1,85,8|0,1:0|0:0,0:0:0:0:
184,260,31584,6,0,P|248:276|328:208,1,170,0|8,1:0|1:0,0:0:0:0:
280,48,32090,1,0,0:0:0:0:
240,184,32259,1,2,0:0:0:0:
384,164,32427,1,0,1:0:0:0:
424,28,32596,1,8,1:0:0:0:
304,132,32764,5,0,0:0:0:0:
304,132,32848,1,0,0:0:0:0:
304,132,32933,2,0,P|300:180|392:248,1,170,4|8,1:0|1:0,0:0:0:0:
384,164,33438,1,0,0:0:0:0:
280,48,33607,2,0,L|192:56,1,85,2|0,0:0|1:0,0:0:0:0:
5,181,33944,2,0,P|53:185|93:165,1,85,8|0,1:0|0:0,0:0:0:0:
96,156,34197,1,0,0:0:0:0:
106,142,34281,6,0,L|120:228,1,85,0|0,1:0|0:0,0:0:0:0:
188,104,34618,2,0,P|156:65|119:52,1,85,8|0,1:0|0:0,0:0:0:0:
200,188,34955,2,0,P|245:167|267:135,1,85,2|0,0:0|1:0,0:0:0:0:
72,184,35292,2,0,L|86:270,1,85,8|0,1:0|0:0,0:0:0:0:
89,288,35545,1,0,0:0:0:0:
93,308,35629,6,0,P|142:341|244:311,1,170,4|0,1:2|1:2,0:0:0:0:
289,241,36135,1,0,0:0:0:0:
280,48,36304,1,2,0:0:0:0:
200,188,36472,1,0,1:0:0:0:
404,152,36641,6,0,L|307:157,1,85,8|2,1:0|0:2,0:0:0:0:
93,308,37146,2,0,P|142:341|244:311,1,170,2|0,1:2|1:0,0:0:0:0:
280,48,37652,1,2,0:0:0:0:
93,308,38326,6,0,B|80:268|96:256|88:224,1,85,4|2,0:0|0:0,0:0:0:0:
132,152,39000,2,0,B|176:152|176:152|212:176|212:176|264:176,1,127.5,0|0,3:0|0:0,0:0:0:0:
312,124,39674,1,2,0:0:0:0:
416,336,40011,1,2,0:0:0:0:
340,312,40180,1,0,0:0:0:0:
472,280,40348,2,0,P|480:232|471:191,1,85,0|2,3:0|0:0,0:0:0:0:
312,124,41023,6,0,B|232:92|228:152|140:116,1,170,4|0,0:0|3:0,0:0:0:0:
44,216,42034,1,2,0:0:0:0:
152,328,42202,1,0,0:0:0:0:
116,256,42371,2,0,P|124:208|108:164,1,85,2|2,0:0|0:0,0:0:0:0:
152,328,43045,2,0,P|212:344|240:332,1,85,0|2,3:0|0:0,0:0:0:0:
292,284,43551,1,0,0:0:0:0:
248,216,43719,6,0,B|236:176|260:164|240:124,1,85,4|2,0:0|0:0,0:0:0:0:
288,64,44225,1,0,0:0:0:0:
176,92,44393,2,0,P|120:108|48:72,1,127.5,0|0,3:0|0:0,0:0:0:0:
8,148,45068,2,0,P|28:200|20:236,1,85,2|2,0:0|0:0,0:0:0:0:
132,348,45742,1,0,3:0:0:0:
212,208,46079,1,2,0:0:0:0:
276,260,46247,1,0,0:0:0:0:
200,288,46416,6,0,P|152:264|136:224,1,85,4|2,0:0|0:0,0:0:0:0:
228,128,47090,2,0,P|276:152|292:192,1,85,0|2,3:0|0:0,0:0:0:0:
212,208,47596,1,0,0:0:0:0:
148,120,47764,2,0,P|132:80|140:36,1,85,2|2,0:0|0:0,0:0:0:0:
228,128,48438,2,0,P|260:104|304:100,1,85,0|2,3:0|0:0,0:0:0:0:
424,144,48944,1,0,0:0:0:0:
424,144,49113,6,0,L|432:192,1,42.5,4|0,0:0|0:0,0:0:0:0:
352,180,49450,2,0,L|360:228,1,42.5,2|0,0:0|0:0,0:0:0:0:
188,308,49787,2,0,L|194:266,1,42.5,0|0,3:0|0:0,0:0:0:0:
260,344,50124,2,0,L|266:302,1,42.5,2|0,0:0|0:0,0:0:0:0:
280,132,50461,2,0,B|248:124|232:144|192:128,1,85,4|2,0:0|0:0,0:0:0:0:
16,216,51135,1,0,3:0:0:0:
136,64,51472,1,2,0:0:0:0:
88,128,51641,1,0,0:0:0:0:
168,144,51809,6,0,P|200:124|220:68,1,85,4|2,0:0|0:0,0:0:0:0:
136,64,52315,1,0,0:0:0:0:
88,128,52483,2,0,L|92:180,1,42.5,0|0,3:0|0:0,0:0:0:0:
8,92,52820,2,0,L|12:144,1,42.5,2|0,0:0|0:0,0:0:0:0:
192,324,53157,2,0,L|188:272,1,42.5,4|0,0:0|0:0,0:0:0:0:
112,288,53495,2,0,L|108:236,1,42.5,2|0,0:0|0:0,0:0:0:0:
244,132,53832,2,0,B|276:124|292:144|332:128,1,85,0|2,3:0|0:0,0:0:0:0:
464,48,54337,1,0,0:0:0:0:
388,16,54506,6,0,P|380:52|396:96,1,85,4|2,0:0|0:0,0:0:0:0:
464,136,55011,1,0,0:0:0:0:
444,212,55180,2,0,P|459:250|452:292,1,85,0|2,3:0|0:0,0:0:0:0:
308,352,55686,1,0,0:0:0:0:
308,352,55854,2,0,P|252:360|212:348,2,85,4|2|0,0:0|0:0|3:0,0:0:0:0:
340,192,56865,1,2,0:0:0:0:
288,132,57034,1,0,0:0:0:0:
208,132,57202,6,0,L|124:132,2,85,4|2|0,0:0|0:0|3:0,0:0:0:0:
380,28,58214,1,2,0:0:0:0:
480,140,58382,1,0,0:0:0:0:
432,208,58551,2,0,L|424:256,1,42.5,4|0,0:0|0:0,0:0:0:0:
348,228,58888,2,0,L|340:276,1,42.5,2|0,0:0|0:0,0:0:0:0:
212,124,59225,2,0,L|220:76,1,42.5,0|0,3:0|0:0,0:0:0:0:
296,104,59562,2,0,L|304:56,1,42.5,2|0,0:0|0:0,0:0:0:0:
260,192,59899,6,0,B|188:232|156:160|80:200,1,170,0|0,3:0|3:0,0:0:0:0:
132,272,60405,1,0,0:0:0:0:
212,124,60573,2,0,P|218:82|204:32,1,85,0|0,3:0|0:0,0:0:0:0:
24,156,60910,2,0,P|17:197|32:248,1,85,0|0,3:0|0:0,0:0:0:0:
132,272,61247,6,0,B|193:305|225:233|297:273,1,170,0|0,3:0|3:0,0:0:0:0:
352,336,61753,1,0,0:0:0:0:
460,248,61921,2,0,P|464:192|448:160,1,85,0|0,3:0|0:0,0:0:0:0:
280,300,62259,2,0,P|276:356|292:388,1,85,0|0,3:0|0:0,0:0:0:0:
404,100,62596,6,0,B|344:100|344:100|300:124|300:124|236:124,1,170,0|0,3:0|3:0,0:0:0:0:
88,124,63101,1,0,0:0:0:0:
168,92,63270,2,0,P|186:52|180:12,1,85,0|0,3:0|0:0,0:0:0:0:
156,176,63607,2,0,L|164:260,1,85,0|0,3:0|0:0,0:0:0:0:
88,124,63944,6,0,L|-4:116,1,85,0|0,3:0|0:0,0:0:0:0:
236,148,64281,2,0,P|280:144|316:120,1,85,4|0,3:2|0:0,0:0:0:0:
80,212,64618,2,0,P|72:256|88:296,1,85,2|0,3:2|0:0,0:0:0:0:
116,24,64955,1,0,1:0:0:0:
116,24,65292,6,0,P|172:52|288:24,1,170,0|0,3:0|3:0,0:0:0:0:
360,28,65798,1,0,0:0:0:0:
416,92,65966,1,0,3:0:0:0:
272,152,66135,1,0,0:0:0:0:
360,28,66304,1,0,3:0:0:0:
440,172,66472,1,0,0:0:0:0:
324,216,66641,6,0,P|280:232|232:220,1,85,0|0,3:0|0:0,0:0:0:0:
416,92,66978,2,0,P|462:90|504:116,1,85,0|0,3:0|0:0,0:0:0:0:
272,152,67315,2,0,L|264:60,1,85,0|0,3:0|0:0,0:0:0:0:
440,172,67652,2,0,L|432:264,1,85,0|0,3:0|0:0,0:0:0:0:
232,312,67989,6,0,P|290:349|392:315,1,170,0|0,3:0|3:0,0:0:0:0:
272,152,68495,1,0,0:0:0:0:
164,264,68663,2,0,P|147:309|159:356,1,85,0|0,3:0|0:0,0:0:0:0:
340,200,69000,2,0,P|356:154|344:107,1,85,0|0,3:0|0:0,0:0:0:0:
276,56,69337,2,0,L|184:52,1,85,0|0,3:0|0:0,0:0:0:0:
164,264,69674,1,0,3:0:0:0:
272,152,69843,1,0,0:0:0:0:
174,171,70011,21,4,3:0:0:0:
254,306,70180,1,0,0:0:0:0:
316,231,70348,1,4,3:0:0:0:
272,152,70517,1,8,3:2:0:0:
164,264,70686,38,0,P|116:243|97:126,1,170,4|8,1:2|0:0,0:0:0:0:
232,24,71191,1,0,3:0:0:0:
174,171,71360,1,2,0:0:0:0:
68,48,71528,1,0,0:0:0:0:
272,152,71697,1,10,0:0:0:0:
164,264,71865,1,0,0:0:0:0:
116,112,72034,1,0,0:0:0:0:
116,112,72371,6,0,P|92:160|96:200,1,85,8|0,0:0|0:0,0:0:0:0:
272,152,72708,2,0,L|360:148,1,85,2|0,0:0|0:0,0:0:0:0:
164,264,73045,2,0,L|176:360,1,85,10|0,0:0|0:0,0:0:0:0:
376,284,73382,5,0,1:0:0:0:
416,292,73551,1,0,1:0:0:0:
456,272,73719,1,8,1:0:0:0:
472,232,73888,1,0,1:0:0:0:
456,192,74056,1,0,1:0:0:0:
424,168,74225,1,0,1:0:0:0:
380,168,74393,1,4,1:2:0:0:
380,168,74730,6,0,L|288:176,1,85,0|0,1:0|0:0,0:0:0:0:
80,264,75068,2,0,P|128:280|172:268,1,85,8|0,0:0|0:0,0:0:0:0:
276,72,75405,1,0,1:0:0:0:
274,80,75489,1,0,1:0:0:0:
272,88,75573,1,0,1:0:0:0:
120,152,75742,1,8,1:0:0:0:
123,161,75826,1,0,1:0:0:0:
126,170,75910,1,0,1:0:0:0:
129,179,75995,1,0,1:0:0:0:
131,188,76079,6,0,P|212:204|248:277,1,170,0|8,1:0|0:0,0:0:0:0:
80,264,76584,1,0,0:0:0:0:
184,112,76753,1,0,3:0:0:0:
248,277,76921,1,0,0:0:0:0:
132,188,77090,1,8,0:0:0:0:
272,88,77259,1,0,0:0:0:0:
248,276,77427,6,0,P|301:289|344:276,1,85,0|0,3:0|0:0,0:0:0:0:
132,188,77764,2,0,P|78:174|36:188,1,85,8|0,0:0|0:0,0:0:0:0:
184,112,78101,1,0,3:0:0:0:
168,280,78270,1,0,0:0:0:0:
260,192,78438,1,8,0:0:0:0:
212,32,78607,1,0,0:0:0:0:
132,188,78775,6,0,L|28:184,1,85,0|0,3:0|0:0,0:0:0:0:
260,192,79113,2,0,P|310:167|323:138,1,85,8|0,0:0|0:0,0:0:0:0:
184,112,79450,1,0,0:0:0:0:
248,288,79618,1,0,3:0:0:0:
184,112,79787,2,0,P|148:88|104:88,1,85,8|0,0:0|0:0,0:0:0:0:
192,236,80124,5,0,3:0:0:0:
328,140,80292,1,0,0:0:0:0:
212,32,80461,1,8,0:0:0:0:
260,192,80629,1,0,0:0:0:0:
380,76,80798,1,0,3:0:0:0:
184,112,80966,1,0,0:0:0:0:
324,248,81135,1,8,0:0:0:0:
288,72,81304,1,0,0:0:0:0:
220,288,81472,6,0,P|176:300|136:288,1,85,8|0,0:0|0:0,0:0:0:0:
384,168,81809,2,0,P|428:156|468:168,1,85,8|0,0:0|0:0,0:0:0:0:
184,112,82146,2,0,L|180:20,1,85,8|0,0:0|0:0,0:0:0:0:
324,248,82483,2,0,L|320:344,1,85,8|0,0:0|0:0,0:0:0:0:
40,216,82820,6,0,P|30:174|44:128,1,85,8|0,0:0|0:0,0:0:0:0:
472,168,83157,2,0,P|481:209|468:256,1,85,8|0,0:0|0:0,0:0:0:0:
116,176,83495,1,8,0:0:0:0:
273,351,83663,1,0,1:0:0:0:
312,359,83747,1,8,1:0:0:0:
352,354,83832,1,8,1:0:0:0:
388,336,83916,1,8,1:0:0:0:
415,306,84000,1,8,1:0:0:0:
431,270,84084,1,8,1:0:0:0:
434,230,84169,1,4,1:2:0:0:
256,192,84337,12,0,86191,3:0:0:0:
256,192,86528,5,8,0:0:0:0:
336,340,86865,6,0,P|392:352|480:284,1,170,4|8,1:2|1:0,0:0:0:0:
392,40,87371,1,0,0:0:0:0:
380,176,87539,2,0,L|388:272,1,85,2|0,0:0|1:0,0:0:0:0:
256,192,87877,1,8,1:0:0:0:
392,40,88045,1,2,0:0:0:0:
184,148,88214,6,0,P|172:188|188:240,1,85,0|0,1:0|0:0,0:0:0:0:
380,176,88551,2,0,L|480:168,1,85,8|0,1:0|0:0,0:0:0:0:
248,84,88888,2,0,P|196:60|164:64,1,85,2|0,0:0|1:0,0:0:0:0:
316,264,89225,2,0,L|324:360,1,85,8|8,1:0|0:0,0:0:0:0:
184,148,89562,5,4,1:2:0:0:
328,48,89730,1,0,0:0:0:0:
316,264,89899,1,8,1:0:0:0:
248,84,90068,1,0,0:0:0:0:
380,176,90236,1,2,0:0:0:0:
232,248,90405,1,0,1:0:0:0:
128,92,90573,1,8,1:0:0:0:
276,164,90742,1,4,0:0:0:0:
276,164,91079,5,0,1:0:0:0:
232,248,91247,2,0,P|180:260|148:248,1,85,8|0,1:0|0:0,0:0:0:0:
380,176,91584,2,0,P|432:164|464:176,1,85,10|0,0:0|1:0,0:0:0:0:
320,352,91921,2,0,L|308:256,1,85,8|0,1:0|0:0,0:0:0:0:
196,32,92259,6,0,P|156:80|204:184,1,170,4|8,1:2|1:0,0:0:0:0:
236,105,92764,1,0,0:0:0:0:
95,25,92933,1,2,0:0:0:0:
96,186,93101,1,0,1:0:0:0:
224,320,93270,2,0,L|236:227,1,85,8|0,1:0|0:0,0:0:0:0:
122,108,93607,6,0,P|77:106|37:132,1,85,4|0,1:2|1:0,0:0:0:0:
304,172,93944,2,0,P|349:174|389:148,1,85,8|0,1:0|0:0,0:0:0:0:
236,105,94281,1,2,0:0:0:0:
224,320,94450,1,0,1:0:0:0:
416,224,94618,1,8,1:0:0:0:
412,192,94702,1,0,1:0:0:0:
408,156,94787,1,0,1:0:0:0:
404,124,94871,1,0,1:0:0:0:
400,92,94955,6,0,P|344:53|240:64,1,170,4|8,1:2|1:0,0:0:0:0:
304,172,95461,2,0,L|300:260,1,85,2|0,0:0|0:0,0:0:0:0:
152,112,95798,2,0,P|136:62|145:27,1,85,2|8,1:2|1:0,0:0:0:0:
400,92,96135,6,0,L|394:272,1,170,4|0,0:0|1:0,0:0:0:0:
386,281,96556,1,0,1:0:0:0:
377,300,96641,2,0,P|331:317|291:302,1,85,8|0,1:0|1:0,0:0:0:0:
18,208,96978,1,0,1:0:0:0:
47,183,97062,1,0,1:0:0:0:
83,172,97146,1,0,1:0:0:0:
120,176,97230,1,0,1:0:0:0:
153,194,97315,1,0,1:0:0:0:
177,223,97399,1,0,1:0:0:0:
212,236,97483,1,0,1:0:0:0:
250,230,97568,1,0,1:0:0:0:
280,207,97652,6,0,P|291:163|281:111,1,85,4|0,1:2|0:0,0:0:0:0:
161,18,97989,2,0,P|150:62|160:114,1,85,8|0,1:0|0:0,0:0:0:0:
348,252,98326,2,0,L|440:248,1,85,2|0,0:0|1:0,0:0:0:0:
324,92,98663,1,8,1:0:0:0:
284,336,98832,1,2,0:0:0:0:
248,140,99000,6,0,P|232:92|240:60,1,85,0|0,1:0|0:0,0:0:0:0:
180,208,99337,2,0,L|92:200,1,85,8|0,1:0|0:0,0:0:0:0:
284,336,99674,2,0,P|300:292|284:240,1,85,2|0,0:0|1:0,0:0:0:0:
356,180,100011,2,0,L|448:168,1,85,8|0,1:0|0:0,0:0:0:0:
248,140,100348,5,4,1:2:0:0:
384,272,100517,1,0,0:0:0:0:
424,92,100686,1,8,1:0:0:0:
248,140,100854,1,0,0:0:0:0:
440,208,101023,1,2,0:0:0:0:
396,16,101191,1,0,1:0:0:0:
272,224,101360,1,8,1:0:0:0:
512,240,101528,1,4,0:0:0:0:
512,240,101865,5,0,1:0:0:0:
420,344,102034,2,0,P|372:352|336:336,1,85,8|0,1:0|0:0,0:0:0:0:
272,224,102371,2,0,L|264:128,1,85,10|0,0:0|1:0,0:0:0:0:
60,292,102708,1,8,1:0:0:0:
72,328,102792,1,0,1:0:0:0:
100,352,102877,1,0,1:0:0:0:
140,356,102961,1,0,1:0:0:0:
176,344,103045,6,0,P|196:300|192:252,1,85,4|0,1:2|0:0,0:0:0:0:
84,68,103382,2,0,L|91:152,1,85,8|0,1:0|0:0,0:0:0:0:
272,224,103719,1,2,0:0:0:0:
456,160,103888,1,0,1:0:0:0:
352,292,104056,1,8,1:0:0:0:
168,228,104225,1,4,0:0:0:0:
168,228,104562,5,0,1:0:0:0:
232,148,104730,2,0,L|240:60,1,85,8|0,1:0|0:0,0:0:0:0:
352,292,105068,1,10,0:0:0:0:
96,276,105236,1,0,1:0:0:0:
239,63,105405,1,8,1:0:0:0:
352,292,105573,1,0,0:0:0:0:
168,228,105742,6,0,P|136:188|132:144,1,85,6|0,1:2|0:0,0:0:0:0:
312,116,106079,1,8,1:0:0:0:
352,292,106247,2,0,P|312:308|260:296,1,85,2|0,0:0|0:0,0:0:0:0:
239,63,106584,1,0,1:0:0:0:
332,208,106753,1,8,1:0:0:0:
192,316,106921,1,0,0:0:0:0:
232,148,107090,1,4,1:2:0:0:
232,148,107427,5,8,1:0:0:0:
124,272,107596,1,0,0:0:0:0:
0,168,107764,1,2,0:0:0:0:
108,44,107933,1,0,1:0:0:0:
200,228,108101,1,8,1:0:0:0:
242,232,108186,1,0,1:0:0:0:
281,217,108270,1,0,1:0:0:0:
308,184,108354,1,0,1:0:0:0:
318,142,108438,6,0,L|311:43,1,85,4|0,1:2|0:0,0:0:0:0:
386,223,108775,2,0,P|432:231|471:217,1,85,8|0,1:0|0:0,0:0:0:0:
299,377,109113,2,0,L|307:282,1,85,2|0,0:0|1:0,0:0:0:0:
140,157,109450,2,0,P|179:142|221:148,1,85,8|0,1:0|0:0,0:0:0:0:
195,287,109787,5,0,1:0:0:0:
67,119,109955,1,0,0:0:0:0:
278,88,110124,1,8,1:0:0:0:
195,287,110292,1,0,0:0:0:0:
301,168,110461,2,0,P|356:174|399:163,1,85,2|0,0:0|1:0,0:0:0:0:
201,56,110798,2,0,L|109:50,1,85,8|0,1:0|1:0,0:0:0:0:
104,68,111051,1,0,1:0:0:0:
92,85,111135,6,0,P|79:124|91:167,1,85,2|0,0:0|0:0,0:0:0:0:
263,331,111472,2,0,P|276:292|264:249,1,85,8|0,1:0|0:0,0:0:0:0:
160,127,111809,1,2,0:0:0:0:
351,248,111978,1,0,1:0:0:0:
278,88,112146,1,8,1:0:0:0:
173,234,112315,1,0,0:0:0:0:
356,138,112483,6,0,L|446:134,1,85,0|0,1:0|0:0,0:0:0:0:
173,234,112820,2,0,P|122:239|88:225,1,85,8|0,1:0|0:0,0:0:0:0:
278,88,113157,2,0,L|284:-4,1,85,2|0,0:0|1:0,0:0:0:0:
258,250,113495,2,0,P|272:290|263:331,1,85,8|0,1:0|0:0,0:0:0:0:
243,337,113747,1,0,1:0:0:0:
222,343,113832,6,0,B|146:361|128:289|50:319,1,170,4|8,1:2|1:0,0:0:0:0:
130,126,114337,2,0,P|146:178|131:222,1,85,0|2,0:0|0:0,0:0:0:0:
60,72,114674,1,0,1:0:0:0:
30,303,114843,2,0,P|14:251|29:207,1,85,8|0,1:0|0:0,0:0:0:0:
130,126,115180,6,0,L|238:117,1,85,2|0,0:0|0:0,0:0:0:0:
387,240,115517,2,0,L|279:231,1,85,8|0,1:0|0:0,0:0:0:0:
274,57,115854,1,10,0:0:0:0:
274,57,115938,1,0,1:0:0:0:
274,57,116023,1,0,1:0:0:0:
227,255,116191,1,8,1:0:0:0:
227,255,116275,1,0,1:0:0:0:
227,255,116360,1,0,1:0:0:0:
425,155,116528,6,0,P|471:197|459:308,1,170,4|8,1:2|1:0,0:0:0:0:
310,161,117034,1,0,0:0:0:0:
505,96,117202,1,2,0:0:0:0:
466,298,117371,1,0,1:0:0:0:
391,168,117539,1,8,2:0:0:0:
430,371,117708,1,2,1:2:0:0:
413,374,118045,5,2,1:2:0:0:
396,377,118382,5,2,1:2:0:0:
256,192,119225,5,4,1:2:0:0:
256,192,119309,12,4,124618,0:0:0:0:
