osu file format v14

[General]
AudioFilename: Nitta Emi - Tankyuu Dreaming.mp3
AudioLeadIn: 0
PreviewTime: 62316
Countdown: 0
SampleSet: Normal
StackLeniency: 0.7
Mode: 1
LetterboxInBreaks: 0
WidescreenStoryboard: 0

[Editor]
DistanceSpacing: 1.7
BeatDivisor: 4
GridSize: 32
TimelineZoom: 1

[Metadata]
Title:Tankyuu Dreaming
TitleUnicode:探求Dreaming
Artist:Nitta Emi
ArtistUnicode:新田恵海
Creator:Nardoxyribonucleic
Version:Oni
Source:探偵歌劇 ミルキィホームズ TD
Tags:Taiko Tantei Opera Milky Holmes TD Ending TV Size JUDYDANNY
BeatmapID:616157
BeatmapSetID:270949

[Difficulty]
HPDrainRate:5
CircleSize:5
OverallDifficulty:5
ApproachRate:7
SliderMultiplier:1.4
SliderTickRate:1

[Events]
//Background and Video events
0,0,"marine.JPG",0,25
//Break Periods
//Storyboard Layer 0 (Background)
//Storyboard Layer 1 (Fail)
//Storyboard Layer 2 (Pass)
//Storyboard Layer 3 (Foreground)
//Storyboard Sound Samples

[TimingPoints]
1296,408.163265306122,4,1,0,50,1,0
7826,-100,4,1,0,70,0,0
13336,-100,4,1,0,50,0,0
15989,-100,4,1,0,60,0,0
29051,-100,4,1,0,70,0,0
43744,-100,4,1,0,80,0,0
62418,-99.009900990099,4,1,0,80,0,0
62520,-98.0392156862745,4,1,0,80,0,0
62724,-96.1538461538461,4,1,0,80,0,0
62928,-94.3396226415094,4,1,0,80,0,0
63132,-92.5925925925926,4,1,0,80,0,0
63336,-90.9090909090909,4,1,0,90,0,1
88234,-90.9090909090909,4,1,0,90,0,0
88438,-90.9090909090909,4,1,0,50,0,0
88642,-90.9090909090909,4,1,0,41,0,0
88847,-90.9090909090909,4,1,0,32,0,0
89051,-90.9090909090909,4,1,0,23,0,0
89255,-90.9090909090909,4,1,0,14,0,0
89459,-90.9090909090909,4,1,0,5,0,0

[HitObjects]
256,192,275,5,0,0:0:0:0:
256,192,479,1,8,0:0:0:0:
256,192,683,1,8,0:0:0:0:
256,192,887,1,8,0:0:0:0:
256,192,1091,1,0,0:0:0:0:
256,192,1296,1,8,0:0:0:0:
256,192,1704,1,8,0:0:0:0:
256,192,1908,1,0,0:0:0:0:
256,192,2010,1,0,0:0:0:0:
256,192,2316,1,8,0:0:0:0:
256,192,2724,1,8,0:0:0:0:
256,192,2928,1,0,0:0:0:0:
256,192,3132,1,8,0:0:0:0:
256,192,3336,1,8,0:0:0:0:
256,192,3540,1,0,0:0:0:0:
256,192,3642,1,0,0:0:0:0:
256,192,4357,1,0,0:0:0:0:
256,192,4561,1,8,0:0:0:0:
256,192,4969,1,0,0:0:0:0:
256,192,5173,1,0,0:0:0:0:
256,192,5275,1,8,0:0:0:0:
256,192,5581,1,0,0:0:0:0:
256,192,5785,1,0,0:0:0:0:
256,192,5989,1,8,0:0:0:0:
256,192,6193,1,0,0:0:0:0:
256,192,6398,1,8,0:0:0:0:
256,192,6602,1,8,0:0:0:0:
256,192,6806,1,0,0:0:0:0:
256,192,6908,1,0,0:0:0:0:
256,192,7418,1,8,0:0:0:0:
256,192,7826,1,4,0:0:0:0:
256,192,8030,1,0,0:0:0:0:
256,192,8234,1,8,0:0:0:0:
256,192,8438,1,0,0:0:0:0:
256,192,8540,1,0,0:0:0:0:
256,192,8847,1,8,0:0:0:0:
256,192,9255,1,0,0:0:0:0:
256,192,9357,1,0,0:0:0:0:
256,192,9459,1,8,0:0:0:0:
256,192,9663,1,0,0:0:0:0:
256,192,9867,1,8,0:0:0:0:
256,192,10071,1,0,0:0:0:0:
256,192,10173,1,0,0:0:0:0:
256,192,10479,1,8,0:0:0:0:
256,192,11091,1,4,0:0:0:0:
256,192,11398,1,0,0:0:0:0:
256,192,11500,1,8,0:0:0:0:
256,192,11704,1,4,0:0:0:0:
256,192,12112,1,4,0:0:0:0:
256,192,12520,1,12,0:0:0:0:
256,192,12928,1,12,0:0:0:0:
256,192,13132,1,4,0:0:0:0:
256,192,13336,12,0,15581,0:0:0:0:
256,192,15989,5,0,0:0:0:0:
256,192,16193,1,0,0:0:0:0:
256,192,16398,1,8,0:0:0:0:
256,192,16806,1,8,0:0:0:0:
256,192,17010,1,0,0:0:0:0:
256,192,17214,1,8,0:0:0:0:
256,192,17418,1,0,0:0:0:0:
256,192,17622,1,0,0:0:0:0:
256,192,17826,1,8,0:0:0:0:
256,192,18030,1,8,0:0:0:0:
256,192,18234,1,0,0:0:0:0:
256,192,18336,1,0,0:0:0:0:
256,192,19051,1,0,0:0:0:0:
256,192,19255,1,8,0:0:0:0:
256,192,19663,1,0,0:0:0:0:
256,192,19867,1,8,0:0:0:0:
256,192,20275,1,8,0:0:0:0:
256,192,20479,1,8,0:0:0:0:
256,192,20683,1,0,0:0:0:0:
256,192,20887,1,8,0:0:0:0:
256,192,21091,1,0,0:0:0:0:
256,192,21193,1,0,0:0:0:0:
256,192,21500,1,8,0:0:0:0:
256,192,21704,1,8,0:0:0:0:
256,192,22112,1,0,0:0:0:0:
256,192,22316,1,0,0:0:0:0:
256,192,22520,1,8,0:0:0:0:
256,192,22724,1,0,0:0:0:0:
256,192,22826,1,0,0:0:0:0:
256,192,23132,1,8,0:0:0:0:
256,192,23336,1,0,0:0:0:0:
256,192,23949,1,0,0:0:0:0:
256,192,24051,1,0,0:0:0:0:
256,192,24153,1,8,0:0:0:0:
256,192,24357,1,0,0:0:0:0:
256,192,24459,1,8,0:0:0:0:
256,192,24765,1,8,0:0:0:0:
256,192,24969,1,0,0:0:0:0:
256,192,25581,1,0,0:0:0:0:
256,192,25785,1,8,0:0:0:0:
256,192,26398,1,0,0:0:0:0:
256,192,26602,1,0,0:0:0:0:
256,192,27010,1,0,0:0:0:0:
256,192,27214,1,8,0:0:0:0:
256,192,27622,1,0,0:0:0:0:
256,192,27826,1,0,0:0:0:0:
256,192,28234,1,8,0:0:0:0:
256,192,28438,1,0,0:0:0:0:
256,192,28642,1,8,0:0:0:0:
256,192,29051,1,4,0:0:0:0:
256,192,29255,1,0,0:0:0:0:
256,192,29459,1,8,0:0:0:0:
256,192,29663,1,8,0:0:0:0:
256,192,29867,1,0,0:0:0:0:
256,192,30071,1,0,0:0:0:0:
256,192,30275,1,8,0:0:0:0:
256,192,30479,1,0,0:0:0:0:
256,192,30581,1,0,0:0:0:0:
256,192,30683,1,8,0:0:0:0:
256,192,30887,1,8,0:0:0:0:
256,192,31091,1,8,0:0:0:0:
256,192,31295,1,0,0:0:0:0:
256,192,31398,1,8,0:0:0:0:
256,192,31704,1,8,0:0:0:0:
256,192,31908,1,8,0:0:0:0:
256,192,32112,1,0,0:0:0:0:
256,192,32316,1,12,0:0:0:0:
256,192,32520,1,0,0:0:0:0:
256,192,32622,1,0,0:0:0:0:
256,192,32724,1,8,0:0:0:0:
256,192,32928,1,0,0:0:0:0:
256,192,33336,1,0,0:0:0:0:
256,192,33540,1,8,0:0:0:0:
256,192,33744,1,8,0:0:0:0:
256,192,33847,1,8,0:0:0:0:
256,192,33949,1,0,0:0:0:0:
256,192,34255,1,8,0:0:0:0:
256,192,34561,1,8,0:0:0:0:
256,192,34765,1,0,0:0:0:0:
256,192,35173,1,8,0:0:0:0:
256,192,35275,1,8,0:0:0:0:
256,192,35377,1,0,0:0:0:0:
256,192,35479,1,0,0:0:0:0:
256,192,35581,1,0,0:0:0:0:
256,192,35887,1,0,0:0:0:0:
256,192,35989,1,8,0:0:0:0:
256,192,36193,1,0,0:0:0:0:
256,192,36398,1,8,0:0:0:0:
256,192,36500,1,8,0:0:0:0:
256,192,36704,1,0,0:0:0:0:
256,192,36806,1,8,0:0:0:0:
256,192,37010,1,8,0:0:0:0:
256,192,37112,1,8,0:0:0:0:
256,192,37214,1,0,0:0:0:0:
256,192,37520,1,0,0:0:0:0:
256,192,37622,1,8,0:0:0:0:
256,192,37826,1,0,0:0:0:0:
256,192,38030,1,0,0:0:0:0:
256,192,38234,1,8,0:0:0:0:
256,192,38438,1,8,0:0:0:0:
256,192,38642,1,0,0:0:0:0:
256,192,38744,1,0,0:0:0:0:
256,192,38847,1,8,0:0:0:0:
256,192,39051,1,0,0:0:0:0:
256,192,39255,1,8,0:0:0:0:
256,192,39459,1,0,0:0:0:0:
256,192,39561,1,8,0:0:0:0:
256,192,39867,1,0,0:0:0:0:
256,192,40071,1,8,0:0:0:0:
256,192,40275,1,0,0:0:0:0:
256,192,40377,1,8,0:0:0:0:
256,192,40479,1,8,0:0:0:0:
256,192,40683,1,0,0:0:0:0:
256,192,40785,1,0,0:0:0:0:
256,192,40887,1,0,0:0:0:0:
256,192,41091,1,8,0:0:0:0:
256,192,41193,1,8,0:0:0:0:
256,192,41500,1,0,0:0:0:0:
256,192,41704,1,8,0:0:0:0:
256,192,41908,1,0,0:0:0:0:
256,192,42010,1,0,0:0:0:0:
256,192,42112,1,8,0:0:0:0:
256,192,42316,1,0,0:0:0:0:
256,192,42418,1,0,0:0:0:0:
256,192,42520,1,8,0:0:0:0:
256,192,42724,1,0,0:0:0:0:
256,192,42826,1,0,0:0:0:0:
256,192,42928,1,8,0:0:0:0:
256,192,43030,1,8,0:0:0:0:
256,192,43132,1,0,0:0:0:0:
256,192,43234,1,0,0:0:0:0:
256,192,43336,1,8,0:0:0:0:
256,192,43438,1,8,0:0:0:0:
256,192,43540,1,8,0:0:0:0:
256,192,43744,1,4,0:0:0:0:
256,192,43949,1,0,0:0:0:0:
256,192,44051,1,0,0:0:0:0:
256,192,44153,1,8,0:0:0:0:
256,192,44357,1,4,0:0:0:0:
256,192,44765,1,0,0:0:0:0:
256,192,44867,1,0,0:0:0:0:
256,192,44969,1,0,0:0:0:0:
256,192,45173,1,4,0:0:0:0:
256,192,45581,1,0,0:0:0:0:
256,192,45785,1,8,0:0:0:0:
256,192,45989,1,4,0:0:0:0:
256,192,46398,1,0,0:0:0:0:
256,192,46602,1,8,0:0:0:0:
256,192,46704,1,8,0:0:0:0:
256,192,46806,1,0,0:0:0:0:
256,192,47010,1,4,0:0:0:0:
256,192,47214,1,0,0:0:0:0:
256,192,47316,1,0,0:0:0:0:
256,192,47418,1,8,0:0:0:0:
256,192,47622,1,4,0:0:0:0:
256,192,48030,1,0,0:0:0:0:
256,192,48132,1,0,0:0:0:0:
256,192,48234,1,0,0:0:0:0:
256,192,48438,1,12,0:0:0:0:
256,192,48847,1,8,0:0:0:0:
256,192,49051,1,0,0:0:0:0:
256,192,49255,1,8,0:0:0:0:
256,192,49663,1,0,0:0:0:0:
256,192,49867,1,8,0:0:0:0:
256,192,49969,1,8,0:0:0:0:
256,192,50071,1,0,0:0:0:0:
256,192,50173,1,0,0:0:0:0:
256,192,50275,1,8,0:0:0:0:
256,192,50479,1,0,0:0:0:0:
256,192,50581,1,0,0:0:0:0:
256,192,50683,1,8,0:0:0:0:
256,192,50887,1,0,0:0:0:0:
256,192,51091,1,8,0:0:0:0:
256,192,51295,1,0,0:0:0:0:
256,192,51398,1,0,0:0:0:0:
256,192,51908,1,8,0:0:0:0:
256,192,52112,1,0,0:0:0:0:
256,192,52214,1,0,0:0:0:0:
256,192,52316,1,8,0:0:0:0:
256,192,52520,1,8,0:0:0:0:
256,192,52724,1,0,0:0:0:0:
256,192,52928,1,0,0:0:0:0:
256,192,53030,1,8,0:0:0:0:
256,192,53540,1,4,0:0:0:0:
256,192,53949,1,8,0:0:0:0:
256,192,54153,1,8,0:0:0:0:
256,192,54255,1,8,0:0:0:0:
256,192,54357,1,0,0:0:0:0:
256,192,54561,1,0,0:0:0:0:
256,192,54663,1,0,0:0:0:0:
256,192,54765,1,8,0:0:0:0:
256,192,54969,1,4,0:0:0:0:
256,192,55377,1,0,0:0:0:0:
256,192,55581,1,8,0:0:0:0:
256,192,55989,1,0,0:0:0:0:
256,192,56193,1,0,0:0:0:0:
256,192,56398,1,8,0:0:0:0:
256,192,56602,1,0,0:0:0:0:
256,192,56704,1,8,0:0:0:0:
256,192,56806,1,8,0:0:0:0:
256,192,57010,1,0,0:0:0:0:
256,192,57214,1,8,0:0:0:0:
256,192,57418,1,0,0:0:0:0:
256,192,57520,1,0,0:0:0:0:
256,192,57622,1,8,0:0:0:0:
256,192,57826,1,8,0:0:0:0:
256,192,57928,1,8,0:0:0:0:
256,192,58030,1,0,0:0:0:0:
256,192,58234,1,4,0:0:0:0:
256,192,58642,1,8,0:0:0:0:
256,192,58847,1,4,0:0:0:0:
256,192,59255,1,0,0:0:0:0:
256,192,59459,1,0,0:0:0:0:
256,192,59663,1,8,0:0:0:0:
256,192,59765,1,8,0:0:0:0:
256,192,59867,1,0,0:0:0:0:
256,192,60071,1,4,0:0:0:0:
256,192,60275,1,8,0:0:0:0:
256,192,60479,1,8,0:0:0:0:
256,192,60683,1,0,0:0:0:0:
256,192,60887,1,8,0:0:0:0:
256,192,60989,1,0,0:0:0:0:
256,192,61091,1,0,0:0:0:0:
256,192,61193,1,0,0:0:0:0:
256,192,61295,1,8,0:0:0:0:
256,192,61500,1,4,0:0:0:0:
256,192,61908,1,12,0:0:0:0:
256,192,62112,1,12,0:0:0:0:
256,192,62316,1,0,0:0:0:0:
256,192,62418,1,0,0:0:0:0:
256,192,62520,1,8,0:0:0:0:
256,192,62724,1,8,0:0:0:0:
256,192,62928,1,8,0:0:0:0:
256,192,63132,1,0,0:0:0:0:
256,192,63336,1,4,0:0:0:0:
256,192,63540,1,0,0:0:0:0:
256,192,63744,1,8,0:0:0:0:
256,192,63949,1,0,0:0:0:0:
256,192,64051,1,0,0:0:0:0:
256,192,64357,1,8,0:0:0:0:
256,192,64561,1,8,0:0:0:0:
256,192,64765,1,8,0:0:0:0:
256,192,64867,1,8,0:0:0:0:
256,192,64969,1,0,0:0:0:0:
256,192,65173,1,8,0:0:0:0:
256,192,65377,1,8,0:0:0:0:
256,192,65581,1,0,0:0:0:0:
256,192,65683,1,0,0:0:0:0:
256,192,65989,1,0,0:0:0:0:
256,192,66193,1,8,0:0:0:0:
256,192,66398,1,0,0:0:0:0:
256,192,66500,1,0,0:0:0:0:
256,192,66602,1,8,0:0:0:0:
256,192,66806,1,0,0:0:0:0:
256,192,67010,1,8,0:0:0:0:
256,192,67214,1,0,0:0:0:0:
256,192,67316,1,8,0:0:0:0:
256,192,67622,1,0,0:0:0:0:
256,192,67724,1,0,0:0:0:0:
256,192,67826,1,0,0:0:0:0:
256,192,68030,1,8,0:0:0:0:
256,192,68234,1,0,0:0:0:0:
256,192,68438,1,8,0:0:0:0:
256,192,68642,1,8,0:0:0:0:
256,192,68847,1,8,0:0:0:0:
256,192,68949,1,0,0:0:0:0:
256,192,69255,1,0,0:0:0:0:
256,192,69459,1,8,0:0:0:0:
256,192,69663,1,0,0:0:0:0:
256,192,69765,1,0,0:0:0:0:
256,192,69867,1,8,0:0:0:0:
256,192,70071,1,0,0:0:0:0:
256,192,70275,1,8,0:0:0:0:
256,192,70479,1,0,0:0:0:0:
256,192,70581,1,0,0:0:0:0:
256,192,70887,1,8,0:0:0:0:
256,192,71091,1,8,0:0:0:0:
256,192,71295,1,0,0:0:0:0:
256,192,71398,1,0,0:0:0:0:
256,192,71500,1,8,0:0:0:0:
256,192,71704,1,0,0:0:0:0:
256,192,71908,1,8,0:0:0:0:
256,192,72112,1,0,0:0:0:0:
256,192,72214,1,0,0:0:0:0:
256,192,72520,1,8,0:0:0:0:
256,192,72724,1,8,0:0:0:0:
256,192,72826,1,8,0:0:0:0:
256,192,72928,1,0,0:0:0:0:
256,192,73030,1,0,0:0:0:0:
256,192,73132,1,0,0:0:0:0:
256,192,73438,1,0,0:0:0:0:
256,192,73540,1,8,0:0:0:0:
256,192,73744,1,4,0:0:0:0:
256,192,74153,1,4,0:0:0:0:
256,192,74561,1,12,0:0:0:0:
256,192,74969,1,0,0:0:0:0:
256,192,75071,1,0,0:0:0:0:
256,192,75173,1,8,0:0:0:0:
256,192,75377,1,12,0:0:0:0:
256,192,75785,1,0,0:0:0:0:
256,192,75989,1,8,0:0:0:0:
256,192,76193,1,0,0:0:0:0:
256,192,76398,1,4,0:0:0:0:
256,192,76602,1,0,0:0:0:0:
256,192,76806,1,8,0:0:0:0:
256,192,77010,1,0,0:0:0:0:
256,192,77112,1,0,0:0:0:0:
256,192,77418,1,8,0:0:0:0:
256,192,77622,1,8,0:0:0:0:
256,192,77826,1,8,0:0:0:0:
256,192,77928,1,8,0:0:0:0:
256,192,78030,1,0,0:0:0:0:
256,192,78234,1,8,0:0:0:0:
256,192,78438,1,8,0:0:0:0:
256,192,78642,1,0,0:0:0:0:
256,192,78744,1,0,0:0:0:0:
256,192,79051,1,0,0:0:0:0:
256,192,79255,1,8,0:0:0:0:
256,192,79459,1,0,0:0:0:0:
256,192,79561,1,0,0:0:0:0:
256,192,79663,1,8,0:0:0:0:
256,192,79867,1,0,0:0:0:0:
256,192,80071,1,8,0:0:0:0:
256,192,80275,1,0,0:0:0:0:
256,192,80377,1,8,0:0:0:0:
256,192,80683,1,0,0:0:0:0:
256,192,80785,1,0,0:0:0:0:
256,192,80887,1,8,0:0:0:0:
256,192,80989,1,8,0:0:0:0:
256,192,81091,1,0,0:0:0:0:
256,192,81193,1,8,0:0:0:0:
256,192,81295,1,0,0:0:0:0:
256,192,81500,1,8,0:0:0:0:
256,192,81704,1,8,0:0:0:0:
256,192,81908,1,8,0:0:0:0:
256,192,82010,1,0,0:0:0:0:
256,192,82316,1,0,0:0:0:0:
256,192,82520,1,8,0:0:0:0:
256,192,82622,1,8,0:0:0:0:
256,192,82724,1,0,0:0:0:0:
256,192,82826,1,0,0:0:0:0:
256,192,82928,1,8,0:0:0:0:
256,192,83132,1,0,0:0:0:0:
256,192,83336,1,8,0:0:0:0:
256,192,83540,1,0,0:0:0:0:
256,192,83642,1,0,0:0:0:0:
256,192,83949,1,8,0:0:0:0:
256,192,84153,1,8,0:0:0:0:
256,192,84357,1,0,0:0:0:0:
256,192,84459,1,0,0:0:0:0:
256,192,84561,1,8,0:0:0:0:
256,192,84765,1,0,0:0:0:0:
256,192,84969,1,8,0:0:0:0:
256,192,85173,1,0,0:0:0:0:
256,192,85275,1,0,0:0:0:0:
256,192,85581,1,8,0:0:0:0:
256,192,85785,1,0,0:0:0:0:
256,192,85887,1,0,0:0:0:0:
256,192,85989,1,8,0:0:0:0:
256,192,86091,1,8,0:0:0:0:
256,192,86193,1,0,0:0:0:0:
256,192,86500,1,0,0:0:0:0:
256,192,86602,1,8,0:0:0:0:
256,192,86806,1,4,0:0:0:0:
256,192,87214,1,4,0:0:0:0:
256,192,87622,1,12,0:0:0:0:
256,192,88030,1,12,0:0:0:0:
256,192,88234,1,4,0:0:0:0:
256,192,88438,12,0,89459,0:0:0:0:
