osu file format v14

[General]
AudioFilename: Nitta Emi - Tankyuu Dreaming.mp3
AudioLeadIn: 0
PreviewTime: 62316
Countdown: 0
SampleSet: Normal
StackLeniency: 0.7
Mode: 1
LetterboxInBreaks: 0
WidescreenStoryboard: 0

[Editor]
DistanceSpacing: 1.7
BeatDivisor: 2
GridSize: 32
TimelineZoom: 1

[Metadata]
Title:Tankyuu Dreaming
TitleUnicode:探求Dreaming
Artist:Nitta Emi
ArtistUnicode:新田恵海
Creator:Nardoxyribonucleic
Version:Kantan
Source:探偵歌劇 ミルキィホームズ TD
Tags:Taiko Tantei Opera Milky Holmes TD Ending TV Size JUDYDANNY
BeatmapID:619153
BeatmapSetID:270949

[Difficulty]
HPDrainRate:4
CircleSize:5
OverallDifficulty:3
ApproachRate:3
SliderMultiplier:1.4
SliderTickRate:1

[Events]
//Background and Video events
0,0,"marine.JPG",0,25
//Break Periods
//Storyboard Layer 0 (Background)
//Storyboard Layer 1 (Fail)
//Storyboard Layer 2 (Pass)
//Storyboard Layer 3 (Foreground)
//Storyboard Sound Samples

[TimingPoints]
1296,408.163265306122,4,1,0,50,1,0
7826,-100,4,1,0,70,0,0
13336,-100,4,1,0,50,0,0
15989,-100,4,1,0,60,0,0
29051,-100,4,1,0,70,0,0
43744,-100,4,1,0,80,0,0
63336,-100,4,1,0,90,0,1
88234,-100,4,1,0,90,0,0
88438,-100,4,1,0,50,0,0
88642,-100,4,1,0,41,0,0
88847,-100,4,1,0,32,0,0
89051,-100,4,1,0,23,0,0
89255,-100,4,1,0,14,0,0
89459,-100,4,1,0,5,0,0

[HitObjects]
256,192,1296,5,8,0:0:0:0:
256,192,2928,1,0,0:0:0:0:
256,192,4561,1,8,0:0:0:0:
256,192,6193,1,0,0:0:0:0:
256,192,7010,1,8,0:0:0:0:
256,192,7826,1,4,0:0:0:0:
256,192,9459,1,12,0:0:0:0:
256,192,11091,1,4,0:0:0:0:
256,192,11704,1,4,0:0:0:0:
256,192,12112,1,4,0:0:0:0:
256,192,12520,1,12,0:0:0:0:
256,192,13132,1,4,0:0:0:0:
256,192,13336,12,0,15581,0:0:0:0:
256,192,15989,5,0,0:0:0:0:
256,192,16806,1,8,0:0:0:0:
256,192,17622,1,0,0:0:0:0:
256,192,19255,1,0,0:0:0:0:
256,192,19867,1,8,0:0:0:0:
256,192,20887,1,0,0:0:0:0:
256,192,22520,1,0,0:0:0:0:
256,192,23336,1,8,0:0:0:0:
256,192,24153,1,8,0:0:0:0:
256,192,24969,1,0,0:0:0:0:
256,192,25785,1,8,0:0:0:0:
256,192,26602,1,0,0:0:0:0:
256,192,27214,1,8,0:0:0:0:
256,192,27826,1,0,0:0:0:0:
256,192,29051,1,4,0:0:0:0:
256,192,29867,1,8,0:0:0:0:
256,192,30683,1,0,0:0:0:0:
256,192,31091,1,8,0:0:0:0:
256,192,31500,1,0,0:0:0:0:
256,192,32316,1,12,0:0:0:0:
256,192,33540,1,8,0:0:0:0:
256,192,33949,1,0,0:0:0:0:
256,192,34765,1,8,0:0:0:0:
256,192,35581,1,4,0:0:0:0:
256,192,36398,1,8,0:0:0:0:
256,192,37214,1,0,0:0:0:0:
256,192,37622,1,0,0:0:0:0:
256,192,38030,1,8,0:0:0:0:
256,192,38847,1,4,0:0:0:0:
256,192,40479,1,12,0:0:0:0:
256,192,42112,1,0,0:0:0:0:
256,192,42928,1,8,0:0:0:0:
256,192,43744,1,4,0:0:0:0:
256,192,45173,1,4,0:0:0:0:
256,192,47010,1,4,0:0:0:0:
256,192,48438,1,12,0:0:0:0:
256,192,50275,1,4,0:0:0:0:
256,192,51091,1,8,0:0:0:0:
256,192,51908,1,0,0:0:0:0:
256,192,52316,1,8,0:0:0:0:
256,192,52724,1,8,0:0:0:0:
256,192,53540,1,4,0:0:0:0:
256,192,54357,1,0,0:0:0:0:
256,192,54969,1,8,0:0:0:0:
256,192,55989,1,0,0:0:0:0:
256,192,56398,1,8,0:0:0:0:
256,192,56806,1,4,0:0:0:0:
256,192,57622,1,8,0:0:0:0:
256,192,58234,1,8,0:0:0:0:
256,192,58847,1,4,0:0:0:0:
256,192,60071,1,4,0:0:0:0:
256,192,61500,1,12,0:0:0:0:
256,192,62112,1,12,0:0:0:0:
256,192,63336,1,4,0:0:0:0:
256,192,64153,1,8,0:0:0:0:
256,192,64969,1,0,0:0:0:0:
256,192,65377,1,8,0:0:0:0:
256,192,65785,1,0,0:0:0:0:
256,192,66602,1,12,0:0:0:0:
256,192,67418,1,8,0:0:0:0:
256,192,68234,1,0,0:0:0:0:
256,192,68642,1,8,0:0:0:0:
256,192,69051,1,8,0:0:0:0:
256,192,69867,1,4,0:0:0:0:
256,192,71500,1,8,0:0:0:0:
256,192,72316,1,8,0:0:0:0:
256,192,73132,1,4,0:0:0:0:
256,192,73744,1,4,0:0:0:0:
256,192,74153,1,4,0:0:0:0:
256,192,74561,1,12,0:0:0:0:
256,192,75377,1,12,0:0:0:0:
256,192,76398,1,4,0:0:0:0:
256,192,77214,1,8,0:0:0:0:
256,192,78031,1,0,0:0:0:0:
256,192,78439,1,8,0:0:0:0:
256,192,78847,1,0,0:0:0:0:
256,192,79664,1,12,0:0:0:0:
256,192,80479,1,8,0:0:0:0:
256,192,81296,1,0,0:0:0:0:
256,192,81704,1,8,0:0:0:0:
256,192,82113,1,8,0:0:0:0:
256,192,82929,1,4,0:0:0:0:
256,192,84562,1,8,0:0:0:0:
256,192,85378,1,8,0:0:0:0:
256,192,86194,1,4,0:0:0:0:
256,192,86806,1,4,0:0:0:0:
256,192,87215,1,4,0:0:0:0:
256,192,87623,1,12,0:0:0:0:
256,192,88234,1,4,0:0:0:0:
256,192,88438,12,0,89459,0:0:0:0:
