osu file format v14

[General]
AudioFilename: Nitta Emi - Tankyuu Dreaming.mp3
AudioLeadIn: 0
PreviewTime: 62316
Countdown: 0
SampleSet: Normal
StackLeniency: 0.7
Mode: 1
LetterboxInBreaks: 0
WidescreenStoryboard: 1

[Editor]
Bookmarks: 1296,1704,1908,2010,2316,2928,4561,4765,4969,5173,5377,5581,5785,6193,6602,7010,7418,7826,8438,8540,8847,9459,9867,10071,10173,10479,11500,15989,17622,19255,19867,20887,22520,23336,24153,24969,25785,26602,27214,27622,27826,29255,29459,31398,31602,32316,33336,33540,33744,33949,34255,34561,34765,37214,37622,38030,38642,38744,38847,39051,39255,39459,39561,40275,40377,40479,40683,40887,41091,41193,43744,44357,45173,45989,47010,47622,48438,49255,53540,54969,56806,58234,58847,60071,61500,61908,62112,62928,63336,63744,63949,64357,64765,64969,66806,73540,76398,79663
DistanceSpacing: 1.7
BeatDivisor: 4
GridSize: 32
TimelineZoom: 1.1

[Metadata]
Title:Tankyuu Dreaming
TitleUnicode:探求Dreaming
Artist:Nitta Emi
ArtistUnicode:新田恵海
Creator:Nardoxyribonucleic
Version:JuDa's Oni
Source:探偵歌劇 ミルキィホームズ TD
Tags:Taiko Tantei Opera Milky Holmes TD Ending TV Size JUDYDANNY
BeatmapID:636177
BeatmapSetID:270949

[Difficulty]
HPDrainRate:5
CircleSize:5
OverallDifficulty:5
ApproachRate:7
SliderMultiplier:1.4
SliderTickRate:1

[Events]
//Background and Video events
0,0,"marine.JPG",0,25
//Break Periods
//Storyboard Layer 0 (Background)
//Storyboard Layer 1 (Fail)
//Storyboard Layer 2 (Pass)
//Storyboard Layer 3 (Foreground)
//Storyboard Sound Samples

[TimingPoints]
1296,408.163265306122,4,1,0,50,1,0
7826,-100,4,1,0,70,0,0
13336,-100,4,1,0,50,0,0
15989,-100,4,1,0,60,0,0
29051,-100,4,1,0,70,0,0
43744,-100,4,1,0,80,0,0
62724,-90.9090909090909,4,1,0,80,0,0
63336,-90.9090909090909,4,1,0,90,0,1
88234,-90.9090909090909,4,1,0,90,0,0
88438,-90.9090909090909,4,1,0,50,0,0
88642,-90.9090909090909,4,1,0,41,0,0
88847,-90.9090909090909,4,1,0,32,0,0
89051,-90.9090909090909,4,1,0,23,0,0
89255,-90.9090909090909,4,1,0,14,0,0
89459,-90.9090909090909,4,1,0,5,0,0

[HitObjects]
288,128,1296,5,0,0:0:0:0:
224,160,2316,1,2,0:0:0:0:
224,160,2928,1,0,0:0:0:0:
224,160,3540,1,2,0:0:0:0:
224,160,3949,1,2,0:0:0:0:
224,160,4153,1,0,0:0:0:0:
224,160,4561,5,2,0:0:0:0:
224,160,4765,1,0,0:0:0:0:
224,160,4969,1,2,0:0:0:0:
224,160,5377,1,0,0:0:0:0:
224,160,5581,1,0,0:0:0:0:
224,160,5785,1,2,0:0:0:0:
224,160,6193,5,0,0:0:0:0:
224,160,6602,1,0,0:0:0:0:
224,160,7010,1,2,0:0:0:0:
224,160,7418,1,2,0:0:0:0:
224,160,7826,5,4,0:0:0:0:
224,160,8030,1,2,0:0:0:0:
224,192,8234,1,0,0:0:0:0:
224,160,8438,1,2,0:0:0:0:
224,160,8540,1,2,0:0:0:0:
224,192,8642,1,0,0:0:0:0:
224,160,8847,1,2,0:0:0:0:
224,192,9051,1,0,0:0:0:0:
224,192,9459,1,4,0:0:0:0:
224,160,9663,1,2,0:0:0:0:
224,192,9867,1,0,0:0:0:0:
224,160,10071,1,2,0:0:0:0:
224,192,10173,1,2,0:0:0:0:
192,128,10275,1,0,0:0:0:0:
224,160,10479,5,2,0:0:0:0:
224,192,10683,1,2,0:0:0:0:
224,192,11091,1,6,0:0:0:0:
224,192,11500,1,0,0:0:0:0:
224,192,11704,1,6,0:0:0:0:
224,192,12112,1,6,0:0:0:0:
224,192,12520,1,4,0:0:0:0:
224,192,12928,1,6,0:0:0:0:
256,192,13132,12,2,15581,0:0:0:0:
192,192,15989,5,0,0:0:0:0:
192,192,16398,1,2,0:0:0:0:
192,192,16806,1,2,0:0:0:0:
192,160,17010,1,2,0:0:0:0:
192,192,17214,1,2,0:0:0:0:
192,192,17622,5,0,0:0:0:0:
192,192,18030,1,0,0:0:0:0:
192,192,18234,1,2,0:0:0:0:
192,160,18642,1,2,0:0:0:0:
192,160,18847,1,0,0:0:0:0:
192,160,19255,5,0,0:0:0:0:
192,160,19663,1,2,0:0:0:0:
192,160,19867,1,0,0:0:0:0:
192,160,20275,1,0,0:0:0:0:
192,160,20479,1,2,0:0:0:0:
192,160,20887,5,0,0:0:0:0:
192,160,21295,1,2,0:0:0:0:
192,160,21500,1,2,0:0:0:0:
192,160,21704,1,2,0:0:0:0:
192,160,22112,1,2,0:0:0:0:
192,160,22520,1,0,0:0:0:0:
192,128,22928,1,2,0:0:0:0:
192,128,23132,1,2,0:0:0:0:
192,128,23336,1,0,0:0:0:0:
192,96,23744,1,2,0:0:0:0:
192,128,24153,1,0,0:0:0:0:
192,96,24357,1,0,0:0:0:0:
192,96,24561,1,2,0:0:0:0:
192,128,24765,1,2,0:0:0:0:
192,128,24969,1,0,0:0:0:0:
192,64,25377,1,2,0:0:0:0:
192,128,25785,1,0,0:0:0:0:
192,128,26398,1,2,0:0:0:0:
192,128,26602,1,2,0:0:0:0:
192,32,27010,1,2,0:0:0:0:
192,128,27214,1,0,0:0:0:0:
192,128,27622,1,0,0:0:0:0:
192,128,27826,5,2,0:0:0:0:
192,128,28234,1,0,0:0:0:0:
192,128,28438,1,0,0:0:0:0:
192,128,28642,1,2,0:0:0:0:
192,128,29051,5,4,0:0:0:0:
192,32,29255,1,0,0:0:0:0:
192,32,29459,1,2,0:0:0:0:
192,32,29663,1,2,0:0:0:0:
192,32,29765,1,2,0:0:0:0:
192,32,29867,1,0,0:0:0:0:
192,32,30071,1,0,0:0:0:0:
192,32,30275,1,2,0:0:0:0:
192,32,30683,1,0,0:0:0:0:
192,32,30887,1,0,0:0:0:0:
192,32,31091,1,2,0:0:0:0:
192,32,31295,1,0,0:0:0:0:
192,32,31398,1,2,0:0:0:0:
192,32,31602,1,2,0:0:0:0:
192,32,31704,1,0,0:0:0:0:
192,32,31908,1,2,0:0:0:0:
192,32,32112,5,0,0:0:0:0:
192,32,32214,1,0,0:0:0:0:
192,32,32316,1,2,0:0:0:0:
192,32,32520,1,0,0:0:0:0:
192,32,32724,1,2,0:0:0:0:
192,32,32928,1,0,0:0:0:0:
192,0,33336,1,0,0:0:0:0:
192,0,33540,1,2,0:0:0:0:
192,0,33744,1,2,0:0:0:0:
192,0,33949,5,0,0:0:0:0:
192,32,34153,1,2,0:0:0:0:
192,0,34255,1,2,0:0:0:0:
192,0,34357,1,0,0:0:0:0:
192,0,34561,1,2,0:0:0:0:
192,0,34765,1,0,0:0:0:0:
192,0,34969,1,0,0:0:0:0:
192,0,35173,5,2,0:0:0:0:
192,0,35275,1,2,0:0:0:0:
192,0,35377,1,2,0:0:0:0:
192,0,35479,1,2,0:0:0:0:
192,0,35581,5,0,0:0:0:0:
192,0,35989,1,2,0:0:0:0:
192,0,36193,1,0,0:0:0:0:
192,0,36398,1,2,0:0:0:0:
192,0,36602,1,0,0:0:0:0:
192,0,36704,1,2,0:0:0:0:
192,0,36806,1,0,0:0:0:0:
192,0,37010,1,2,0:0:0:0:
192,0,37214,5,0,0:0:0:0:
192,0,37622,1,2,0:0:0:0:
192,0,37826,1,2,0:0:0:0:
192,0,38030,1,0,0:0:0:0:
192,0,38234,1,0,0:0:0:0:
192,0,38336,1,0,0:0:0:0:
192,0,38438,1,2,0:0:0:0:
192,0,38642,5,2,0:0:0:0:
192,0,38744,1,2,0:0:0:0:
192,0,38847,1,0,0:0:0:0:
192,0,39051,1,0,0:0:0:0:
192,0,39255,5,2,0:0:0:0:
192,0,39459,1,0,0:0:0:0:
192,0,39561,1,0,0:0:0:0:
192,0,39867,1,0,0:0:0:0:
192,0,40071,1,2,0:0:0:0:
192,32,40275,5,2,0:0:0:0:
192,32,40377,1,0,0:0:0:0:
192,32,40479,1,2,0:0:0:0:
192,32,40683,1,0,0:0:0:0:
192,32,40887,5,2,0:0:0:0:
192,32,41091,1,0,0:0:0:0:
192,32,41193,1,2,0:0:0:0:
192,32,41500,1,0,0:0:0:0:
192,32,41602,1,0,0:0:0:0:
192,32,41704,1,2,0:0:0:0:
192,32,41908,1,0,0:0:0:0:
192,32,42112,1,2,0:0:0:0:
192,32,42316,1,0,0:0:0:0:
192,32,42418,1,0,0:0:0:0:
192,32,42520,1,2,0:0:0:0:
192,32,42724,1,0,0:0:0:0:
192,32,42826,1,0,0:0:0:0:
192,32,42928,1,2,0:0:0:0:
192,32,43132,1,0,0:0:0:0:
192,32,43234,1,0,0:0:0:0:
192,32,43336,1,2,0:0:0:0:
192,32,43438,1,2,0:0:0:0:
192,32,43540,1,0,0:0:0:0:
192,32,43744,5,6,0:0:0:0:
192,32,43949,1,0,0:0:0:0:
192,32,44153,1,0,0:0:0:0:
192,32,44357,1,6,0:0:0:0:
192,32,44765,1,2,0:0:0:0:
192,32,44867,1,2,0:0:0:0:
192,32,44969,1,0,0:0:0:0:
192,32,45173,1,4,0:0:0:0:
192,32,45581,1,0,0:0:0:0:
192,32,45785,1,2,0:0:0:0:
192,32,45989,1,4,0:0:0:0:
192,32,46398,1,2,0:0:0:0:
192,32,46602,1,0,0:0:0:0:
192,32,46704,1,0,0:0:0:0:
192,32,46806,1,2,0:0:0:0:
192,32,47010,1,6,0:0:0:0:
192,32,47214,1,0,0:0:0:0:
192,32,47418,1,0,0:0:0:0:
192,32,47622,1,6,0:0:0:0:
160,32,48030,1,0,0:0:0:0:
160,32,48132,1,0,0:0:0:0:
160,32,48234,1,2,0:0:0:0:
192,32,48438,1,6,0:0:0:0:
192,32,48847,1,0,0:0:0:0:
192,32,49051,1,2,0:0:0:0:
192,32,49255,1,0,0:0:0:0:
192,32,49357,1,2,0:0:0:0:
192,32,49459,1,0,0:0:0:0:
192,32,49663,1,0,0:0:0:0:
192,32,49867,1,2,0:0:0:0:
192,32,50071,1,2,0:0:0:0:
192,32,50173,1,2,0:0:0:0:
192,32,50275,5,0,0:0:0:0:
192,32,50683,1,2,0:0:0:0:
192,32,50887,1,2,0:0:0:0:
192,32,51091,1,0,0:0:0:0:
192,32,51295,1,0,0:0:0:0:
192,32,51398,1,0,0:0:0:0:
192,32,51500,1,2,0:0:0:0:
192,32,51908,1,0,0:0:0:0:
192,0,52112,1,0,0:0:0:0:
192,32,52316,1,2,0:0:0:0:
192,32,52520,1,2,0:0:0:0:
192,32,52724,1,0,0:0:0:0:
192,32,52928,1,0,0:0:0:0:
192,32,53030,1,0,0:0:0:0:
192,32,53132,1,2,0:0:0:0:
160,32,53540,1,4,0:0:0:0:
192,32,53744,1,0,0:0:0:0:
160,0,53847,1,0,0:0:0:0:
160,0,53949,1,2,0:0:0:0:
160,0,54153,1,2,0:0:0:0:
160,32,54255,1,2,0:0:0:0:
160,0,54357,1,0,0:0:0:0:
160,0,54561,1,0,0:0:0:0:
160,0,54765,1,2,0:0:0:0:
160,0,54969,5,6,0:0:0:0:
160,32,55377,1,2,0:0:0:0:
160,0,55479,1,2,0:0:0:0:
160,0,55581,1,0,0:0:0:0:
160,32,55785,1,2,0:0:0:0:
160,32,55989,1,0,0:0:0:0:
160,32,56193,1,0,0:0:0:0:
160,0,56398,1,2,0:0:0:0:
160,32,56500,1,2,0:0:0:0:
160,32,56602,1,2,0:0:0:0:
160,0,56806,5,4,0:0:0:0:
160,0,57214,1,2,0:0:0:0:
160,32,57418,1,0,0:0:0:0:
160,0,57622,1,2,0:0:0:0:
160,0,57826,1,2,0:0:0:0:
160,0,57928,1,2,0:0:0:0:
160,0,58030,1,2,0:0:0:0:
160,0,58234,1,4,0:0:0:0:
160,0,58642,1,2,0:0:0:0:
160,0,58847,1,4,0:0:0:0:
160,0,59255,1,0,0:0:0:0:
160,0,59459,1,0,0:0:0:0:
160,0,59663,1,2,0:0:0:0:
192,0,60071,1,4,0:0:0:0:
160,0,60275,1,2,0:0:0:0:
160,0,60479,1,2,0:0:0:0:
160,0,60683,1,2,0:0:0:0:
160,0,60887,1,2,0:0:0:0:
160,0,60989,1,0,0:0:0:0:
160,0,61091,1,0,0:0:0:0:
160,0,61193,1,0,0:0:0:0:
160,0,61295,1,2,0:0:0:0:
160,0,61500,1,6,0:0:0:0:
160,0,61908,1,6,0:0:0:0:
160,0,62112,1,6,0:0:0:0:
160,32,62928,5,2,0:0:0:0:
160,32,63030,1,2,0:0:0:0:
160,32,63132,1,2,0:0:0:0:
160,32,63234,1,2,0:0:0:0:
160,32,63336,1,0,0:0:0:0:
256,192,63540,1,0,0:0:0:0:
160,0,63744,1,2,0:0:0:0:
160,0,63949,1,0,0:0:0:0:
160,0,64051,1,2,0:0:0:0:
160,0,64153,1,0,0:0:0:0:
160,0,64357,1,2,0:0:0:0:
160,0,64561,1,2,0:0:0:0:
160,32,64765,1,0,0:0:0:0:
160,0,64969,5,2,0:0:0:0:
160,0,65173,1,0,0:0:0:0:
160,32,65275,1,0,0:0:0:0:
160,0,65377,1,2,0:0:0:0:
160,0,65581,1,0,0:0:0:0:
160,0,65683,1,2,0:0:0:0:
160,0,65785,1,0,0:0:0:0:
160,0,65989,1,0,0:0:0:0:
160,32,66193,1,2,0:0:0:0:
160,32,66398,5,2,0:0:0:0:
160,32,66500,1,2,0:0:0:0:
160,32,66602,1,0,0:0:0:0:
160,32,67010,1,2,0:0:0:0:
160,32,67214,1,2,0:0:0:0:
160,32,67316,1,2,0:0:0:0:
160,32,67418,1,0,0:0:0:0:
160,32,67622,1,0,0:0:0:0:
160,32,67826,1,2,0:0:0:0:
160,32,68030,1,2,0:0:0:0:
160,32,68234,1,0,0:0:0:0:
160,32,68438,1,0,0:0:0:0:
160,32,68540,1,0,0:0:0:0:
160,32,68642,1,2,0:0:0:0:
160,32,68847,1,0,0:0:0:0:
160,32,68949,1,0,0:0:0:0:
160,32,69051,1,2,0:0:0:0:
160,32,69153,1,2,0:0:0:0:
160,32,69255,1,0,0:0:0:0:
128,32,69459,1,2,0:0:0:0:
160,0,69663,1,2,0:0:0:0:
192,0,69765,1,2,0:0:0:0:
128,32,69867,1,0,0:0:0:0:
128,32,70275,1,2,0:0:0:0:
160,32,70479,1,0,0:0:0:0:
160,32,70581,1,0,0:0:0:0:
160,32,70683,1,0,0:0:0:0:
160,0,70887,1,0,0:0:0:0:
160,0,71091,1,2,0:0:0:0:
160,32,71295,1,0,0:0:0:0:
160,0,71398,1,0,0:0:0:0:
160,0,71500,1,0,0:0:0:0:
160,0,71908,1,2,0:0:0:0:
160,0,72112,1,0,0:0:0:0:
160,0,72214,1,0,0:0:0:0:
160,0,72316,1,0,0:0:0:0:
160,0,72520,1,2,0:0:0:0:
160,0,72724,1,2,0:0:0:0:
192,0,72826,1,2,0:0:0:0:
192,0,72928,1,0,0:0:0:0:
160,0,73132,5,6,0:0:0:0:
160,0,73540,1,0,0:0:0:0:
160,0,73744,1,6,0:0:0:0:
160,0,74153,1,6,0:0:0:0:
160,0,74561,1,4,0:0:0:0:
160,0,74969,1,0,0:0:0:0:
160,0,75173,1,2,0:0:0:0:
160,0,75377,1,4,0:0:0:0:
160,64,75989,5,2,0:0:0:0:
160,96,76091,1,2,0:0:0:0:
160,96,76193,1,2,0:0:0:0:
192,64,76295,1,2,0:0:0:0:
160,96,76398,5,0,0:0:0:0:
128,96,76602,1,0,0:0:0:0:
160,32,76806,1,2,0:0:0:0:
160,32,77010,1,0,0:0:0:0:
160,32,77112,1,2,0:0:0:0:
160,32,77316,1,2,0:0:0:0:
160,32,77418,1,0,0:0:0:0:
160,32,77622,1,2,0:0:0:0:
160,32,77826,1,0,0:0:0:0:
160,32,77928,1,0,0:0:0:0:
160,32,78030,1,2,0:0:0:0:
160,32,78234,1,0,0:0:0:0:
160,32,78438,1,2,0:0:0:0:
160,32,78642,1,0,0:0:0:0:
160,32,78744,1,2,0:0:0:0:
160,32,78949,1,2,0:0:0:0:
160,32,79051,1,0,0:0:0:0:
160,32,79255,1,2,0:0:0:0:
192,32,79663,5,6,0:0:0:0:
192,32,79867,1,0,0:0:0:0:
192,32,79969,1,0,0:0:0:0:
192,32,80071,1,2,0:0:0:0:
192,32,80275,1,2,0:0:0:0:
192,32,80479,1,0,0:0:0:0:
192,32,80683,1,0,0:0:0:0:
192,32,80785,1,0,0:0:0:0:
192,32,80887,1,2,0:0:0:0:
192,32,81091,1,0,0:0:0:0:
192,32,81295,1,2,0:0:0:0:
192,32,81398,1,2,0:0:0:0:
192,32,81500,1,0,0:0:0:0:
192,32,81602,1,0,0:0:0:0:
192,32,81704,1,2,0:0:0:0:
192,32,81908,1,0,0:0:0:0:
192,32,82112,1,2,0:0:0:0:
192,32,82214,1,2,0:0:0:0:
192,32,82316,1,0,0:0:0:0:
192,32,82418,1,0,0:0:0:0:
192,32,82520,1,2,0:0:0:0:
192,32,82724,1,2,0:0:0:0:
192,32,82826,1,2,0:0:0:0:
192,32,82928,5,0,0:0:0:0:
192,32,83336,1,2,0:0:0:0:
192,32,83540,1,0,0:0:0:0:
192,32,83642,1,0,0:0:0:0:
192,32,83744,1,0,0:0:0:0:
192,32,83949,1,0,0:0:0:0:
192,32,84153,1,2,0:0:0:0:
192,32,84357,1,0,0:0:0:0:
192,32,84459,1,0,0:0:0:0:
192,32,84561,1,0,0:0:0:0:
192,32,84969,1,2,0:0:0:0:
192,32,85173,1,0,0:0:0:0:
192,32,85275,1,0,0:0:0:0:
192,32,85377,1,0,0:0:0:0:
192,32,85581,1,2,0:0:0:0:
192,32,85785,1,2,0:0:0:0:
192,32,85887,1,2,0:0:0:0:
192,32,85989,1,0,0:0:0:0:
192,32,86193,1,6,0:0:0:0:
192,32,86602,1,0,0:0:0:0:
192,32,86806,1,6,0:0:0:0:
192,32,87214,1,6,0:0:0:0:
192,32,87622,1,4,0:0:0:0:
192,32,88030,1,6,0:0:0:0:
256,192,88234,12,6,89459,0:0:0:0:
