osu file format v14

[General]
AudioFilename: Nitta Emi - Tankyuu Dreaming.mp3
AudioLeadIn: 0
PreviewTime: 62316
Countdown: 0
SampleSet: Normal
StackLeniency: 0.7
Mode: 1
LetterboxInBreaks: 0
WidescreenStoryboard: 0

[Editor]
DistanceSpacing: 1.7
BeatDivisor: 2
GridSize: 32
TimelineZoom: 1

[Metadata]
Title:Tankyuu Dreaming
TitleUnicode:探求Dreaming
Artist:Nitta Emi
ArtistUnicode:新田恵海
Creator:Nardoxyribonucleic
Version:Futsuu
Source:探偵歌劇 ミルキィホームズ TD
Tags:Taiko Tantei Opera Milky Holmes TD Ending TV Size JUDYDANNY
BeatmapID:619151
BeatmapSetID:270949

[Difficulty]
HPDrainRate:4
CircleSize:5
OverallDifficulty:4
ApproachRate:4
SliderMultiplier:1.4
SliderTickRate:1

[Events]
//Background and Video events
0,0,"marine.JPG",0,25
//Break Periods
//Storyboard Layer 0 (Background)
//Storyboard Layer 1 (Fail)
//Storyboard Layer 2 (Pass)
//Storyboard Layer 3 (Foreground)
//Storyboard Sound Samples

[TimingPoints]
1296,408.163265306122,4,1,0,50,1,0
7826,-100,4,1,0,70,0,0
13336,-100,4,1,0,50,0,0
15989,-100,4,1,0,60,0,0
29051,-100,4,1,0,70,0,0
43744,-100,4,1,0,80,0,0
63336,-100,4,1,0,90,0,1
88234,-100,4,1,0,90,0,0
88438,-100,4,1,0,50,0,0
88642,-100,4,1,0,41,0,0
88847,-100,4,1,0,32,0,0
89051,-100,4,1,0,23,0,0
89255,-100,4,1,0,14,0,0
89459,-100,4,1,0,5,0,0

[HitObjects]
256,192,1296,5,8,0:0:0:0:
256,192,1704,1,0,0:0:0:0:
256,192,1908,1,0,0:0:0:0:
256,192,2316,1,8,0:0:0:0:
256,192,2928,1,8,0:0:0:0:
256,192,3336,1,8,0:0:0:0:
256,192,3540,1,0,0:0:0:0:
256,192,3949,1,0,0:0:0:0:
256,192,4153,1,0,0:0:0:0:
256,192,4561,1,8,0:0:0:0:
256,192,5377,1,8,0:0:0:0:
256,192,6193,1,0,0:0:0:0:
256,192,6602,1,0,0:0:0:0:
256,192,7010,1,8,0:0:0:0:
256,192,7418,1,8,0:0:0:0:
256,192,7826,1,4,0:0:0:0:
256,192,8234,1,8,0:0:0:0:
256,192,8438,1,0,0:0:0:0:
256,192,8847,1,8,0:0:0:0:
256,192,9459,1,12,0:0:0:0:
256,192,9867,1,8,0:0:0:0:
256,192,10071,1,0,0:0:0:0:
256,192,10479,1,8,0:0:0:0:
256,192,11091,1,4,0:0:0:0:
256,192,11704,1,4,0:0:0:0:
256,192,12112,1,4,0:0:0:0:
256,192,12520,1,12,0:0:0:0:
256,192,12928,1,12,0:0:0:0:
256,192,13132,1,4,0:0:0:0:
256,192,13336,12,0,15581,0:0:0:0:
256,192,15989,5,0,0:0:0:0:
256,192,16398,1,8,0:0:0:0:
256,192,16806,1,8,0:0:0:0:
256,192,17622,1,0,0:0:0:0:
256,192,18030,1,0,0:0:0:0:
256,192,18234,1,8,0:0:0:0:
256,192,18642,1,8,0:0:0:0:
256,192,18847,1,0,0:0:0:0:
256,192,19255,1,0,0:0:0:0:
256,192,19867,1,8,0:0:0:0:
256,192,20479,1,8,0:0:0:0:
256,192,20887,1,0,0:0:0:0:
256,192,22520,1,0,0:0:0:0:
256,192,22928,1,0,0:0:0:0:
256,192,23132,1,8,0:0:0:0:
256,192,23336,1,0,0:0:0:0:
256,192,24153,1,8,0:0:0:0:
256,192,24561,1,0,0:0:0:0:
256,192,24765,1,8,0:0:0:0:
256,192,24969,1,0,0:0:0:0:
256,192,25581,1,0,0:0:0:0:
256,192,25785,1,8,0:0:0:0:
256,192,26398,1,0,0:0:0:0:
256,192,26602,1,0,0:0:0:0:
256,192,27214,1,8,0:0:0:0:
256,192,27622,1,0,0:0:0:0:
256,192,27826,1,0,0:0:0:0:
256,192,28642,1,8,0:0:0:0:
256,192,29051,1,4,0:0:0:0:
256,192,29459,1,8,0:0:0:0:
256,192,29867,1,0,0:0:0:0:
256,192,30071,1,0,0:0:0:0:
256,192,30275,1,8,0:0:0:0:
256,192,30683,1,0,0:0:0:0:
256,192,31091,1,8,0:0:0:0:
256,192,31295,1,0,0:0:0:0:
256,192,31704,1,0,0:0:0:0:
256,192,31908,1,8,0:0:0:0:
256,192,32316,1,12,0:0:0:0:
256,192,32928,1,0,0:0:0:0:
256,192,33540,1,8,0:0:0:0:
256,192,33949,1,0,0:0:0:0:
256,192,34357,1,8,0:0:0:0:
256,192,34561,1,8,0:0:0:0:
256,192,34765,1,0,0:0:0:0:
256,192,35581,1,4,0:0:0:0:
256,192,35989,1,8,0:0:0:0:
256,192,36193,1,0,0:0:0:0:
256,192,36398,1,8,0:0:0:0:
256,192,36806,1,8,0:0:0:0:
256,192,37010,1,0,0:0:0:0:
256,192,37214,1,0,0:0:0:0:
256,192,37622,1,8,0:0:0:0:
256,192,38030,1,0,0:0:0:0:
256,192,38847,1,12,0:0:0:0:
256,192,39255,1,0,0:0:0:0:
256,192,39459,1,8,0:0:0:0:
256,192,39867,1,8,0:0:0:0:
256,192,40071,1,0,0:0:0:0:
256,192,40479,1,12,0:0:0:0:
256,192,41091,1,12,0:0:0:0:
256,192,42112,1,0,0:0:0:0:
256,192,42520,1,0,0:0:0:0:
256,192,42928,1,8,0:0:0:0:
256,192,43336,1,8,0:0:0:0:
256,192,43744,1,4,0:0:0:0:
256,192,44357,1,4,0:0:0:0:
256,192,45173,1,4,0:0:0:0:
256,192,45581,1,0,0:0:0:0:
256,192,45785,1,8,0:0:0:0:
256,192,45989,1,4,0:0:0:0:
256,192,47010,1,4,0:0:0:0:
256,192,47622,1,4,0:0:0:0:
256,192,48438,1,12,0:0:0:0:
256,192,48847,1,8,0:0:0:0:
256,192,49051,1,0,0:0:0:0:
256,192,49255,1,8,0:0:0:0:
256,192,49867,1,8,0:0:0:0:
256,192,50275,1,4,0:0:0:0:
256,192,50683,1,8,0:0:0:0:
256,192,50887,1,0,0:0:0:0:
256,192,51091,1,8,0:0:0:0:
256,192,51500,1,0,0:0:0:0:
256,192,51908,1,8,0:0:0:0:
256,192,52316,1,8,0:0:0:0:
256,192,52520,1,8,0:0:0:0:
256,192,52724,1,0,0:0:0:0:
256,192,53132,1,8,0:0:0:0:
256,192,53540,1,4,0:0:0:0:
256,192,54357,1,0,0:0:0:0:
256,192,54765,1,8,0:0:0:0:
256,192,54969,1,4,0:0:0:0:
256,192,55581,1,8,0:0:0:0:
256,192,55989,1,0,0:0:0:0:
256,192,56398,1,8,0:0:0:0:
256,192,56806,1,4,0:0:0:0:
256,192,57622,1,8,0:0:0:0:
256,192,58030,1,0,0:0:0:0:
256,192,58234,1,0,0:0:0:0:
256,192,58642,1,8,0:0:0:0:
256,192,58847,1,4,0:0:0:0:
256,192,60071,1,4,0:0:0:0:
256,192,60275,1,8,0:0:0:0:
256,192,60479,1,8,0:0:0:0:
256,192,60887,1,8,0:0:0:0:
256,192,61500,1,4,0:0:0:0:
256,192,61908,1,12,0:0:0:0:
256,192,62112,1,12,0:0:0:0:
256,192,63336,1,4,0:0:0:0:
256,192,63744,1,8,0:0:0:0:
256,192,64153,1,0,0:0:0:0:
256,192,64357,1,8,0:0:0:0:
256,192,64765,1,8,0:0:0:0:
256,192,64969,1,0,0:0:0:0:
256,192,65377,1,8,0:0:0:0:
256,192,65785,1,0,0:0:0:0:
256,192,66602,1,12,0:0:0:0:
256,192,67010,1,8,0:0:0:0:
256,192,67214,1,0,0:0:0:0:
256,192,67622,1,0,0:0:0:0:
256,192,67826,1,8,0:0:0:0:
256,192,68234,1,0,0:0:0:0:
256,192,68438,1,8,0:0:0:0:
256,192,68642,1,8,0:0:0:0:
256,192,69051,1,0,0:0:0:0:
256,192,69459,1,8,0:0:0:0:
256,192,69867,1,4,0:0:0:0:
256,192,70275,1,8,0:0:0:0:
256,192,70479,1,0,0:0:0:0:
256,192,70887,1,8,0:0:0:0:
256,192,71500,1,8,0:0:0:0:
256,192,71908,1,8,0:0:0:0:
256,192,72112,1,0,0:0:0:0:
256,192,72520,1,8,0:0:0:0:
256,192,73132,1,4,0:0:0:0:
256,192,73744,1,4,0:0:0:0:
256,192,74153,1,4,0:0:0:0:
256,192,74561,1,12,0:0:0:0:
256,192,74969,1,0,0:0:0:0:
256,192,75173,1,0,0:0:0:0:
256,192,75377,1,12,0:0:0:0:
256,192,76398,1,4,0:0:0:0:
256,192,76806,1,8,0:0:0:0:
256,192,77215,1,0,0:0:0:0:
256,192,77419,1,8,0:0:0:0:
256,192,77827,1,8,0:0:0:0:
256,192,78031,1,0,0:0:0:0:
256,192,78439,1,8,0:0:0:0:
256,192,78847,1,0,0:0:0:0:
256,192,79664,1,12,0:0:0:0:
256,192,80072,1,0,0:0:0:0:
256,192,80276,1,8,0:0:0:0:
256,192,80684,1,8,0:0:0:0:
256,192,80887,1,0,0:0:0:0:
256,192,81296,1,0,0:0:0:0:
256,192,81500,1,8,0:0:0:0:
256,192,81704,1,8,0:0:0:0:
256,192,82113,1,0,0:0:0:0:
256,192,82521,1,8,0:0:0:0:
256,192,82929,1,4,0:0:0:0:
256,192,83337,1,8,0:0:0:0:
256,192,83540,1,0,0:0:0:0:
256,192,83949,1,8,0:0:0:0:
256,192,84562,1,8,0:0:0:0:
256,192,84970,1,8,0:0:0:0:
256,192,85173,1,0,0:0:0:0:
256,192,85582,1,8,0:0:0:0:
256,192,86194,1,4,0:0:0:0:
256,192,86806,1,4,0:0:0:0:
256,192,87215,1,4,0:0:0:0:
256,192,87623,1,12,0:0:0:0:
256,192,88030,1,12,0:0:0:0:
256,192,88234,1,4,0:0:0:0:
256,192,88438,12,0,89459,0:0:0:0:
