osu file format v9

[General]
AudioFilename: 12 - Savage.mp3
AudioLeadIn: 0
PreviewTime: -1
Countdown: 1
SampleSet: Normal
StackLeniency: 0.2
Mode: 0
LetterboxInBreaks: 1

[Editor]
Bookmarks: 6380,18724,31043,37107,49523,80225,92545,104961,111120,136914,147983,160302,184941,196972
DistanceSpacing: 0.8
BeatDivisor: 4
GridSize: 8

[Metadata]
Title:Savage
Artist:Nitro+
Creator:NakaNaide
Version:Saya
Source:Saya no uta
Tags:saya no uta savage nitro

[Difficulty]
HPDrainRate:6
CircleSize:5
OverallDifficulty:7
ApproachRate:8
SliderMultiplier:1.4
SliderTickRate:1

[Events]
//Background and Video events
0,0,"saya 2.png"
//Break Periods
2,32783,33373
2,63294,79475
2,155979,159552
//Storyboard Layer 0 (Background)
//Storyboard Layer 1 (Fail)
//Storyboard Layer 2 (Pass)
//Storyboard Layer 3 (Foreground)
//Storyboard Sound Samples
//Background Colour Transformations
3,100,163,162,255

[TimingPoints]
245,384.985563041386,4,1,0,100,1,0

[Colours]
Combo1 : 255,255,255
Combo2 : 0,0,0
Combo3 : 121,34,34

[HitObjects]
72,320,6404,1,0
112,232,6597,1,0
112,232,6693,1,0
256,200,6886,2,0,B|256:240,1,35
184,240,7270,2,0,B|184:192,1,35
256,200,7559,2,0,B|256:256,1,35
256,235,7752,1,0
328,200,7944,5,0
328,256,8137,1,0
328,256,8233,1,0
328,320,8425,2,0,B|368:320,1,35
416,272,8810,2,0,B|416:232,1,35
384,192,9099,2,0,B|320:192,1,35
352,192,9388,1,0
280,192,9484,5,0
272,120,9677,2,0,B|224:120,1,35
184,160,9965,2,0,B|168:200,1,35
144,264,10350,1,0
144,264,10447,1,0
80,304,10639,1,0
144,352,10832,1,0
144,352,10928,1,0
144,352,11024,1,0
192,288,11217,5,0
192,288,11313,1,0
248,240,11505,2,0,B|280:200,1,35
280,160,11890,2,0,B|240:128,1,35
192,96,12179,1,0
192,96,12275,1,0
192,96,12372,1,0
144,160,12564,6,0,B|208:216,1,70
196,206,12853,1,0
240,168,13045,1,0
240,168,13142,1,0
288,128,13430,1,0
288,128,13527,1,0
328,168,13719,1,0
272,248,13911,1,0
272,248,14008,1,0
272,248,14104,1,0
120,240,14296,6,0,B|120:192,1,35
192,208,14585,2,0,B|192:256,1,35
192,312,14970,2,0,B|240:312,1,35
304,312,15259,1,0
304,312,15355,1,0
304,312,15451,1,0
384,312,15644,6,0,B|384:240,1,70
384,242,15933,1,0
304,240,16125,1,0
304,240,16221,1,0
232,240,16510,2,0,B|232:192,1,35
232,160,16799,1,0
232,120,16991,1,0
232,120,17088,1,0
232,120,17184,1,0
232,80,17376,6,0,B|232:32,1,35
280,48,17665,1,0
280,48,17761,1,0
336,48,18050,2,0,B|376:48,1,35
408,104,18339,1,0
408,104,18435,1,0
408,104,18531,1,0
384,176,18724,6,0,B|312:176,2,70
384,248,19205,1,0
384,248,19301,1,0
320,248,19494,2,0,B|248:248,1,70
248,248,19783,2,0,B|176:248,1,70
128,248,20264,6,0,B|128:192,1,35
128,152,20745,1,0
128,88,21034,2,0,B|208:88,3,70
248,88,21804,6,0,B|288:88,1,35
283,88,22092,1,0
352,88,22285,2,0,B|352:128,1,35
360,184,22670,2,0,B|408:184,1,35
400,248,22959,2,0,B|320:248,1,70
264,248,23344,6,0,B|264:320,1,70
264,320,23632,1,0
208,320,23825,1,0
208,320,23921,1,0
208,320,24114,1,0
208,320,24210,1,0
208,272,24402,2,0,B|208:224,1,35
208,200,24595,2,0,B|208:160,3,35
208,112,25076,5,0
208,112,25172,1,0
256,80,25365,1,0
256,80,25461,1,0
312,80,25654,2,0,B|400:80,1,70
416,120,26039,1,0
416,176,26231,1,0
400,232,26520,6,0,B|360:280|296:232,1,105
280,232,26905,1,0
280,232,27001,1,0
224,216,27193,2,0,B|184:200|136:224,1,70
152,184,27482,2,0,B|152:144,1,35
184,144,27675,2,0,B|224:144,3,35
272,144,28156,1,0
272,144,28252,1,0
272,144,28445,1,0
272,144,28541,1,0
344,184,28733,5,0
344,184,28830,1,0
344,184,28926,1,0
344,256,29118,2,0,B|272:256,1,70
272,304,29407,2,0,B|272:352,1,35
216,344,29696,2,0,B|176:344,1,35
112,320,29985,1,0
112,320,30081,1,0
152,256,30273,6,0,B|120:216|120:192,1,70
120,136,30658,2,0,B|120:88|160:48,1,70
200,64,31043,6,0,B|248:32|304:32|384:72,1,175
368,104,31621,2,0,B|368:152,1,35
272,136,31813,1,0
200,224,32006,1,0
304,224,32198,1,0
256,296,32391,1,0
144,296,32583,1,0
200,320,34123,6,0,B|248:352|304:352|384:312,1,175
368,280,34701,2,0,B|368:232,1,35
272,248,34893,1,0
200,160,35086,1,0
304,160,35278,1,0
256,88,35471,1,0
144,88,35663,1,0
128,176,37203,6,0,B|200:176,2,70
128,248,37780,1,0
192,248,37973,2,0,B|264:248,1,70
264,248,38262,2,0,B|336:248,1,70
384,248,38743,6,0,B|384:192,1,35
384,213,39031,1,0
384,152,39224,1,0
384,152,39320,1,0
384,88,39513,2,0,B|304:88,3,70
264,88,40283,6,0,B|224:88,1,35
229,88,40571,1,0
160,88,40764,2,0,B|160:128,1,35
152,184,41149,2,0,B|104:184,1,35
112,248,41438,2,0,B|192:248,1,70
248,248,41919,6,0,B|248:320,1,70
304,320,42304,1,0
304,320,42400,1,0
304,320,42593,1,0
304,320,42689,1,0
304,272,42881,2,0,B|304:224,1,35
304,200,43074,2,0,B|304:160,3,35
304,112,43555,5,0
304,112,43651,1,0
256,80,43844,1,0
256,80,43940,1,0
200,80,44133,2,0,B|112:80,1,70
96,120,44518,1,0
96,176,44710,1,0
96,176,44806,1,0
112,232,44999,6,0,B|152:280|216:232,1,105
232,232,45384,1,0
232,232,45480,1,0
288,216,45672,2,0,B|328:200|376:224,1,70
360,184,45961,2,0,B|360:144,1,35
328,144,46154,2,0,B|288:144,3,35
240,144,46635,1,0
240,144,46731,1,0
240,144,46924,1,0
240,144,47020,1,0
168,184,47212,5,0
168,184,47309,1,0
168,184,47405,1,0
168,256,47597,2,0,B|240:256,1,70
240,304,47886,2,0,B|240:352,1,35
296,344,48175,2,0,B|336:344,1,35
400,320,48464,1,0
400,320,48560,1,0
360,256,48752,6,0,B|392:216|392:192,1,70
392,136,49137,2,0,B|392:88|352:48,1,70
72,320,49523,1,0
112,232,49716,1,0
112,232,49812,1,0
256,200,50005,2,0,B|256:240,1,35
184,240,50389,2,0,B|184:192,1,35
256,200,50678,2,0,B|256:256,1,35
256,235,50871,1,0
328,200,51063,5,0
328,256,51256,1,0
328,256,51352,1,0
328,320,51544,2,0,B|368:320,1,35
416,272,51929,2,0,B|416:232,1,35
384,192,52218,2,0,B|320:192,1,35
280,192,52603,5,0
272,120,52796,2,0,B|224:120,1,35
184,160,53084,2,0,B|168:200,1,35
144,264,53469,1,0
144,264,53566,1,0
80,304,53758,1,0
144,352,53951,1,0
144,352,54047,1,0
144,352,54143,1,0
192,288,54336,5,0
192,288,54432,1,0
248,240,54624,2,0,B|280:200,1,35
280,160,55009,2,0,B|240:128,1,35
208,96,55297,2,0,B|168:64,1,35
144,160,55683,6,0,B|208:216,1,70
196,206,55972,1,0
240,168,56164,1,0
240,168,56261,1,0
288,128,56549,1,0
288,128,56646,1,0
328,168,56838,1,0
272,248,57030,1,0
272,248,57127,1,0
272,248,57223,1,0
120,240,57415,6,0,B|120:192,1,35
192,208,57704,2,0,B|192:256,1,35
192,312,58089,2,0,B|240:312,1,35
288,312,58377,2,0,B|336:312,1,35
384,312,58763,6,0,B|384:240,1,70
384,242,59052,1,0
304,240,59244,1,0
304,240,59340,1,0
232,240,59629,2,0,B|232:192,1,35
232,160,59918,1,0
232,120,60110,1,0
232,120,60302,1,0
232,80,60495,6,0,B|232:32,1,35
280,48,60784,1,0
280,48,60880,1,0
336,48,61169,2,0,B|376:48,1,35
408,104,61458,1,0
408,104,61554,1,0
408,104,61650,1,0
384,176,61843,6,0,B|312:176,2,70
384,248,62324,1,0
384,248,62420,1,0
320,248,62613,2,0,B|248:248,1,70
248,248,62902,2,0,B|176:248,1,70
440,64,80225,5,0
400,152,80418,1,0
400,152,80514,1,0
256,184,80707,2,0,B|256:144,1,35
328,144,81091,2,0,B|328:192,1,35
256,184,81380,2,0,B|256:128,1,35
256,149,81573,1,0
184,184,81765,5,0
184,128,81958,1,0
184,128,82054,1,0
184,64,82246,2,0,B|144:64,1,35
96,112,82631,2,0,B|96:152,1,35
128,192,82920,2,0,B|192:192,1,35
160,192,83209,1,0
232,192,83305,5,0
240,264,83498,2,0,B|288:264,1,35
328,224,83786,2,0,B|344:184,1,35
368,120,84171,1,0
368,120,84268,1,0
432,80,84460,1,0
368,32,84653,1,0
368,32,84749,1,0
368,32,84845,1,0
320,96,85038,5,0
320,96,85134,1,0
264,144,85326,2,0,B|232:184,1,35
232,224,85711,2,0,B|272:256,1,35
320,288,86000,1,0
320,288,86096,1,0
320,288,86193,1,0
368,224,86385,6,0,B|304:168,1,70
316,178,86674,1,0
272,216,86866,1,0
272,216,86963,1,0
224,256,87251,1,0
224,256,87348,1,0
184,216,87540,1,0
240,136,87732,1,0
240,136,87829,1,0
240,136,87925,1,0
392,144,88117,6,0,B|392:192,1,35
320,176,88406,2,0,B|320:128,1,35
320,72,88791,2,0,B|272:72,1,35
208,72,89080,1,0
208,72,89176,1,0
208,72,89272,1,0
128,72,89465,6,0,B|128:144,1,70
128,142,89754,1,0
208,144,89946,1,0
208,144,90042,1,0
280,144,90331,2,0,B|280:192,1,35
280,224,90620,1,0
280,264,90812,1,0
280,264,90909,1,0
280,264,91005,1,0
280,304,91197,6,0,B|280:352,1,35
232,336,91486,1,0
232,336,91582,1,0
176,336,91871,2,0,B|136:336,1,35
104,280,92160,1,0
104,280,92256,1,0
104,280,92352,1,0
128,208,92545,6,0,B|200:208,2,70
128,136,93026,1,0
128,136,93122,1,0
192,136,93315,2,0,B|264:136,1,70
264,136,93604,2,0,B|336:136,1,70
384,136,94085,6,0,B|384:192,1,35
384,171,94373,1,0
384,232,94566,1,0
384,232,94662,1,0
384,296,94855,2,0,B|304:296,3,70
264,296,95625,6,0,B|224:296,1,35
229,296,95913,1,0
160,296,96106,2,0,B|160:256,1,35
152,200,96491,2,0,B|104:200,1,35
112,136,96780,2,0,B|192:136,1,70
248,136,97165,6,0,B|248:64,1,70
248,64,97453,1,0
304,64,97646,1,0
304,64,97742,1,0
304,64,97935,1,0
304,64,98031,1,0
304,112,98223,2,0,B|304:160,1,35
304,184,98416,2,0,B|304:224,3,35
304,272,98897,5,0
304,272,98993,1,0
256,304,99186,1,0
256,304,99282,1,0
200,304,99475,2,0,B|112:304,1,70
96,264,99860,1,0
96,208,100052,1,0
96,208,100148,1,0
112,152,100341,6,0,B|152:104|216:152,1,105
232,152,100726,1,0
232,152,100822,1,0
288,168,101014,2,0,B|328:184|376:160,1,70
360,200,101303,2,0,B|360:240,1,35
328,240,101496,2,0,B|288:240,3,35
240,240,101977,1,0
240,240,102073,1,0
240,240,102266,1,0
240,240,102362,1,0
168,200,102554,5,0
168,200,102651,1,0
168,200,102747,1,0
168,128,102939,2,0,B|240:128,1,70
240,80,103228,2,0,B|240:32,1,35
296,40,103517,2,0,B|336:40,1,35
400,64,103806,1,0
400,64,103902,1,0
360,128,104094,6,0,B|392:168|392:192,1,70
392,248,104479,2,0,B|392:296|352:336,1,70
256,192,104961,12,0,110543
384,208,111024,6,0,B|312:208,2,70
384,136,111601,1,0
320,136,111794,2,0,B|248:136,1,70
248,136,112083,2,0,B|176:136,1,70
128,136,112564,6,0,B|128:192,1,35
128,171,112852,1,0
128,232,113045,1,0
128,232,113141,1,0
128,296,113334,2,0,B|208:296,3,70
248,296,114104,6,0,B|288:296,1,35
283,296,114392,1,0
352,296,114585,2,0,B|352:256,1,35
360,200,114970,2,0,B|408:200,1,35
400,136,115259,2,0,B|320:136,1,70
264,136,115740,6,0,B|264:64,1,70
208,64,116125,1,0
208,64,116221,1,0
208,64,116414,1,0
208,64,116510,1,0
208,112,116702,2,0,B|208:160,1,35
208,184,116895,2,0,B|208:224,3,35
208,272,117376,5,0
208,272,117472,1,0
256,304,117665,1,0
256,304,117761,1,0
312,304,117954,2,0,B|400:304,1,70
416,264,118339,1,0
416,208,118531,1,0
416,208,118627,1,0
400,152,118820,6,0,B|360:104|296:152,1,105
280,152,119205,1,0
280,152,119301,1,0
224,168,119493,2,0,B|184:184|136:160,1,70
152,200,119782,2,0,B|152:240,1,35
184,240,119975,2,0,B|224:240,3,35
272,240,120456,1,0
272,240,120552,1,0
272,240,120745,1,0
272,240,120841,1,0
344,200,121033,5,0
344,200,121130,1,0
344,200,121226,1,0
344,128,121418,2,0,B|272:128,1,70
272,80,121707,2,0,B|272:32,1,35
216,40,121996,2,0,B|176:40,1,35
112,64,122285,1,0
112,64,122381,1,0
152,128,122574,6,0,B|120:168|120:192,1,70
120,248,122958,2,0,B|120:296|160:336,1,70
440,64,123344,1,0
400,152,123537,1,0
400,152,123633,1,0
256,184,123826,2,0,B|256:144,1,35
328,144,124210,2,0,B|328:192,1,35
256,184,124499,2,0,B|256:128,1,35
256,149,124692,1,0
184,184,124884,5,0
184,128,125077,1,0
184,128,125173,1,0
184,64,125365,2,0,B|144:64,1,35
96,112,125750,2,0,B|96:152,1,35
128,192,126039,2,0,B|192:192,1,35
232,192,126424,5,0
240,264,126617,2,0,B|288:264,1,35
328,224,126905,2,0,B|344:184,1,35
368,120,127290,1,0
368,120,127387,1,0
432,80,127579,1,0
368,32,127772,1,0
368,32,127868,1,0
368,32,127964,1,0
320,96,128157,5,0
320,96,128253,1,0
264,144,128445,2,0,B|232:184,1,35
232,224,128830,2,0,B|272:256,1,35
312,288,129215,2,0,B|352:320,1,35
368,224,129504,6,0,B|304:168,1,70
316,178,129793,1,0
272,216,129985,1,0
272,216,130082,1,0
224,256,130370,1,0
224,256,130467,1,0
184,216,130659,1,0
240,136,130851,1,0
240,136,130948,1,0
240,136,131044,1,0
392,144,131236,6,0,B|392:192,1,35
320,176,131525,2,0,B|320:128,1,35
320,72,131910,2,0,B|272:72,1,35
224,72,132295,2,0,B|176:72,1,35
128,72,132584,6,0,B|128:144,1,70
128,142,132873,1,0
208,144,133065,1,0
208,144,133161,1,0
280,144,133450,2,0,B|280:192,1,35
280,224,133739,1,0
280,264,133931,1,0
280,264,134123,1,0
280,304,134316,6,0,B|280:352,1,35
232,336,134605,1,0
232,336,134701,1,0
176,336,134990,2,0,B|136:336,1,35
80,336,135279,1,0
80,336,135375,1,0
80,336,135471,1,0
56,264,135567,1,0
112,232,135760,1,0
112,232,135856,1,0
256,200,136049,2,0,B|256:240,1,35
184,240,136433,2,0,B|184:192,1,35
256,200,136722,2,0,B|256:256,1,35
256,235,136915,1,0
328,200,137107,5,0
328,256,137300,1,0
328,256,137396,1,0
328,320,137588,2,0,B|368:320,1,35
416,272,137973,2,0,B|416:232,1,35
384,192,138262,2,0,B|320:192,1,35
280,192,138647,5,0
272,120,138840,2,0,B|224:120,1,35
184,160,139128,2,0,B|168:200,1,35
144,264,139513,1,0
144,264,139610,1,0
80,304,139802,1,0
144,352,139995,1,0
144,352,140091,1,0
144,352,140187,1,0
192,288,140380,5,0
192,288,140476,1,0
248,240,140668,2,0,B|280:200,1,35
280,160,141053,2,0,B|240:128,1,35
200,96,141438,2,0,B|144:96,1,35
144,160,141727,6,0,B|208:216,1,70
196,206,142016,1,0
240,168,142208,1,0
240,168,142305,1,0
288,128,142593,1,0
288,128,142690,1,0
328,168,142882,1,0
272,248,143074,1,0
272,248,143171,1,0
272,248,143267,1,0
120,240,143459,6,0,B|120:192,1,35
192,208,143748,2,0,B|192:256,1,35
192,312,144133,2,0,B|240:312,1,35
288,312,144422,2,0,B|336:312,1,35
384,312,144807,6,0,B|384:240,1,70
384,242,145096,1,0
304,240,145288,1,0
304,240,145384,1,0
232,240,145673,2,0,B|232:192,1,35
232,160,145962,1,0
232,120,146154,1,0
232,120,146346,1,0
232,80,146539,6,0,B|232:32,1,35
280,48,146828,1,0
280,48,146924,1,0
336,48,147213,2,0,B|376:48,1,35
408,104,147502,1,0
408,104,147598,1,0
408,104,147694,1,0
256,192,147983,12,0,151063
256,192,151159,12,0,155779
72,320,160302,5,0
112,232,160495,1,0
112,232,160591,1,0
256,200,160784,2,0,B|256:240,1,35
184,240,161168,2,0,B|184:192,1,35
256,200,161457,2,0,B|256:256,1,35
256,235,161650,1,0
328,200,161842,5,0
328,256,162035,1,0
328,256,162131,1,0
328,320,162323,2,0,B|368:320,1,35
416,272,162708,2,0,B|416:232,1,35
384,192,162997,2,0,B|320:192,1,35
352,192,163286,1,0
280,192,163382,5,0
272,120,163575,2,0,B|224:120,1,35
184,160,163863,2,0,B|168:200,1,35
144,264,164248,1,0
144,264,164345,1,0
80,304,164537,1,0
144,352,164730,1,0
144,352,164826,1,0
144,352,164922,1,0
192,288,165115,5,0
192,288,165211,1,0
248,240,165403,2,0,B|280:200,1,35
280,160,165788,2,0,B|240:128,1,35
192,96,166077,1,0
192,96,166173,1,0
192,96,166270,1,0
144,160,166462,6,0,B|208:216,1,70
196,206,166751,1,0
240,168,166943,1,0
240,168,167040,1,0
288,128,167328,1,0
288,128,167425,1,0
328,168,167617,1,0
272,248,167809,1,0
272,248,167906,1,0
272,248,168002,1,0
120,240,168194,6,0,B|120:192,1,35
192,208,168483,2,0,B|192:256,1,35
192,312,168868,2,0,B|240:312,1,35
304,312,169157,1,0
304,312,169253,1,0
304,312,169349,1,0
384,312,169542,6,0,B|384:240,1,70
384,242,169831,1,0
304,240,170023,1,0
304,240,170119,1,0
232,240,170408,2,0,B|232:192,1,35
232,160,170697,1,0
232,120,170889,1,0
232,120,170986,1,0
232,120,171082,1,0
232,80,171274,6,0,B|232:32,1,35
280,48,171563,1,0
280,48,171659,1,0
336,48,171948,2,0,B|376:48,1,35
408,104,172237,1,0
408,104,172333,1,0
408,104,172429,1,0
72,320,172622,1,0
112,232,172815,1,0
112,232,172911,1,0
256,200,173104,2,0,B|256:240,1,35
184,240,173488,2,0,B|184:192,1,35
256,200,173777,2,0,B|256:256,1,35
256,235,173970,1,0
328,200,174162,5,0
328,256,174355,1,0
328,256,174451,1,0
328,320,174643,2,0,B|368:320,1,35
416,272,175028,2,0,B|416:232,1,35
384,192,175317,2,0,B|320:192,1,35
352,192,175606,1,0
280,192,175702,5,0
272,120,175895,2,0,B|224:120,1,35
184,160,176183,2,0,B|168:200,1,35
144,264,176568,1,0
144,264,176665,1,0
80,304,176857,1,0
144,352,177050,1,0
144,352,177146,1,0
144,352,177242,1,0
192,288,177435,5,0
192,288,177531,1,0
248,240,177723,2,0,B|280:200,1,35
280,160,178108,2,0,B|240:128,1,35
192,96,178397,1,0
192,96,178493,1,0
192,96,178590,1,0
144,160,178782,6,0,B|208:216,1,70
196,206,179071,1,0
240,168,179263,1,0
240,168,179360,1,0
288,128,179648,1,0
288,128,179745,1,0
328,168,179937,1,0
272,248,180129,1,0
272,248,180226,1,0
272,248,180322,1,0
120,240,180514,6,0,B|120:192,1,35
192,208,180803,2,0,B|192:256,1,35
192,312,181188,2,0,B|240:312,1,35
304,312,181477,1,0
304,312,181573,1,0
304,312,181669,1,0
384,312,181862,6,0,B|384:240,1,70
384,242,182151,1,0
304,240,182343,1,0
304,240,182439,1,0
232,240,182728,2,0,B|232:192,1,35
232,160,183017,1,0
232,120,183209,1,0
232,120,183306,1,0
232,120,183402,1,0
232,80,183594,6,0,B|232:32,1,35
280,48,183883,1,0
280,48,183979,1,0
336,48,184268,2,0,B|376:48,1,35
408,104,184557,1,0
408,104,184653,1,0
408,104,184749,1,0
152,80,185038,6,0,B|80:80,1,70
80,144,185423,2,0,B|80:192,1,35
80,248,185711,2,0,B|80:296,1,35
152,280,186000,1,0
224,280,186193,2,0,B|264:280,1,35
320,144,186578,6,0,B|320:184,1,35
320,248,186866,1,0
320,248,186962,1,0
320,320,187155,2,0,B|272:320,2,35
400,320,187540,2,0,B|400:248,1,70
400,184,187925,1,0
400,184,188021,1,0
360,96,188214,6,0,B|416:96,6,35
296,96,188984,6,0,B|240:96,5,35
328,152,189657,6,0,B|328:208,6,35
328,256,190620,2,0,B|288:256,1,35
293,256,190812,1,0
232,256,191101,1,0
232,256,191197,1,0
160,256,191390,2,0,B|184:216|112:224|184:192|176:160,3,105
184,96,192545,5,0
256,96,192737,2,0,B|256:144,1,35
256,200,193026,1,0
256,200,193122,1,0
256,200,193219,1,0
256,272,193411,2,0,B|304:272,1,35
360,272,193700,5,0
360,272,193796,1,0
360,272,193892,1,0
256,192,194085,12,0,196972
