osu file format v14

[General]
AudioFilename: fubuki.mp3
AudioLeadIn: 1500
PreviewTime: 58740
Countdown: 0
SampleSet: Soft
StackLeniency: 0.7
Mode: 0
LetterboxInBreaks: 1
WidescreenStoryboard: 1

[Editor]
Bookmarks: 7406
DistanceSpacing: 1.1
BeatDivisor: 4
GridSize: 4
TimelineZoom: 3.199999

[Metadata]
Title:FUBUKI
TitleUnicode:吹雪
Artist:Nishizawa Shiena
ArtistUnicode:西沢幸奏
Creator:Mei_coN
Version:Normal
Source:Fleet Girls Collection KanColle Animation Sequence
Tags:艦隊これくしょん -艦これ- ending nymph
BeatmapID:614943
BeatmapSetID:268545

[Difficulty]
HPDrainRate:3
CircleSize:3
OverallDifficulty:3
ApproachRate:4
SliderMultiplier:1.2
SliderTickRate:1

[Events]
//Background and Video events
0,0,"fubuki.jpg",0,0
Video,0,"[HorribleSubs]+Kantai+Collection+-+02+[720p].avi"
//Break Periods
//Storyboard Layer 0 (Background)
//Storyboard Layer 1 (Fail)
//Storyboard Layer 2 (Pass)
//Storyboard Layer 3 (Foreground)
//Storyboard Sound Samples

[TimingPoints]
-581,333.333333333333,4,2,1,100,1,0
85,-100,4,3,1,60,0,0
11418,-100,4,3,1,5,0,0
12752,-100,4,3,1,60,0,0
14085,-100,4,2,1,70,0,1
24752,-100,4,2,1,70,0,0
25085,-100,4,2,2,60,0,0
46168,-100,4,3,1,60,0,0
50918,-100,4,2,1,60,0,0
54085,-100,4,2,4,60,0,0
55418,-100,4,2,4,70,0,0
56752,-100,4,2,4,80,0,0
58085,-100,4,2,4,90,0,0
59418,-100,4,2,3,70,0,1
86085,-100,4,2,3,70,0,0

[Colours]
Combo1 : 247,247,0
Combo2 : 0,136,202
Combo3 : 255,40,40
Combo4 : 30,255,86

[HitObjects]
80,44,85,6,0,P|64:164|172:236,1,240,0|4,0:0|0:0,0:0:0:0:
392,336,1418,2,0,P|408:216|300:144,1,240,0|0,0:0|0:0,0:0:0:0:
96,280,2752,6,0,P|156:292|216:268,1,120
209,143,3418,2,0,P|269:131|337:155,1,120,4|0,0:0|0:0,0:0:0:0:
440,84,4085,2,0,P|452:140|440:200,1,120
360,304,4752,2,0,B|264:264|208:340|120:288,1,240,0|0,0:0|0:0,0:0:0:0:
64,176,5752,1,0,0:0:0:0:
188,128,6085,6,0,P|168:84|88:52,2,120,4|0|0,0:0|0:0|0:0,0:0:0:0:
256,240,7085,1,0,0:0:0:0:
324,128,7418,2,0,P|344:84|424:52,2,120,4|0|0,0:0|0:0|0:0,0:0:0:0:
256,240,8418,1,0,0:0:0:0:
352,328,8752,6,0,P|416:320|464:280,1,120,4|0,0:0|0:0,0:0:0:0:
376,184,9418,2,0,P|351:124|291:80,1,120,4|0,0:0|0:0,0:0:0:0:
184,48,10085,1,4,0:0:0:0:
80,128,10418,1,0,0:0:0:0:
80,260,10752,1,4,0:0:0:0:
184,340,11085,1,0,0:0:0:0:
256,192,11418,12,0,12752,0:0:0:0:
396,48,14085,6,0,P|392:116|412:180,1,120,6|8,0:0|0:0,0:0:0:0:
476,276,14752,2,0,P|420:296|352:288,1,120,2|8,0:0|0:0,0:0:0:0:
300,176,15418,2,0,P|248:160|172:176,1,120,2|8,0:0|0:0,0:0:0:0:
128,288,16085,2,0,L|68:296,2,60,2|0|8,0:0|0:0|0:0,0:0:0:0:
236,364,16752,6,0,P|244:304|216:232,1,120,2|8,0:0|0:0,0:0:0:0:
148,144,17418,2,0,P|206:126|281:143,1,120,2|8,0:0|0:0,0:0:0:0:
348,236,18085,2,0,P|428:240|468:220,1,120,2|8,0:0|0:0,0:0:0:0:
479,93,18752,1,2,0:0:0:0:
368,20,19085,1,8,0:0:0:0:
307,137,19418,6,0,P|231:153|183:129,1,120,2|8,0:0|0:0,0:0:0:0:
139,100,19918,1,0,0:0:0:0:
111,160,20085,2,0,P|95:224|111:296,1,120,2|8,0:0|0:0,0:0:0:0:
232,302,20752,2,0,P|292:318|364:294,3,120,2|10|2|10,0:0|0:0|0:0|0:0,0:0:0:0:
464,244,22085,6,0,P|472:168|456:104,1,120,2|8,0:0|0:0,0:0:0:0:
412,84,22585,1,0,0:0:0:0:
364,128,22752,2,0,P|304:140|224:112,1,120,2|8,0:0|0:0,0:0:0:0:
136,56,23418,2,0,P|120:120|128:176,1,120,2|10,0:0|0:0,0:0:0:0:
256,208,24085,2,0,B|284:264|220:276|284:340,2,120,2|10|4,0:0|0:0|0:0,0:0:0:0:
164,112,25085,6,0,P|100:108|40:128,1,120,8|0,0:0|0:0,0:0:0:0:
100,248,25752,2,0,L|88:320,2,60,8|0|0,0:0|0:0|0:0,0:0:0:0:
224,292,26418,2,0,L|304:288,1,60,8|0,0:0|0:0,0:0:0:0:
348,312,26752,2,0,P|376:260|376:188,1,120,0|8,0:0|0:0,0:0:0:0:
452,88,27418,6,0,P|400:68|320:80,1,120,0|8,0:0|0:0,0:0:0:0:
288,196,28085,2,0,P|231:209|164:180,1,120,0|8,0:0|0:0,0:0:0:0:
44,168,28752,2,0,L|40:48,2,120,0|8|0,0:0|0:0|0:0,0:0:0:0:
128,272,29752,2,0,L|196:264,1,60,8|0,0:0|0:0,0:0:0:0:
224,208,30085,6,0,P|272:188|352:208,1,120,2|8,0:0|0:0,0:0:0:0:
368,260,30585,1,0,0:0:0:0:
416,212,30752,2,0,P|428:160|420:88,1,120,2|8,0:0|0:0,0:0:0:0:
292,64,31418,6,0,P|208:56|164:72,1,120,2|8,0:0|0:0,0:0:0:0:
68,148,32085,2,0,L|4:144,2,60,2|0|10,0:0|0:0|0:0,0:0:0:0:
112,272,32752,6,0,P|172:288|228:268,1,120,2|8,0:0|0:0,0:0:0:0:
276,312,33252,1,0,0:0:0:0:
280,248,33418,2,0,L|288:124,1,120,2|8,0:0|0:0,0:0:0:0:
368,24,34085,6,0,P|428:35|474:71,1,120,2|8,0:0|0:0,0:0:0:0:
424,192,34752,2,0,L|420:260,1,60,2|0,0:0|0:0,0:0:0:0:
412,316,35085,1,10,0:0:0:0:
280,336,35418,6,0,P|232:360|156:340,1,120,4|8,0:0|0:0,0:0:0:0:
44,304,36085,1,0,0:0:0:0:
80,176,36418,2,0,L|76:104,2,60,8|0|0,0:0|0:0|0:0,0:0:0:0:
212,192,37085,2,0,L|216:264,2,60,8|0|0,0:0|0:0|0:0,0:0:0:0:
200,60,37752,1,8,0:0:0:0:
212,192,38085,6,0,P|288:210|344:184,1,120,0|8,0:0|0:0,0:0:0:0:
368,72,38752,2,0,P|432:56|492:68,1,120,0|8,0:0|0:0,0:0:0:0:
436,188,39418,2,0,L|448:320,3,120,0|8|0|8,0:0|0:0|0:0|0:0,0:0:0:0:
316,316,40752,6,0,P|248:300|188:324,1,120,2|8,0:0|0:0,0:0:0:0:
152,360,41252,1,0,0:0:0:0:
116,304,41418,2,0,P|92:256|112:176,1,120,2|8,0:0|0:0,0:0:0:0:
48,72,42085,6,8,P|100:60|164:80,1,120,2|8,0:0|0:0,0:0:0:0:
256,172,42752,1,2,0:0:0:0:
256,304,43085,1,10,0:0:0:0:
384,332,43418,6,0,P|460:324|496:292,1,120,2|8,0:0|0:0,0:0:0:0:
508,232,43918,1,0,0:0:0:0:
500,168,44085,2,0,P|459:120|398:99,1,120,2|8,0:0|0:0,0:0:0:0:
280,64,44752,5,2,0:0:0:0:
152,88,45085,1,8,0:0:0:0:
184,216,45418,1,2,0:0:0:0:
312,184,45752,1,10,0:0:0:0:
184,216,46085,6,0,B|96:240|36:112|128:52,1,240,4|0,0:0|0:0,0:0:0:0:
332,216,47418,2,0,B|420:240|480:112|388:52,1,240,4|0,0:0|0:0,0:0:0:0:
312,308,48752,6,0,P|232:320|184:304,1,120,4|0,0:0|0:0,0:0:0:0:
152,260,49252,1,0,0:0:0:0:
124,200,49418,2,0,P|116:140|132:80,1,120,4|0,0:0|0:0,0:0:0:0:
256,128,50085,2,0,L|256:64|256:0,2,120,4|0|4,0:0|0:0|0:0,0:0:0:0:
256,260,51085,1,8,0:0:0:0:
376,316,51418,6,0,P|440:292|460:240,1,120,4|8,0:0|0:0,0:0:0:0:
460,180,51918,1,0,0:0:0:0:
444,116,52085,2,0,P|392:76|332:72,1,120,0|8,0:0|0:0,0:0:0:0:
252,168,52752,2,0,P|176:152|116:168,2,120,0|8|0,0:0|0:0|0:0,0:0:0:0:
256,300,53752,1,8,0:0:0:0:
252,168,54085,6,0,P|332:152|424:192,2,180,4|8|8,0:0|0:0|0:0,0:0:0:0:
124,192,55418,2,0,P|108:112|148:20,2,180,4|8|8,0:0|0:0|0:0,0:0:0:0:
256,192,56752,2,0,P|272:272|232:364,2,180,4|8|8,0:0|0:0|0:0,0:0:0:0:
256,60,58085,2,0,L|256:0,2,60,4|4|4,0:0|0:0|0:0,0:0:0:0:
104,56,59418,6,0,P|88:120|96:176,1,120,6|10,0:0|0:0,0:0:0:0:
176,276,60085,2,0,P|228:304|296:296,1,120,2|10,0:0|0:0,0:0:0:0:
404,236,60752,2,0,P|416:296|404:356,2,120,2|10|2,0:0|0:0|0:0,0:0:0:0:
308,144,61752,1,10,0:0:0:0:
208,228,62085,6,0,P|128:216|92:176,1,120,2|10,0:0|0:0,0:0:0:0:
92,124,62585,1,0,0:0:0:0:
132,72,62752,2,0,P|192:64|264:96,1,120,2|10,0:0|0:0,0:0:0:0:
372,40,63418,2,2,P|372:112|352:160,3,120,2|10|2|10,0:0|0:0|0:0|0:0,0:0:0:0:
304,276,64752,6,0,P|248:288|172:268,1,120,2|10,0:0|0:0,0:0:0:0:
124,160,65418,2,0,P|180:152|244:168,1,120,2|10,0:0|0:0,0:0:0:0:
360,220,66085,2,0,L|372:80,1,120,2|10,0:0|0:0,0:0:0:0:
332,48,66585,2,0,L|264:36,1,60,0|2,0:0|0:0,0:0:0:0:
140,24,67085,1,10,0:0:0:0:
40,112,67418,6,0,P|24:168|40:244,1,120,2|10,0:0|0:0,0:0:0:0:
164,228,68085,2,0,P|224:224|288:268,1,120,2|10,0:0|0:0,0:0:0:0:
304,312,68585,1,0,0:0:0:0:
348,260,68752,2,0,P|360:216|352:136,1,120,2|10,0:0|0:0,0:0:0:0:
296,24,69418,6,0,P|240:48|164:20,1,120,2|10,0:0|0:0,0:0:0:0:
120,40,69918,1,0,0:0:0:0:
164,92,70085,2,0,P|172:148|156:216,1,120,4|10,0:0|0:0,0:0:0:0:
196,336,70752,6,0,P|280:328|320:304,1,120,2|10,0:0|0:0,0:0:0:0:
336,252,71252,1,0,0:0:0:0:
272,232,71418,2,0,P|264:152|288:104,1,120,2|10,0:0|0:0,0:0:0:0:
364,16,72085,6,0,P|424:60|436:116,1,120,2|10,0:0|0:0,0:0:0:0:
416,164,72585,1,0,0:0:0:0:
464,212,72752,2,0,L|468:340,3,120,6|10|6|10,0:0|0:0|0:0|0:0,0:0:0:0:
352,268,74085,2,0,P|242:282|141:201,1,240,6|2,0:0|0:0,0:0:0:0:
256,136,75085,1,10,0:0:0:0:
380,172,75418,6,0,L|512:160,2,120,6|6|6,0:0|0:0|0:0,0:0:0:0:
256,224,76418,1,10,0:0:0:0:
132,172,76752,2,0,L|0:160,2,120,6|6|6,0:0|0:0|0:0,0:0:0:0:
256,128,77752,1,10,0:0:0:0:
376,68,78085,6,0,P|408:112|404:184,1,120,6|10,0:0|0:0,0:0:0:0:
396,240,78585,1,0,0:0:0:0:
332,228,78752,2,0,P|272:220|208:248,1,120,2|10,0:0|0:0,0:0:0:0:
100,300,79418,6,0,P|76:248|92:168,1,120,2|10,0:0|0:0,0:0:0:0:
44,60,80085,2,0,P|108:56|168:92,1,120,2|10,0:0|0:0,0:0:0:0:
280,132,80752,6,0,P|344:144|404:120,1,120,6|10,0:0|0:0,0:0:0:0:
408,256,81418,2,0,L|468:252,2,60,2|0|10,0:0|0:0|0:0,0:0:0:0:
276,252,82085,6,0,P|196:240|156:248,1,120,6|10,0:0|0:0,0:0:0:0:
108,124,82752,2,0,L|24:120,2,60,2|0|0,0:0|0:0|0:0,0:0:0:0:
256,192,83418,12,4,86085,0:0:0:0:
