osu file format v14

[General]
AudioFilename: fubuki.mp3
AudioLeadIn: 1500
PreviewTime: 58740
Countdown: 0
SampleSet: Soft
StackLeniency: 0.7
Mode: 0
LetterboxInBreaks: 1
WidescreenStoryboard: 1

[Editor]
DistanceSpacing: 1.1
BeatDivisor: 4
GridSize: 4
TimelineZoom: 3.199999

[Metadata]
Title:FUBUKI
TitleUnicode:吹雪
Artist:Nishizawa Shiena
ArtistUnicode:西沢幸奏
Creator:Mei_coN
Version:Easy
Source:Fleet Girls Collection KanColle Animation Sequence
Tags:艦隊これくしょん -艦これ- ending nymph
BeatmapID:614635
BeatmapSetID:268545

[Difficulty]
HPDrainRate:2
CircleSize:2
OverallDifficulty:2
ApproachRate:3
SliderMultiplier:0.799999999999999
SliderTickRate:1

[Events]
//Background and Video events
0,0,"fubuki.jpg",0,0
Video,0,"[HorribleSubs]+Kantai+Collection+-+02+[720p].avi"
//Break Periods
//Storyboard Layer 0 (Background)
//Storyboard Layer 1 (Fail)
//Storyboard Layer 2 (Pass)
//Storyboard Layer 3 (Foreground)
//Storyboard Sound Samples

[TimingPoints]
-581,333.333333333333,4,2,1,100,1,0
85,-100,4,3,1,60,0,0
11418,-100,4,3,1,5,0,0
12752,-100,4,3,1,60,0,0
14085,-100,4,2,1,70,0,1
24752,-100,4,2,1,70,0,0
25085,-100,4,2,2,60,0,0
46168,-100,4,3,1,60,0,0
50918,-100,4,2,1,60,0,0
54085,-100,4,2,4,60,0,0
55418,-100,4,2,4,70,0,0
56752,-100,4,2,4,80,0,0
58085,-100,4,2,4,90,0,0
59418,-100,4,2,3,70,0,1
86085,-100,4,2,3,70,0,0

[Colours]
Combo1 : 247,247,0
Combo2 : 0,136,202
Combo3 : 255,40,40
Combo4 : 30,255,86

[HitObjects]
40,104,85,6,0,P|124:128|200:96,1,160,0|4,0:0|0:0,0:0:0:0:
352,36,1418,2,0,P|432:36|488:88,1,160
428,252,2752,1,0,0:0:0:0:
256,208,3418,2,0,B|220:276|276:304|240:376,2,160,4|0|0,0:0|0:0|0:0,0:0:0:0:
256,32,5418,1,0,0:0:0:0:
84,68,6085,6,0,P|68:140|88:228,1,160,4|0,0:0|0:0,0:0:0:0:
140,292,7085,1,0,0:0:0:0:
220,328,7418,2,0,B|276:340|292:304|292:304|336:344|364:296,1,160,4|0,0:0|0:0,0:0:0:0:
284,144,8752,6,0,P|372:144|408:200,1,160,4|4,0:0|0:0,0:0:0:0:
272,312,10085,2,0,P|184:312|148:256,1,160,4|4,0:0|0:0,0:0:0:0:
256,192,11418,12,4,12751,0:0:0:0:
168,76,14085,6,0,P|240:55|314:95,1,160,6|2,0:0|0:0,0:0:0:0:
396,124,15085,1,8,0:0:0:0:
324,184,15418,2,0,L|320:264,1,79.9999999999999,2|8,0:0|0:0,0:0:0:0:
256,328,16085,1,2,0:0:0:0:
168,340,16418,1,8,0:0:0:0:
112,272,16752,1,2,0:0:0:0:
136,96,17418,6,0,P|180:92|216:96,1,79.9999999999999,2|8,0:0|0:0,0:0:0:0:
304,108,18085,2,0,L|304:28,2,79.9999999999999,2|8|2,0:0|0:0|0:0,0:0:0:0:
304,196,19085,1,8,0:0:0:0:
392,192,19418,6,0,P|424:264|384:344,1,160,2|2,0:0|0:0,0:0:0:0:
308,312,20418,1,8,0:0:0:0:
228,276,20752,2,0,P|184:276|144:280,1,79.9999999999999,2|10,0:0|0:0,0:0:0:0:
68,320,21418,2,0,P|56:276|72:232,1,79.9999999999999,2|10,0:0|0:0,0:0:0:0:
56,156,22085,6,0,P|116:116|200:128,1,160,2|2,0:0|0:0,0:0:0:0:
256,196,23085,1,8,0:0:0:0:
284,280,23418,2,0,P|331:302|372:296,1,79.9999999999999,2|10,0:0|0:0,0:0:0:0:
440,332,24085,2,0,P|444:284|425:243,1,79.9999999999999,2|10,0:0|0:0,0:0:0:0:
412,168,24752,6,0,P|368:112|280:104,1,160,4|0,0:0|0:0,0:0:0:0:
220,164,25752,1,8,0:0:0:0:
144,116,26085,2,0,P|130:160|137:199,1,79.9999999999999,0|8,0:0|0:0,0:0:0:0:
120,280,26752,2,0,P|136:312|188:336,1,79.9999999999999,0|8,0:0|0:0,0:0:0:0:
204,252,27418,2,0,P|272:224|352:256,1,160
406,320,28418,1,8,0:0:0:0:
435,236,28752,6,0,P|443:196|443:148,3,79.9999999999999,0|8|0|8,0:0|0:0|0:0|0:0,0:0:0:0:
384,92,30085,1,2,0:0:0:0:
256,212,30752,1,2,0:0:0:0:
124,96,31418,1,2,0:0:0:0:
256,212,32085,2,0,L|256:304,2,79.9999999999999,2|10|0,0:0|0:0|0:0,0:0:0:0:
88,268,33418,6,0,B|112:224|88:184|88:184|88:184|112:160|120:112,1,160,2|2,0:0|0:0,0:0:0:0:
204,104,34418,1,8,0:0:0:0:
240,184,34752,2,0,P|288:196|328:184,1,79.9999999999999,2|10,0:0|0:0,0:0:0:0:
384,132,35418,6,0,P|432:196|400:280,1,160,4|0,0:0|0:0,0:0:0:0:
336,312,36418,1,8,0:0:0:0:
336,312,36752,2,0,L|320:232,1,79.9999999999999,0|8,0:0|0:0,0:0:0:0:
232,236,37418,2,0,P|196:228|148:240,1,79.9999999999999,0|8,0:0|0:0,0:0:0:0:
96,304,38085,6,0,P|66:229|116:153,1,160
180,124,39085,1,8,0:0:0:0:
180,124,39418,2,0,L|160:32,2,79.9999999999999,0|8|0,0:0|0:0|0:0,0:0:0:0:
256,172,40418,1,8,0:0:0:0:
332,124,40752,6,0,L|352:32,2,79.9999999999999,2|8|2,0:0|0:0|0:0,0:0:0:0:
396,188,41752,1,8,0:0:0:0:
424,272,42085,2,0,L|444:364,2,79.9999999999999,2|8|2,0:0|0:0|0:0,0:0:0:0:
396,188,43085,1,10,0:0:0:0:
332,248,43418,6,0,B|272:288|240:208|168:264,1,160,2|2,0:0|0:0,0:0:0:0:
116,320,44418,1,8,0:0:0:0:
72,244,44752,2,0,P|68:188|80:160,1,79.9999999999999,2|8,0:0|0:0,0:0:0:0:
40,84,45418,2,0,P|80:76|132:96,1,79.9999999999999,2|10,0:0|0:0,0:0:0:0:
192,132,46085,6,0,P|260:152|348:108,1,160,4|0,0:0|0:0,0:0:0:0:
480,224,47418,2,0,P|412:204|324:248,1,160,4|0,0:0|0:0,0:0:0:0:
192,344,48752,6,0,P|168:272|184:188,1,160,4|4,0:0|0:0,0:0:0:0:
256,140,49752,1,0,0:0:0:0:
256,140,50085,2,0,P|296:136|344:136,2,79.9999999999999,4|0|4,0:0|0:0|0:0,0:0:0:0:
108,236,51418,6,0,P|180:268|256:220,1,160,4|0,0:0|0:0,0:0:0:0:
284,152,52418,1,8,0:0:0:0:
284,152,52752,2,0,L|300:64,1,79.9999999999999,0|8,0:0|0:0,0:0:0:0:
380,104,53418,2,0,L|392:192,1,79.9999999999999,0|8,0:0|0:0,0:0:0:0:
328,248,54085,6,0,P|384:272|448:252,2,120,4|8|8,0:0|0:0|0:0,0:0:0:0:
300,164,55418,2,0,P|244:140|180:160,2,120,4|8|8,0:0|0:0|0:0,0:0:0:0:
240,228,56752,2,0,P|216:284|236:348,2,120,4|8|8,0:0|0:0|0:0,0:0:0:0:
300,164,58085,1,4,0:0:0:0:
300,164,59418,6,0,P|232:216|164:200,1,160,6|2,0:0|0:0,0:0:0:0:
108,132,60418,1,8,0:0:0:0:
108,132,60752,2,0,P|76:200|124:280,1,160,2|2,0:0|0:0,0:0:0:0:
188,316,61752,1,8,0:0:0:0:
260,268,62085,6,0,L|352:264,1,79.9999999999999,2|8,0:0|0:0,0:0:0:0:
424,296,62752,2,0,P|424:240|412:208,1,79.9999999999999,2|8,0:0|0:0,0:0:0:0:
484,160,63418,2,0,P|402:127|342:163,1,160,2|2,0:0|0:0,0:0:0:0:
292,232,64418,1,8,0:0:0:0:
256,152,64752,6,0,L|248:64,1,79.9999999999999,2|8,0:0|0:0,0:0:0:0:
168,104,65418,2,0,L|164:184,1,79.9999999999999,2|8,0:0|0:0,0:0:0:0:
84,224,66085,2,0,P|168:272|228:244,1,160,2|2,0:0|0:0,0:0:0:0:
284,188,67085,1,8,0:0:0:0:
284,188,67418,6,0,P|336:180|376:184,1,79.9999999999999,2|8,0:0|0:0,0:0:0:0:
432,128,68085,2,0,P|448:164|444:216,1,79.9999999999999,2|8,0:0|0:0,0:0:0:0:
488,284,68752,2,0,P|440:296|400:280,3,79.9999999999999,2|8|2|8,0:0|0:0|0:0|0:0,0:0:0:0:
324,300,70085,6,0,P|260:264|168:280,1,160,6|2,0:0|0:0,0:0:0:0:
100,316,71085,1,8,0:0:0:0:
60,240,71418,2,0,P|68:136|116:96,1,160,2|2,0:0|0:0,0:0:0:0:
192,104,72418,1,8,0:0:0:0:
192,104,72752,6,0,P|232:96|272:108,1,79.9999999999999,6|8,0:0|0:0,0:0:0:0:
340,56,73418,2,0,P|356:108|348:148,1,79.9999999999999,6|8,0:0|0:0,0:0:0:0:
300,204,74085,2,0,P|304:280|384:328,1,160,6|2,0:0|0:0,0:0:0:0:
392,236,75085,1,8,0:0:0:0:
392,236,75418,6,0,L|476:232,2,79.9999999999999,4|4|4,0:0|0:0|0:0,0:0:0:0:
224,184,76752,2,0,L|220:104,2,79.9999999999999,4|4|4,0:0|0:0|0:0,0:0:0:0:
108,316,78085,6,0,P|64:320|24:308,1,79.9999999999999,6|8,0:0|0:0,0:0:0:0:
72,232,78752,2,0,P|64:184|72:144,1,79.9999999999999,2|8,0:0|0:0,0:0:0:0:
128,88,79418,2,0,L|216:80,3,79.9999999999999,2|8|2|8,0:0|0:0|0:0|0:0,0:0:0:0:
248,160,80752,6,0,P|336:180|396:128,1,160,6|2,0:0|0:0,0:0:0:0:
452,80,81752,1,8,0:0:0:0:
452,80,82085,2,0,P|472:168|420:228,1,160,6|2,0:0|0:0,0:0:0:0:
372,284,83085,1,8,0:0:0:0:
256,192,83418,12,4,86085,0:0:0:0:
