osu file format v9

[General]
AudioFilename: Consomme op.mp3
AudioLeadIn: 1000
PreviewTime: 68630
Countdown: 0
SampleSet: Soft
StackLeniency: 0.7
Mode: 0
LetterboxInBreaks: 1

[Editor]
DistanceSpacing: 1
BeatDivisor: 4
GridSize: 8

[Metadata]
Title:combination somebody! (Short Ver.)
Artist:Nishizawa Hagumi
Creator:Hinacle
Version:Suzully
Source:Konsome! ~ combination somebody ~
Tags:MiLu Suzully Silver Bullet

[Difficulty]
HPDrainRate:5
CircleSize:4
OverallDifficulty:5
ApproachRate:7
SliderMultiplier:1.6
SliderTickRate:1

[Events]
//Background and Video events
Video,0,"Consomme.flv"
0,0,"BG.jpg"
//Break Periods
//Storyboard Layer 0 (Background)
//Storyboard Layer 1 (Fail)
//Storyboard Layer 2 (Pass)
//Storyboard Layer 3 (Foreground)
//Storyboard Sound Samples
//Background Colour Transformations
3,100,163,162,255

[TimingPoints]
1224,375,4,2,1,60,1,0
12942,-100,4,2,1,5,0,0
14817,-100,4,2,1,40,0,0
19505,-100,4,2,1,60,0,0
67130,-100,4,2,1,5,0,0
68442,-100,4,2,1,70,0,0
68724,-100,4,2,1,70,0,1
92442,-100,4,2,1,5,0,1
92724,-100,4,2,1,5,0,0
94317,-100,4,2,1,60,0,0
104395,-100,4,2,1,5,0,0
105942,-100,4,2,1,60,0,0

[Colours]
Combo1 : 255,124,17
Combo2 : 128,255,255
Combo3 : 255,128,192
Combo4 : 185,255,38

[HitObjects]
104,120,1224,2,0,B|104:8,2,80,4|0|8
256,264,1974,2,0,B|256:360,2,80,2|0|8
408,120,2724,2,0,B|408:8,1,80,2|0
408,120,3099,1,10
104,120,3474,1,2
256,344,3849,1,8
408,120,4224,5,2
448,192,4411,1,0
408,264,4599,1,8
256,272,4974,1,2
256,192,5161,1,0
256,112,5349,1,8
104,120,5724,1,2
64,192,5911,1,0
104,264,6099,1,10
408,264,6474,1,2
104,264,6849,1,8
224,56,7224,6,0,B|320:56,1,80,2|0
384,56,7599,1,8
288,192,7974,2,0,B|192:192,1,80,2|0
128,192,8349,1,8
224,328,8724,2,0,B|320:328,1,80,2|0
384,328,9099,1,10
384,56,9474,1,2
128,192,9849,2,0,B|240:192,1,80,2|0
288,192,10224,5,4
392,128,10411,1,0
392,248,10599,1,0
288,192,10786,5,4
184,248,10974,1,0
288,304,11161,1,0
392,248,11349,6,0,B|496:248,2,80,4|0|0
184,248,11911,2,0,B|80:248,2,80,4|0|0
288,304,12474,5,4
288,192,12661,1,0
288,80,12849,1,4
256,192,12942,12,0,14724
400,96,15099,5,2
344,160,15286,1,0
296,96,15474,1,2
344,160,15661,2,0,B|344:248,2,80,0|0|0
88,72,16599,5,2
424,72,16974,1,2
424,72,17161,2,0,B|264:72,1,160
352,208,18099,5,2
432,208,18286,1,0
472,280,18474,1,2
432,352,18661,1,2
352,352,18849,1,0
312,280,19036,1,0
96,192,19599,5,8
256,192,19974,1,8
400,264,20349,1,8
424,232,20442,1,8
432,192,20536,1,8
424,152,20630,1,8
400,120,20724,2,0,B|352:96|288:136,1,80,4|0
248,208,21099,2,0,B|296:232|360:192,1,80,8|0
248,120,21474,2,0,B|200:96|136:136,3,80,2|0|8|0
96,152,22224,6,0,B|144:248,1,80,2|0
72,328,22599,2,0,B|24:232,1,80,8|0
96,152,22974,1,0
72,328,23161,1,0
96,152,23349,1,8
72,328,23536,1,0
152,328,23724,6,0,B|256:328,1,80,2|0
304,224,24099,2,0,B|200:224,1,80,8|0
304,328,24474,1,0
416,264,24661,1,0
416,136,24849,1,8
304,72,25036,1,0
192,136,25224,6,0,B|104:136,1,80,2|0
416,264,25599,2,0,B|504:264,1,80,8|0
304,200,25974,1,0
304,200,26161,1,8
304,200,26255,1,0
304,200,26349,2,0,B|304:104,1,80,8|0
304,40,26724,6,0,B|216:40,1,80,4|0
144,40,27099,1,8
144,40,27286,1,0
64,40,27474,2,0,B|16:128|80:216,1,160,0|8
104,264,28036,6,0,B|136:232|192:240,1,80
256,240,28411,1,8
256,240,28505,1,0
256,240,28599,2,0,B|296:264|352:248,1,80,8|0
416,240,28974,2,0,B|392:200|416:144,1,80,0|8
488,144,29349,2,0,B|520:96|496:48,1,80,8|0
424,88,29724,6,0,B|336:56|240:96,1,160,4|8
192,120,30286,1,0
192,120,30474,2,0,B|240:192|184:280,1,160,0|8
189,270,31036,1,0
35,118,31224,6,0,B|112:88|191:119,1,160,2|8
272,152,31786,1,8
272,184,31880,1,0
272,216,31974,2,0,B|312:236|352:216,1,80
440,136,32349,2,0,B|400:116|360:136,1,80,8|0
448,216,32724,6,0,B|448:320|352:344,1,160,4|8
288,336,33286,1,0
288,336,33474,2,0,B|232:256|144:288,1,160,0|8
184,368,34036,1,0
184,368,34224,2,0,B|272:208,1,160,2|8
296,160,34786,1,0
328,88,34974,2,0,B|432:88,2,80,0|0|8
64,72,35724,6,0,B|56:160|144:208,1,160,2|8
208,232,36286,2,0,B|240:144|360:144,1,160,2|0
408,144,36849,2,0,B|424:192|408:232,1,80,8|0
408,304,37224,6,0,B|448:336|504:304,2,80,4|0|8
344,256,37786,1,0
280,208,37974,2,0,B|240:176|184:208,2,80,4|0|8
344,256,38536,1,0
344,256,38724,1,4
104,240,39099,6,0,B|48:160|112:80,1,160,2|0
408,144,40036,2,0,B|464:224|400:304,1,160,2|0
256,344,40786,6,0,B|256:240,1,80,4|8
256,184,41161,1,8
256,104,41349,1,8
256,96,41442,1,0
256,88,41536,1,8
256,80,41630,1,0
256,72,41724,2,0,B|176:48|88:72,1,160,4|8
88,152,42286,1,0
96,232,42474,2,0,B|184:232,2,80,2|0|8
88,312,43036,5,0
88,312,43224,2,0,B|168:352|272:304,1,160,2|8
320,288,43786,1,0
392,248,43974,1,8
392,248,44067,1,0
392,248,44161,2,0,B|416:280|416:280|472:280,1,80,0|8
464,200,44536,1,0
488,120,44724,6,0,B|440:40|352:40,1,160,4|8
312,104,45286,1,0
272,172,45474,2,0,B|176:172|128:84,1,160,2|8
208,64,46036,1,0
208,64,46224,6,0,B|232:152|144:224,1,160,0|8
96,256,46786,1,8
96,256,46880,1,0
96,256,46974,2,0,B|120:296|184:312,1,80,2|0
208,360,47349,2,0,B|296:360,1,80,8|0
368,360,47724,6,0,B|368:296|416:256|480:256,1,160,4|8
472,336,48286,2,0,B|472:168,1,160,2|0
472,96,48849,2,0,B|424:96|424:96|376:64,1,80,8|0
328,32,49224,6,0,B|248:112,1,80,4|0
208,144,49599,1,8
208,144,49692,1,0
208,144,49786,1,0
184,352,49974,2,0,B|264:272,1,80,4|0
304,240,50349,1,8
304,240,50442,1,0
304,240,50536,1,0
208,144,50724,6,0,B|96:144|96:144|40:104,1,160,4|8
152,40,51286,1,0
152,40,51474,2,0,B|264:40|264:40|320:80,1,160,2|8
400,144,52036,1,0
400,144,52224,6,0,B|432:232|384:328,1,160,0|8
280,336,52786,1,0
280,336,52974,2,0,B|248:248|296:152,1,160,2|8
80,312,53724,6,0,B|128:312|168:288,1,80,4|0
120,224,54099,2,0,B|160:200|232:216,1,80,8|0
280,216,54474,2,0,B|272:312|368:352,1,160,2|8
432,320,55036,1,0
488,264,55224,2,0,B|496:168|400:128,1,160,2|8
336,160,55786,5,0
256,216,55974,1,8
232,216,56067,1,0
208,216,56161,1,0
120,216,56349,2,0,B|96:192|96:192|96:120,1,80,8|0
96,64,56724,6,0,B|256:64,1,160,4|8
336,64,57286,1,0
336,64,57474,2,0,B|336:112|336:112|368:152,1,80
416,184,57849,1,8
416,184,58036,1,0
480,232,58224,6,0,B|408:328|408:328|360:328,1,160,2|8
288,328,58786,1,0
208,328,58974,2,0,B|159:328|159:328|128:296,2,80,0|0|8
288,328,59536,1,0
288,328,59724,6,0,B|288:160,1,160,4|8
224,120,60286,1,0
224,120,60474,2,0,B|240:92|256:76|300:68|336:76|360:116|360:152,1,160,2|8
352,200,61036,1,0
352,200,61224,2,0,B|336:228|320:244|276:252|240:244|216:204|216:168,1,160,2|8
288,152,61786,1,0
288,152,61974,2,0,B|288:320,1,160,2|8
72,184,62724,6,0,B|72:72|72:72|112:32,1,160,4|0
208,136,63286,2,0,B|208:248|208:248|168:288,1,160,4|0
105,38,63849,2,0,B|209:38,1,80,4|0
376,40,64411,1,2
256,192,64786,1,2
376,40,65161,5,2
456,96,65349,1,0
456,192,65536,1,0
456,288,65724,2,0,B|296:288,1,160,4|2
168,192,66286,2,0,B|328:192,2,160,4|0|2
256,192,67224,12,0,68349
312,72,68724,6,0,B|408:72,1,80,4|0
472,72,69099,1,8
264,176,69474,2,0,B|216:256|96:232,1,160,2|8
160,168,70036,2,0,B|160:264|248:304,1,160
312,328,70599,1,8
64,96,70974,5,4
448,96,71349,1,4
256,336,71724,5,8
256,336,71817,1,0
256,336,71911,2,0,B|256:256,1,80,0|8
256,176,72286,1,0
184,136,72474,2,0,B|160:176|188:220,1,80,2|0
328,212,72849,2,0,B|352:176|328:136,1,80,8|0
256,64,73224,6,0,B|168:64,1,80,2|0
256,288,73599,2,0,B|352:288,1,80,8|0
256,64,73974,1,2
144,176,74161,1,0
256,288,74349,1,8
368,176,74536,1,8
368,176,74630,1,0
368,176,74724,6,0,B|456:176,2,80,4|0|8
288,176,75286,1,0
288,176,75474,2,0,B|256:136|256:136|136:136,1,160,2|8
48,208,76036,2,0,B|80:248|80:248|200:248,1,160,2|0
272,248,76599,1,8
352,248,76786,5,0
352,248,76974,1,0
432,248,77161,1,0
432,248,77255,1,0
432,248,77349,2,0,B|432:200|432:200|480:160,2,80,8|0|4
272,248,77911,5,0
272,248,78005,1,0
272,248,78099,2,0,B|272:288|272:288|232:328,2,80,8|0|4
264,112,78661,1,0
264,112,78755,1,0
264,112,78849,2,0,B|328:48,2,80,8|0|4
136,168,79411,5,0
136,168,79505,1,0
136,168,79599,1,8
136,168,79786,2,0,B|96:256|152:328,1,160,2|0
216,352,80349,1,8
232,352,80442,1,0
248,352,80536,1,0
264,352,80630,1,0
280,352,80724,6,0,B|328:280|280:192,1,160,4|8
224,144,81286,1,0
160,96,81474,2,0,B|176:68|192:52|236:44|272:52|296:92|296:128,1,160,2|8
288,192,82036,2,0,B|272:220|256:236|212:244|176:236|152:196|152:160,1,160,2|0
224,144,82599,1,8
408,192,82974,5,4
256,344,83349,1,4
104,192,83724,2,0,B|288:192,1,160,4|8
344,192,84286,1,0
296,128,84474,2,0,B|268:144|252:160|244:204|252:240|292:264|328:264,1,160,2|8
344,192,85036,2,0,B|372:176|388:160|396:116|388:80|348:56|312:56,1,160,2|0
296,128,85599,1,8
208,264,85974,1,8
208,264,86067,1,0
208,264,86161,2,0,B|112:264,1,80,0|8
72,96,86724,5,4
184,40,86911,1,0
304,96,87099,1,4
456,304,87474,2,0,B|376:344|280:296,1,160,4|0
232,344,88036,6,0,B|304:280|264:184,1,160,4|0
216,136,88599,2,0,B|176:176|200:240,1,80,4|0
272,200,88974,2,0,B|448:200,1,160,4|0
432,200,89442,1,0
432,200,89536,1,4
180,56,90099,6,0,B|260:16|260:96|348:64,2,160,2|0|2
216,160,91036,2,0,B|232:256|152:232|168:320,1,160,2|0
256,360,91599,1,0
345,304,91786,2,0,B|359:239|279:255|295:159,1,160,2|8
295,161,92255,1,0
295,161,92349,1,8
256,192,92536,12,0,94224
256,56,94599,5,2
256,328,94974,1,2
256,56,95349,1,8
472,192,95724,5,2
376,248,95911,1,0
280,192,96099,1,8
48,96,96474,1,2
144,40,96661,1,0
240,96,96849,1,8
48,288,97224,1,2
144,344,97411,1,0
240,288,97599,1,10
440,192,97974,1,2
72,192,98349,1,8
256,96,98724,6,0,B|256:16,2,80,2|0|8
440,232,99474,1,2
360,296,99661,1,0
440,360,99849,1,8
72,232,100224,1,2
152,296,100411,1,0
72,360,100599,1,8
256,232,100974,2,0,B|256:72,1,160,2|8
384,280,101724,5,4
312,192,101911,1,0
384,104,102099,1,0
456,192,102286,5,4
384,280,102474,2,0,B|288:280,1,80
128,104,102849,6,0,B|224:104,1,80,4|0
320,104,103224,1,0
256,192,103411,5,4
192,280,103599,1,0
128,192,103786,1,0
256,192,103974,5,4
320,280,104161,1,0
384,192,104348,1,4
256,192,104395,12,0,105849
379,100,106224,6,0,B|336:100|312:135,1,80,4|0
256,192,106599,1,0
132,283,106786,2,0,B|176:284|199:248,1,80,4|0
256,192,107161,1,0
312,248,107349,2,0,B|336:284|379:283,1,80,4|0
460,284,107724,1,0
312,135,107911,2,0,B|336:100|379:100,1,80,4|0
460,100,108286,1,0
360,192,108474,5,4
152,192,108849,1,4
256,328,109224,1,2
256,40,109786,1,4
