osu file format v12

[General]
AudioFilename: CocoroFunction_PV.mp3
AudioLeadIn: 0
PreviewTime: 68570
Countdown: 0
SampleSet: Soft
StackLeniency: 0.7
Mode: 0
LetterboxInBreaks: 1
WidescreenStoryboard: 0

[Editor]
Bookmarks: 11355,25070,38784,52498
DistanceSpacing: 0.5
BeatDivisor: 4
GridSize: 4

[Metadata]
Title:Yureru Cycle
TitleUnicode:ユレルサイクル
Artist:Nishizawa Hagumi
ArtistUnicode:西沢はぐみ
Creator:phoon
Version:Insane
Source:ココロ@ファンクション!
Tags:PULLTOP eroge
BeatmapID:293751
BeatmapSetID:113204

[Difficulty]
HPDrainRate:7
CircleSize:4
OverallDifficulty:8
ApproachRate:8
SliderMultiplier:1.8
SliderTickRate:1

[Events]
//Background and Video events
0,0,"bg2.jpg",0,0
//Break Periods
//Storyboard Layer 0 (Background)
//Storyboard Layer 1 (Fail)
//Storyboard Layer 2 (Pass)
//Storyboard Layer 3 (Foreground)
//Storyboard Sound Samples
//Background Colour Transformations
3,100,163,162,255

[TimingPoints]
1070,428.571428571429,4,2,2,70,1,0
1391,-100,4,2,2,30,0,0
1498,-100,4,2,2,70,0,0
1820,-100,4,2,2,30,0,0
1927,-100,4,2,2,70,0,0
2248,-100,4,2,2,30,0,0
2355,-100,4,2,2,70,0,0
4820,-100,4,2,2,30,0,0
4927,-100,4,2,2,70,0,0
5248,-100,4,2,2,30,0,0
5355,-100,4,2,2,70,0,0
5677,-100,4,2,2,30,0,0
5784,-100,4,2,2,70,0,0
8248,-100,4,2,2,30,0,0
8355,-100,4,2,2,70,0,0
8677,-100,4,2,2,30,0,0
8784,-100,4,2,2,70,0,0
9105,-100,4,2,2,30,0,0
9212,-100,4,2,2,70,0,0
11355,-100,4,2,2,70,0,0
25070,-133.333333333333,4,2,2,70,0,0
35355,-142.857142857143,4,2,2,70,0,0
36212,-166.666666666667,4,2,2,60,0,0
37070,-200,4,2,2,50,0,0
37927,-133.333333333333,4,2,2,70,0,0
38784,-100,4,2,2,70,0,0
52070,-200,4,2,1,70,0,0
52391,-200,4,2,2,30,0,0
52498,-133.333333333333,4,2,2,60,0,0
65998,-133.333333333333,4,2,2,70,0,0
66212,-133.333333333333,4,2,2,30,0,0
66427,-100,4,2,2,70,0,0
66641,-100,4,2,2,30,0,0
66855,-80,4,2,2,70,0,0
67070,-80,4,2,2,30,0,0
67284,-100,4,2,2,70,0,0
69641,-80,4,2,1,80,0,1
83248,-80,4,2,1,80,0,0
83355,-80,4,2,1,80,0,1
97070,-100,4,2,1,70,0,0

[HitObjects]
176,276,1070,2,0,P|240:276|288:228,1,135,6|0,0:0|0:0,0:0:0:0:
228,84,1498,2,0,P|196:139|213:204,1,135,10|0,0:0|0:0,0:0:0:0:
368,224,1927,2,0,P|336:168|270:151,1,135,2|0,0:0|0:0,0:0:0:0:
272,152,2355,1,8,0:0:0:0:
180,136,2570,6,0,B|152:144|152:144|120:132|88:144,1,90
56,338,2998,2,0,B|84:330|84:330|116:342|144:332,2,90,0|8|0,0:0|0:0|0:0,0:0:0:0:
304,248,3641,1,0,0:0:0:0:
120,236,3855,1,0,0:0:0:0:
120,236,3962,1,0,0:0:0:0:
120,236,4070,1,8,0:0:0:0:
260,348,4284,1,0,0:0:0:0:
216,172,4498,6,0,P|244:108|308:88,1,135,6|0,0:0|0:0,0:0:0:0:
258,236,4927,2,0,P|189:244|139:198,1,135,10|0,0:0|0:0,0:0:0:0:
293,167,5355,2,0,P|334:223|320:289,1,135,2|0,0:0|0:0,0:0:0:0:
324,284,5784,1,8,0:0:0:0:
240,316,5998,6,0,B|192:300|180:256|180:256|128:256|100:300,1,180,0|0,0:0|0:0,0:0:0:0:
102,296,6534,1,0,0:0:0:0:
102,296,6641,1,8,0:2:0:0:
187,160,6855,2,0,P|208:149|230:146,2,45,0|0|0,0:0|0:0|0:0,0:0:0:0:
328,76,7284,2,0,P|375:83|410:111,1,90,0|8,0:0|0:0,0:0:0:0:
424,196,7712,1,0,0:0:0:0:
302,289,7927,6,0,P|303:223|339:167,1,135,6|0,0:0|0:0,0:0:0:0:
127,224,8355,2,0,P|185:256|216:316,1,135,10|0,0:0|0:0,0:0:0:0:
276,106,8784,2,0,P|218:139|152:136,1,135,2|0,0:0|0:0,0:0:0:0:
152,136,9212,1,8,0:0:0:0:
44,152,9427,6,0,L|28:60,2,90,0|0|0,0:0|0:0|0:0,0:0:0:0:
44,152,9962,1,0,0:0:0:0:
44,152,10070,1,8,0:0:0:0:
64,260,10284,5,0,0:0:0:0:
64,260,10391,1,0,0:0:0:0:
64,260,10498,1,0,0:0:0:0:
172,244,10712,5,0,0:0:0:0:
172,244,10820,1,0,0:0:0:0:
172,244,10927,1,8,0:2:0:0:
172,244,11034,1,0,0:0:0:0:
172,244,11141,1,0,0:0:0:0:
172,244,11248,1,0,0:0:0:0:
172,244,11355,6,0,B|216:224|260:244|260:244|304:264|348:248,1,180,4|8,0:0|0:0,0:0:0:0:
400,332,11998,1,0,0:0:0:0:
432,196,12212,2,0,P|436:148|432:104,1,90
318,249,12641,2,0,P|335:208|344:164,1,90,8|0,0:0|0:0,0:0:0:0:
196,247,13070,2,0,P|223:211|244:172,2,90,0|0|8,0:0|0:0|0:0,0:0:0:0:
128,320,13712,1,0,0:0:0:0:
104,224,13927,5,0,0:0:0:0:
132,128,14141,1,0,0:0:0:0:
188,284,14355,2,0,B|180:256|180:256|192:224|180:192,1,90,8|0,0:0|0:0,0:0:0:0:
48,68,14784,2,0,B|56:96|56:96|44:128|56:160,2,90,0|0|8,0:0|0:0|0:0,0:0:0:0:
208,156,15427,1,0,0:0:0:0:
208,156,15641,2,0,B|256:160|296:132|296:132|340:136|376:168,1,180,0|8,0:0|0:0,0:0:0:0:
300,232,16284,1,0,0:0:0:0:
316,328,16498,2,0,P|357:306|386:272,1,90,0|0,0:0|0:0,2:0:0:0:
207,199,16927,2,0,P|204:244|219:286,1,90,8|0,0:0|0:0,2:0:0:0:
358,136,17355,5,0,0:0:0:0:
313,139,17462,1,0,0:0:0:0:
272,124,17569,1,0,0:0:0:0:
208,200,17784,1,8,0:2:0:0:
163,193,17891,1,0,0:0:0:0:
121,207,17998,1,0,0:0:0:0:
68,84,18212,5,4,0:0:0:0:
179,52,18427,1,0,0:0:0:0:
211,163,18641,1,8,0:0:0:0:
99,195,18855,1,0,0:0:0:0:
140,124,19070,2,0,B|184:100|228:120|228:120|272:140|316:120,1,180,0|8,0:0|0:0,0:0:0:0:
408,96,19712,1,0,0:0:0:0:
380,192,19927,2,0,P|360:232|356:280,1,90
272,328,20355,2,0,P|227:323|187:303,1,90,8|0,0:0|0:0,0:0:0:0:
148,192,20784,6,0,P|104:188|56:204,1,90
192,328,21212,2,0,P|236:332|284:316,1,90,8|0,0:0|0:0,0:0:0:0:
380,164,21641,2,0,P|336:160|288:176,2,90,0|0|8,0:0|0:0|0:0,0:0:0:0:
452,64,22284,1,0,0:0:0:0:
324,44,22498,2,0,P|244:68|148:56,1,180,0|8,0:0|0:0,0:0:0:0:
56,128,23141,1,0,0:0:0:0:
164,172,23355,5,4,0:0:0:0:
72,244,23570,1,0,0:0:0:0:
96,243,23677,1,0,0:0:0:0:
120,247,23784,1,0,0:0:0:0:
208,256,23998,1,0,0:0:0:0:
230,259,24105,1,0,0:0:0:0:
252,260,24212,1,0,0:0:0:0:
275,260,24319,1,0,0:0:0:0:
297,257,24426,1,0,0:0:0:0:
388,248,24641,1,0,0:0:0:0:
410,246,24748,1,0,0:0:0:0:
432,248,24855,1,0,0:0:0:0:
436,148,25070,5,6,0:0:0:0:
336,168,25284,1,0,0:0:0:0:
276,88,25498,2,0,P|244:84|208:88,1,67.5000025749208,8|0,0:0|0:0,0:0:0:0:
69,160,25927,2,0,P|102:164|136:160,1,67.5000025749208,2|0,0:0|0:0,0:0:0:0:
246,251,26355,2,0,P|213:247|180:252,1,67.5000025749208,8|0,0:0|0:0,0:0:0:0:
321,322,26784,2,0,P|354:326|388:323,2,67.5000025749208,2|0|8,0:0|0:0|0:0,0:0:0:0:
440,252,27427,1,0,0:0:0:0:
364,212,27641,2,0,P|332:200|304:172,1,67.5000025749208,2|0,0:0|0:0,0:0:0:0:
204,112,28070,1,8,0:0:0:0:
116,124,28284,2,0,P|85:138|52:143,1,67.5000025749208,0|2,0:0|0:0,0:0:0:0:
148,44,28712,5,0,0:0:0:0:
292,96,28927,2,0,P|290:129|279:161,1,67.5000025749208,8|0,0:0|0:0,0:0:0:0:
248,244,29355,2,0,P|219:225|198:200,1,67.5000025749208,2|0,0:0|0:0,0:0:0:0:
204,112,29784,2,0,P|170:117|141:133,1,67.5000025749208,8|0,0:0|0:0,0:0:0:0:
136,148,30105,5,0,0:0:0:0:
132,164,30212,1,2,0:0:0:0:
116,252,30427,1,0,0:0:0:0:
268,300,30641,2,0,P|300:291|334:291,1,67.5000025749208,8|0,0:0|0:0,0:0:0:0:
176,332,31070,1,2,0:0:0:0:
328,204,31284,2,0,P|360:211|391:225,1,67.5000025749208,0|8,0:0|0:0,0:0:0:0:
456,284,31712,1,0,0:0:0:0:
424,144,31927,6,0,P|391:136|360:122,1,67.5000025749208,2|0,0:0|0:0,0:0:0:0:
280,92,32355,1,8,0:0:0:0:
216,152,32570,1,0,0:0:0:0:
296,188,32784,2,0,P|264:188|228:196,1,67.5000025749208,2|0,0:0|0:0,0:0:0:0:
140,100,33212,2,0,P|106:99|73:92,2,67.5000025749208,8|0|2,0:0|0:0|0:0,0:0:0:0:
280,92,33855,5,0,0:0:0:0:
368,108,34070,1,8,0:0:0:0:
396,192,34284,1,0,0:0:0:0:
368,108,34498,2,0,P|380:80|384:44,1,67.5000025749208,2|0,0:0|0:0,0:0:0:0:
308,180,34927,2,0,P|296:208|292:244,1,67.5000025749208,8|0,0:0|0:0,0:0:0:0:
204,280,35355,6,0,P|143:262|80:258,1,125.999996154785,2|8,0:0|0:0,0:0:0:0:
272,324,35998,1,0,0:0:0:0:
204,280,36212,6,0,P|177:236|129:193,1,107.999996704102,2|8,0:0|0:0,0:0:0:0:
268,340,36855,1,0,0:0:0:0:
204,280,37070,6,0,P|220:240|227:187,1,90,2|8,0:0|0:0,0:0:0:0:
264,356,37712,1,0,0:0:0:0:
348,216,37927,5,0,0:0:0:0:
164,168,38141,1,0,0:0:0:0:
352,200,38355,1,0,0:0:0:0:
356,184,38462,1,0,0:0:0:0:
360,168,38570,1,0,0:0:0:0:
168,184,38784,2,0,B|163:217|190:246|190:246|185:281|211:306,1,135,4|0,0:0|0:0,0:0:0:0:
232,320,39212,6,0,P|275:316|320:328,1,90,8|0,0:0|0:0,0:0:0:0:
400,288,39641,1,2,0:0:0:0:
456,216,39855,2,0,P|412:200|360:204,1,90,0|8,0:0|0:0,0:0:0:0:
236,228,40284,1,0,0:0:0:0:
236,228,40391,1,0,0:0:0:0:
236,228,40498,2,0,P|192:232|144:216,1,90,2|0,0:0|0:0,0:0:0:0:
92,96,40927,1,8,0:0:0:0:
176,68,41141,2,0,P|220:64|268:80,1,90,0|2,0:0|0:0,0:0:0:0:
324,200,41570,1,0,0:0:0:0:
357,52,41784,2,0,P|378:91|384:136,1,90,8|0,0:0|0:0,0:0:0:0:
440,220,42212,5,2,0:0:0:0:
412,316,42427,1,0,0:0:0:0:
440,220,42641,2,0,P|396:232|344:232,1,90,8|0,0:0|0:0,0:0:0:0:
276,280,43070,2,0,P|236:257|199:220,1,90,2|0,0:0|0:0,0:0:0:0:
116,224,43498,2,0,P|103:180|104:128,1,90,8|0,0:0|0:0,2:0:0:0:
103,135,43820,1,0,0:0:0:0:
104,136,43927,1,2,0:0:0:0:
236,100,44141,1,0,0:0:0:0:
321,64,44355,2,0,P|324:108|313:151,1,90,8|0,0:0|0:0,0:0:0:0:
216,300,44784,1,2,0:0:0:0:
159,228,44998,2,0,P|200:212|248:212,1,90,0|8,0:0|0:0,0:0:0:0:
404,180,45427,1,0,0:0:0:0:
416,264,45641,6,0,B|368:264|336:228|336:228|352:276|337:315,1,180,2|8,0:0|0:0,0:0:0:0:
156,336,46284,1,0,0:0:0:0:
224,188,46498,2,0,L|244:276,1,90,2|0,0:0|0:0,0:0:0:0:
116,160,46927,2,0,L|135:247,1,90,8|0,0:0|0:0,0:0:0:0:
135,247,47248,1,0,0:0:0:0:
135,247,47355,1,2,0:0:0:0:
264,96,47570,5,0,0:0:0:0:
352,72,47784,1,8,0:0:0:0:
327,160,47998,2,0,P|301:196|265:221,1,90,0|2,0:0|0:0,0:0:0:0:
416,140,48427,1,0,0:0:0:0:
328,160,48641,2,0,P|318:203|322:248,1,90,8|0,0:0|0:0,0:0:0:0:
212,328,49070,1,2,0:0:0:0:
144,272,49284,1,0,0:0:0:0:
76,212,49498,2,0,P|76:168|96:120,1,90,8|0,0:0|0:0,0:0:0:0:
125,358,49927,5,2,0:0:0:0:
144,272,50141,1,0,0:0:0:0:
162,185,50355,2,0,P|192:152|239:131,1,90,8|0,0:0|0:0,0:0:0:0:
64,300,50784,5,2,0:0:0:0:
144,272,50998,1,0,0:0:0:0:
228,240,51212,1,8,0:0:0:0:
250,238,51319,1,0,0:0:0:0:
272,240,51426,1,0,0:0:0:0:
294,246,51533,1,0,0:0:0:0:
314,256,51640,1,2,0:0:0:0:
392,332,51855,1,0,0:0:0:0:
360,140,52070,6,0,P|393:135|424:123,1,67.5,8|0,0:0|0:0,0:0:0:0:
440,116,52498,6,0,P|392:168|396:236,1,135.000005149842,4|2,0:0|0:0,0:0:0:0:
476,196,53141,1,0,0:0:0:0:
396,164,53355,1,0,0:0:0:0:
308,176,53570,1,0,0:0:0:0:
236,224,53784,2,0,P|210:268|210:317,1,101.250003862381,2|0,0:0|0:0,0:0:0:0:
216,332,54212,6,0,P|184:320|151:320,2,67.5000025749208,0|0|2,0:0|0:0|0:0,0:0:0:0:
261,193,54855,2,0,P|266:227|284:256,2,67.5000025749208
121,223,55498,1,2,0:0:0:0:
121,223,55927,6,0,P|147:201|164:172,2,67.5000025749208,4|0|2,0:0|2:0|0:0,0:0:0:0:
305,118,56570,2,0,P|273:108|240:108,2,67.5000025749208,0|0|0,0:0|2:0|0:0,0:0:0:0:
356,204,57212,2,0,B|389:218|421:214|421:214|436:184,1,101.250003862381,2|0,0:0|0:0,0:0:0:0:
436,184,57641,6,0,P|444:216|440:250,1,67.5000025749208,4|0,0:0|0:0,0:0:0:0:
408,100,58070,1,2,0:0:0:0:
364,224,58284,6,0,P|356:256|339:285,1,67.5000025749208,4|0,0:0|0:0,0:0:0:0:
392,96,58712,1,0,0:0:0:0:
284,224,58927,6,0,P|263:250|234:268,1,67.5000025749208,4|0,0:0|0:0,0:0:0:0:
376,91,59355,6,0,P|409:97|442:90,1,67.5000025749208,0|0,0:0|0:0,0:0:0:0:
276,68,59784,1,2,0:0:0:0:
92,136,59998,1,0,0:0:0:0:
92,136,60105,1,0,0:0:0:0:
92,136,60212,1,0,0:0:0:0:
192,136,60427,2,0,P|203:167|204:201,1,67.5000025749208,0|2,0:0|0:0,0:0:0:0:
300,236,60855,6,0,P|288:288|264:328,1,101.250003862381
252,340,61284,1,0,0:0:0:0:
205,185,61498,1,2,0:0:0:0:
360,225,61712,1,0,0:0:0:0:
184,275,61927,5,0,0:0:0:0:
293,160,62141,1,0,0:0:0:0:
335,314,62355,1,2,0:0:0:0:
335,314,62462,1,0,0:0:0:0:
335,314,62570,1,4,0:0:0:0:
256,192,62677,12,0,63641,0:0:0:0:
232,116,63855,5,0,0:0:0:0:
232,116,64070,1,0,0:0:0:0:
248,220,64284,2,0,L|96:212,1,135.000005149842
113,212,64927,1,0,0:0:0:0:
136,132,65141,1,0,0:0:0:0:
136,132,65248,1,0,0:0:0:0:
136,132,65355,1,0,0:0:0:0:
280,128,65570,1,0,0:0:0:0:
280,128,65784,1,0,0:0:0:0:
128,260,65998,6,0,L|128:188,1,67.5000025749208
224,256,66427,2,0,L|224:160,1,90
328,264,66855,2,0,L|328:152,1,112.5
372,144,67498,2,0,L|144:144,1,225
216,236,68141,5,0,0:0:0:0:
328,228,68355,1,0,0:0:0:0:
120,128,68569,5,0,0:0:0:0:
368,156,68784,1,0,0:0:0:0:
112,240,68998,1,0,0:0:0:0:
368,280,69212,1,0,0:0:0:0:
368,280,69320,1,0,0:0:0:0:
368,280,69427,1,0,0:0:0:0:
368,280,69534,1,0,0:0:0:0:
164,212,69641,6,0,L|276:216,1,112.5,4|2,0:0|0:0,0:0:0:0:
164,212,70070,2,0,L|276:216,1,112.5,8|0,0:0|0:0,0:0:0:0:
164,212,70498,2,0,L|276:216,1,112.5,0|2,0:0|0:0,0:0:0:0:
164,212,70927,2,0,L|276:216,1,112.5,8|0,0:0|0:0,0:0:0:0:
164,212,71355,6,0,L|276:216,1,112.5,0|2,0:0|0:0,0:0:0:0:
164,212,71784,2,0,L|276:216,1,112.5,8|0,0:0|0:0,0:0:0:0:
164,212,72212,2,0,L|276:216,1,112.5,0|2,0:0|0:0,0:0:0:0:
164,212,72641,2,0,L|276:216,1,112.5,8|0,0:0|0:0,0:0:0:0:
164,212,73070,6,0,L|276:216,1,112.5,0|2,0:0|0:0,0:0:0:0:
164,212,73499,2,0,L|276:216,1,112.5,8|0,0:0|0:0,0:0:0:0:
164,212,73927,2,0,L|276:216,1,112.5,0|2,0:0|0:0,0:0:0:0:
164,212,74356,2,0,L|276:216,1,112.5,8|0,0:0|0:0,0:0:0:0:
