osu file format v12

[General]
AudioFilename: Yumekai Biyori.mp3
AudioLeadIn: 0
PreviewTime: 63518
Countdown: 0
SampleSet: Normal
StackLeniency: 0.7
Mode: 1
LetterboxInBreaks: 0
WidescreenStoryboard: 0

[Editor]
DistanceSpacing: 1.2
BeatDivisor: 4
GridSize: 32
TimelineZoom: 2.1

[Metadata]
Title:Yumekai Biyori
TitleUnicode:夢飼い日和
Artist:Nishizawa Hagumi
ArtistUnicode:西沢はぐみ
Creator:aabc271
Version:Muzukashii
Source:大図書館の羊飼い
Tags:Taiko Daitoshokan no Hitsujikai August Galgame Eroge Hentai Opening Nardoxyribonucleic
BeatmapID:307637
BeatmapSetID:119901

[Difficulty]
HPDrainRate:4
CircleSize:5
OverallDifficulty:4
ApproachRate:5
SliderMultiplier:1.4
SliderTickRate:1

[Events]
//Background and Video events
0,0,"BG.jpg",0,110
//Break Periods
//Storyboard Layer 0 (Background)
//Storyboard Layer 1 (Fail)
//Storyboard Layer 2 (Pass)
//Storyboard Layer 3 (Foreground)
//Storyboard Sound Samples
//Background Colour Transformations
3,100,163,162,255

[TimingPoints]
230,444.444444444444,4,1,0,50,1,0
14452,-100,4,1,0,30,0,0
17341,428.571428571429,4,1,0,80,1,8
17983,428.571428571429,4,1,0,80,1,0
33411,-100,4,1,0,50,0,0
34483,-100,4,1,0,70,0,0
48840,-100,4,1,0,80,0,0
64268,-100,4,1,0,90,0,1
77983,-100,4,1,0,80,0,0
91697,-100,4,1,0,50,0,0
92125,-100,4,1,0,45,0,0
92554,-100,4,1,0,40,0,0
92983,-100,4,1,0,35,0,0
93411,-100,4,1,0,30,0,0
93840,-100,4,1,0,25,0,0
94268,-100,4,1,0,20,0,0
94697,-100,4,1,0,15,0,0
95125,-100,4,1,0,10,0,0

[HitObjects]
256,192,230,5,0,0:0:0:0:
256,192,452,1,0,0:0:0:0:
256,192,674,1,0,0:0:0:0:
256,192,896,5,8,0:0:0:0:
256,192,1341,5,0,0:0:0:0:
256,192,1563,5,8,0:0:0:0:
256,192,1785,5,0,0:0:0:0:
256,192,2229,1,0,0:0:0:0:
256,192,2452,1,0,0:0:0:0:
256,192,2674,5,8,0:0:0:0:
256,192,3341,1,8,0:0:0:0:
256,192,3785,1,12,0:0:0:0:
256,192,4452,5,0,0:0:0:0:
256,192,4896,5,8,0:0:0:0:
256,192,5341,5,0,0:0:0:0:
256,192,5785,5,8,0:0:0:0:
256,192,6007,5,0,0:0:0:0:
256,192,6229,5,8,0:0:0:0:
256,192,6896,5,0,0:0:0:0:
256,192,7341,1,0,0:0:0:0:
256,192,7563,1,0,0:0:0:0:
256,192,7785,1,0,0:0:0:0:
256,192,8007,5,8,0:0:0:0:
256,192,8452,5,0,0:0:0:0:
256,192,8674,1,0,0:0:0:0:
256,192,8896,5,8,0:0:0:0:
256,192,9341,5,0,0:0:0:0:
256,192,9563,5,8,0:0:0:0:
256,192,9785,1,8,0:0:0:0:
256,192,10229,5,0,0:0:0:0:
256,192,10452,1,0,0:0:0:0:
256,192,10674,5,8,0:0:0:0:
256,192,10896,1,12,0:0:0:0:
256,192,11563,1,8,0:0:0:0:
256,192,12452,1,8,0:0:0:0:
256,192,13341,5,0,0:0:0:0:
256,192,13785,1,0,0:0:0:0:
256,192,14007,5,8,0:0:0:0:
256,192,14229,5,0,0:0:0:0:
256,192,14452,12,0,16229,0:0:0:0:
256,192,17341,5,0,0:0:0:0:
256,192,17555,1,0,0:0:0:0:
256,192,17769,5,8,0:0:0:0:
256,192,17983,1,12,0:0:0:0:
256,192,18411,1,8,0:0:0:0:
256,192,18840,1,8,0:0:0:0:
256,192,19054,5,0,0:0:0:0:
256,192,19483,1,0,0:0:0:0:
256,192,19911,5,8,0:0:0:0:
256,192,20340,1,8,0:0:0:0:
256,192,20768,5,0,0:0:0:0:
256,192,20983,1,0,0:0:0:0:
256,192,21197,5,8,0:0:0:0:
256,192,21411,1,8,0:0:0:0:
256,192,21840,5,0,0:0:0:0:
256,192,22054,5,8,0:0:0:0:
256,192,22483,1,8,0:0:0:0:
256,192,22697,5,0,0:0:0:0:
256,192,22911,5,8,0:0:0:0:
256,192,23125,1,8,0:0:0:0:
256,192,23340,1,8,0:0:0:0:
256,192,23554,5,0,0:0:0:0:
256,192,23768,1,0,0:0:0:0:
256,192,24197,1,0,0:0:0:0:
256,192,24411,1,0,0:0:0:0:
256,192,24625,5,8,0:0:0:0:
256,192,24840,1,12,0:0:0:0:
256,192,25268,1,8,0:0:0:0:
256,192,25483,5,0,0:0:0:0:
256,192,25697,5,8,0:0:0:0:
256,192,25911,5,0,0:0:0:0:
256,192,26340,1,0,0:0:0:0:
256,192,26768,5,8,0:0:0:0:
256,192,27197,1,12,0:0:0:0:
256,192,27625,5,0,0:0:0:0:
256,192,27840,5,8,0:0:0:0:
256,192,28054,5,0,0:0:0:0:
256,192,28268,1,0,0:0:0:0:
256,192,28697,5,8,0:0:0:0:
256,192,28911,5,0,0:0:0:0:
256,192,29340,1,0,0:0:0:0:
256,192,29554,1,0,0:0:0:0:
256,192,29768,5,8,0:0:0:0:
256,192,30197,5,0,0:0:0:0:
256,192,30411,1,0,0:0:0:0:
256,192,30625,5,8,0:0:0:0:
256,192,31054,5,0,0:0:0:0:
256,192,31268,5,8,0:0:0:0:
256,192,31697,5,0,0:0:0:0:
256,192,32125,5,8,0:0:0:0:
256,192,32340,5,0,0:0:0:0:
256,192,32554,1,0,0:0:0:0:
256,192,32768,1,0,0:0:0:0:
256,192,32983,5,8,0:0:0:0:
256,192,33197,5,0,0:0:0:0:
256,192,33411,12,0,34268,0:0:0:0:
256,192,34483,5,0,0:0:0:0:
256,192,34697,1,0,0:0:0:0:
256,192,34911,5,8,0:0:0:0:
256,192,35125,1,8,0:0:0:0:
256,192,35554,1,8,0:0:0:0:
256,192,35768,5,0,0:0:0:0:
256,192,36197,5,8,0:0:0:0:
256,192,36625,1,8,0:0:0:0:
256,192,37054,5,0,0:0:0:0:
256,192,37268,5,8,0:0:0:0:
256,192,37483,1,8,0:0:0:0:
256,192,37911,5,0,0:0:0:0:
256,192,38125,1,0,0:0:0:0:
256,192,38340,5,8,0:0:0:0:
256,192,38554,1,8,0:0:0:0:
256,192,38983,1,8,0:0:0:0:
256,192,39197,5,0,0:0:0:0:
256,192,39625,5,8,0:0:0:0:
256,192,39840,1,8,0:0:0:0:
256,192,40054,5,0,0:0:0:0:
256,192,40483,1,0,0:0:0:0:
256,192,40697,1,0,0:0:0:0:
256,192,40911,5,8,0:0:0:0:
256,192,41340,5,0,0:0:0:0:
256,192,41554,1,0,0:0:0:0:
256,192,41768,5,8,0:0:0:0:
256,192,41983,1,8,0:0:0:0:
256,192,42411,1,8,0:0:0:0:
256,192,42625,5,0,0:0:0:0:
256,192,43054,5,8,0:0:0:0:
256,192,43268,5,0,0:0:0:0:
256,192,43483,5,8,0:0:0:0:
256,192,43911,5,0,0:0:0:0:
256,192,44125,5,8,0:0:0:0:
256,192,44340,1,8,0:0:0:0:
256,192,44768,5,0,0:0:0:0:
256,192,44983,1,0,0:0:0:0:
256,192,45197,5,8,0:0:0:0:
256,192,45411,1,8,0:0:0:0:
256,192,45840,1,8,0:0:0:0:
256,192,46054,5,0,0:0:0:0:
256,192,46483,5,8,0:0:0:0:
256,192,46697,1,0,0:0:0:0:
256,192,46911,5,8,0:0:0:0:
256,192,47340,1,8,0:0:0:0:
256,192,47554,1,8,0:0:0:0:
256,192,47768,5,0,0:0:0:0:
256,192,48197,1,0,0:0:0:0:
256,192,48411,5,8,0:0:0:0:
256,192,48625,5,0,0:0:0:0:
256,192,48840,5,12,0:0:0:0:
256,192,49054,1,8,0:0:0:0:
256,192,49268,1,8,0:0:0:0:
256,192,49590,1,8,0:0:0:0:
256,192,49911,5,0,0:0:0:0:
256,192,50340,5,8,0:0:0:0:
256,192,50554,5,0,0:0:0:0:
256,192,50768,1,0,0:0:0:0:
256,192,50983,5,8,0:0:0:0:
256,192,51304,5,0,0:0:0:0:
256,192,51625,5,8,0:0:0:0:
256,192,52268,5,0,0:0:0:0:
256,192,52483,5,8,0:0:0:0:
256,192,52697,1,8,0:0:0:0:
256,192,53018,5,0,0:0:0:0:
256,192,53340,1,0,0:0:0:0:
256,192,53554,5,8,0:0:0:0:
256,192,53875,5,0,0:0:0:0:
256,192,54197,1,0,0:0:0:0:
256,192,54411,5,8,0:0:0:0:
256,192,54625,5,0,0:0:0:0:
256,192,55054,1,0,0:0:0:0:
256,192,55268,5,8,0:0:0:0:
256,192,55697,1,12,0:0:0:0:
256,192,55911,1,8,0:0:0:0:
256,192,56125,1,8,0:0:0:0:
256,192,56447,1,8,0:0:0:0:
256,192,56768,5,0,0:0:0:0:
256,192,57197,5,8,0:0:0:0:
256,192,57411,5,0,0:0:0:0:
256,192,57625,1,0,0:0:0:0:
256,192,57840,5,8,0:0:0:0:
256,192,58161,5,0,0:0:0:0:
256,192,58483,5,8,0:0:0:0:
256,192,59125,5,0,0:0:0:0:
256,192,59340,5,8,0:0:0:0:
256,192,59554,1,8,0:0:0:0:
256,192,59983,5,8,0:0:0:0:
256,192,60197,5,0,0:0:0:0:
256,192,60411,5,8,0:0:0:0:
256,192,60625,1,8,0:0:0:0:
256,192,61054,1,8,0:0:0:0:
256,192,61268,5,0,0:0:0:0:
256,192,61483,5,8,0:0:0:0:
256,192,61697,5,0,0:0:0:0:
256,192,61911,5,8,0:0:0:0:
256,192,62125,5,0,0:0:0:0:
256,192,62340,5,8,0:0:0:0:
256,192,62554,6,0,P|192:96|256:32,1,210
256,192,63625,5,0,0:0:0:0:
256,192,63840,1,0,0:0:0:0:
256,192,64054,5,8,0:0:0:0:
256,192,64268,1,12,0:0:0:0:
256,192,64697,1,12,0:0:0:0:
256,192,65125,1,8,0:0:0:0:
256,192,65340,5,0,0:0:0:0:
256,192,65554,5,8,0:0:0:0:
256,192,65768,1,8,0:0:0:0:
256,192,66197,1,8,0:0:0:0:
256,192,66411,1,8,0:0:0:0:
256,192,66625,5,0,0:0:0:0:
256,192,67054,1,0,0:0:0:0:
256,192,67268,5,8,0:0:0:0:
256,192,67697,1,8,0:0:0:0:
256,192,67911,5,0,0:0:0:0:
256,192,68125,1,0,0:0:0:0:
256,192,68340,5,8,0:0:0:0:
256,192,68554,1,8,0:0:0:0:
256,192,68768,1,8,0:0:0:0:
256,192,68983,5,0,0:0:0:0:
256,192,69197,1,0,0:0:0:0:
256,192,69625,5,8,0:0:0:0:
256,192,69840,1,8,0:0:0:0:
256,192,70483,5,0,0:0:0:0:
256,192,70697,1,0,0:0:0:0:
256,192,70911,5,8,0:0:0:0:
256,192,71125,1,12,0:0:0:0:
256,192,71554,1,12,0:0:0:0:
256,192,71983,1,8,0:0:0:0:
256,192,72197,5,0,0:0:0:0:
256,192,72411,5,8,0:0:0:0:
256,192,72625,1,8,0:0:0:0:
256,192,73054,1,8,0:0:0:0:
256,192,73268,5,0,0:0:0:0:
256,192,73483,5,12,0:0:0:0:
256,192,73911,5,0,0:0:0:0:
256,192,74125,5,8,0:0:0:0:
256,192,74340,5,0,0:0:0:0:
256,192,74554,1,0,0:0:0:0:
256,192,74983,5,8,0:0:0:0:
256,192,75197,5,0,0:0:0:0:
256,192,75625,1,0,0:0:0:0:
256,192,75840,1,0,0:0:0:0:
256,192,76054,5,8,0:0:0:0:
256,192,76483,1,8,0:0:0:0:
256,192,76697,1,8,0:0:0:0:
256,192,76911,5,0,0:0:0:0:
256,192,77125,5,8,0:0:0:0:
256,192,77340,5,0,0:0:0:0:
256,192,77554,1,0,0:0:0:0:
256,192,77768,5,8,0:0:0:0:
256,192,77983,5,4,0:0:0:0:
256,192,78411,5,8,0:0:0:0:
256,192,78625,5,0,0:0:0:0:
256,192,78840,1,0,0:0:0:0:
256,192,79054,1,0,0:0:0:0:
256,192,79268,5,8,0:0:0:0:
256,192,79483,5,0,0:0:0:0:
256,192,79911,1,0,0:0:0:0:
256,192,80125,5,8,0:0:0:0:
256,192,80340,5,0,0:0:0:0:
256,192,80768,1,0,0:0:0:0:
256,192,80983,5,8,0:0:0:0:
256,192,81411,1,8,0:0:0:0:
256,192,81625,1,8,0:0:0:0:
256,192,81840,1,8,0:0:0:0:
256,192,82268,5,0,0:0:0:0:
256,192,82483,1,0,0:0:0:0:
256,192,82697,1,0,0:0:0:0:
256,192,82911,5,8,0:0:0:0:
256,192,83340,5,0,0:0:0:0:
256,192,83554,5,8,0:0:0:0:
256,192,83768,5,0,0:0:0:0:
256,192,84197,1,0,0:0:0:0:
256,192,84411,5,8,0:0:0:0:
256,192,84840,5,4,0:0:0:0:
256,192,85268,5,8,0:0:0:0:
256,192,85483,5,0,0:0:0:0:
256,192,85697,5,8,0:0:0:0:
256,192,85911,5,0,0:0:0:0:
256,192,86125,1,0,0:0:0:0:
256,192,86340,5,8,0:0:0:0:
256,192,86768,1,8,0:0:0:0:
256,192,86983,5,0,0:0:0:0:
256,192,87197,5,12,0:0:0:0:
256,192,87625,1,8,0:0:0:0:
256,192,88054,1,0,0:0:0:0:
256,192,88268,5,8,0:0:0:0:
256,192,88483,5,0,0:0:0:0:
256,192,88697,1,0,0:0:0:0:
256,192,88911,5,8,0:0:0:0:
256,192,89340,5,0,0:0:0:0:
256,192,89554,1,0,0:0:0:0:
256,192,89768,5,8,0:0:0:0:
256,192,90197,5,0,0:0:0:0:
256,192,90411,5,8,0:0:0:0:
256,192,90625,1,12,0:0:0:0:
256,192,90840,1,12,0:0:0:0:
256,192,91054,5,4,0:0:0:0:
256,192,91268,1,4,0:0:0:0:
256,192,91483,5,12,0:0:0:0:
256,192,91697,12,0,95125,0:0:0:0:
