osu file format v12

[General]
AudioFilename: yb.mp3
AudioLeadIn: 1000
PreviewTime: 64354
Countdown: 0
SampleSet: Soft
StackLeniency: 0.7
Mode: 0
LetterboxInBreaks: 0

[Editor]
DistanceSpacing: 1
BeatDivisor: 4
GridSize: 4

[Metadata]
Title:Yumekai Biyori (Short Ver.)
TitleUnicode:夢飼い日和 (Short Ver.)
Artist:Nishizawa Hagumi
ArtistUnicode:西沢はぐみ
Creator:MiLu
Version:Normal
Source:Daitoshokan no Hitsujikai
Tags:august opening
BeatmapID:220022
BeatmapSetID:78701

[Difficulty]
HPDrainRate:4
CircleSize:3
OverallDifficulty:4
ApproachRate:5
SliderMultiplier:1.2
SliderTickRate:2

[Events]
//Background and Video events
0,0,"BG.jpg",0,0
Video,-700,"Movie.avi"
//Break Periods
//Storyboard Layer 0 (Background)
//Storyboard Layer 1 (Fail)
//Storyboard Layer 2 (Pass)
//Storyboard Layer 3 (Foreground)
//Storyboard Sound Samples
//Background Colour Transformations
3,100,163,162,255

[TimingPoints]
1085,444.444444444444,4,2,1,50,1,0
1196,-100,4,2,1,40,0,0
2640,-100,4,2,1,50,0,0
2973,-100,4,2,1,40,0,0
3418,-100,4,2,1,50,0,0
3640,-100,4,2,1,40,0,0
4196,-100,4,2,1,50,0,0
4751,-100,4,2,1,40,0,0
5196,-100,4,2,1,50,0,0
5418,-100,4,2,1,40,0,0
6751,-100,4,2,1,35,0,0
6973,-100,4,2,1,50,0,0
7196,-100,4,2,1,40,0,0
7751,-100,4,2,1,50,0,0
8307,-100,4,2,1,40,0,0
8751,-100,4,2,1,50,0,0
8973,-100,4,2,1,40,0,0
9640,-100,4,2,1,50,0,0
9862,-100,4,2,1,40,0,0
10640,-100,4,2,1,50,0,0
11196,-100,4,2,1,35,0,0
11640,-100,4,2,1,50,0,0
11862,-100,4,2,1,40,0,0
12307,-100,4,2,1,50,0,0
12529,-100,4,2,1,40,0,0
13196,-100,4,2,1,50,0,0
13418,-100,4,2,1,40,0,0
14084,-100,4,2,1,50,0,0
14307,-100,4,2,1,40,0,0
16640,-100,4,2,1,35,0,0
16973,-100,4,2,1,40,0,0
17196,-100,4,2,1,35,0,0
18819,428.571428571429,4,2,1,65,1,0
18926,-100,4,2,1,55,0,0
19783,-100,4,2,1,65,0,0
19997,-100,4,2,1,55,0,0
20319,-100,4,2,1,65,0,0
20640,-100,4,2,1,55,0,0
21176,-100,4,2,1,65,0,0
21711,-100,4,2,1,55,0,0
22140,-100,4,2,1,65,0,0
22354,-100,4,2,1,55,0,0
23211,-100,4,2,1,65,0,0
23426,-100,4,2,1,55,0,0
25140,-100,4,1,1,60,0,0
25354,-100,4,2,1,55,0,0
25569,-100,4,2,1,65,0,0
25783,-100,4,2,1,55,0,0
27604,-100,4,2,1,65,0,0
27711,-100,4,2,1,55,0,0
28033,-100,4,2,1,65,0,0
28569,-100,4,2,1,55,0,0
34783,-100,4,2,1,55,0,0
35319,-100,4,2,3,35,0,0
35533,-100,4,2,0,50,0,0
35854,-100,4,2,1,55,0,0
36069,-100,4,2,1,50,0,0
42390,-100,4,2,2,60,0,0
42497,-100,4,2,1,50,0,0
49569,-100,4,2,1,60,0,0
56104,-100,4,2,1,50,0,0
56426,-100,4,2,1,60,0,0
63283,-100,4,2,1,40,0,0
63819,-100,4,2,1,50,0,0
64247,-100,4,2,0,60,0,0
65104,-100,4,2,1,70,0,1
67247,-100,4,2,2,65,0,1
67354,-100,4,2,1,70,0,1
74104,-100,4,2,2,65,0,1
74211,-100,4,2,1,70,0,1
75819,-100,4,2,2,65,0,1
75926,-100,4,2,1,70,0,1
78819,-100,4,2,1,60,0,0
91247,-100,4,2,1,70,0,0
91354,-100,4,2,1,60,0,0
92319,-100,4,1,1,50,0,0
92426,-100,4,2,1,20,0,0

[Colours]
Combo1 : 255,255,45
Combo2 : 255,158,62
Combo3 : 170,170,255
Combo4 : 255,91,91

[HitObjects]
52,80,1084,2,0,P|112:88|144:136,1,120,2|0,0:0|0:0,0:0:0:0:
108,184,1751,2,0,B|96:232|96:232|104:304,2,120,0|2|0,0:0|0:0|0:0,0:0:0:0:
228,204,3084,1,0,0:0:0:0:
348,224,3529,2,0,P|396:168|368:72,1,180,2|2,0:0|0:0,0:0:0:0:
248,64,4640,6,0,P|200:96|196:156,1,120,2|0,0:0|0:0,0:0:0:0:
228,204,5307,2,0,B|228:256|228:256|244:288|228:324,2,120,2|2|2,0:0|0:0|0:0,0:0:0:0:
404,172,6862,1,0,0:0:0:0:
440,220,7085,2,0,P|456:312|400:372,1,180,2|2,0:0|0:0,0:0:0:0:
288,332,8196,6,0,P|228:320|168:332,1,120,2|0,0:0|0:0,0:0:0:0:
120,360,8862,1,2,0:0:0:0:
148,244,9307,1,0,0:0:0:0:
88,140,9751,2,0,B|28:168|28:168|16:220,2,120,2|0|2,0:0|0:0|0:0,0:0:0:0:
256,76,11307,1,0,0:0:0:0:
348,152,11751,6,0,B|308:164|284:204|284:204|244:196,1,120,2|0,0:0|0:0,0:0:0:0:
192,180,12418,2,0,B|116:224|140:304|140:304|172:320,1,180,2|0,0:0|0:0,0:0:0:0:
228,304,13307,2,0,B|252:356|252:356|296:324|372:332,1,180,2|0,0:0|0:0,0:0:0:0:
428,352,14196,2,0,B|456:336|456:336|480:280|460:224|460:224|428:212,1,180,2|0,0:0|0:0,0:0:0:0:
320,268,15307,6,0,L|296:148,1,120,2|0,0:0|0:0,0:0:0:0:
184,192,16196,2,0,L|208:72,1,120
328,60,17085,2,0,B|388:52|388:52|436:88,2,120,2|0|0,0:0|0:0|0:0,0:0:0:0:
92,92,18819,6,0,P|24:184|56:300,1,240,4|0,0:0|0:0,0:0:0:0:
104,324,19890,2,0,B|180:316|180:316|216:340,1,120,4|4,0:0|0:0,0:0:0:0:
336,336,20747,2,0,P|292:296|296:236,1,120,0|4,0:0|0:0,0:0:0:0:
456,156,21819,1,0,0:0:0:0:
372,72,22247,6,0,P|260:112|148:80,1,240,4|0,0:0|0:0,0:0:0:0:
88,96,23319,2,0,L|100:160,1,60,4|0,0:0|0:0,0:0:0:0:
52,264,23961,2,0,P|68:316|128:336,1,120,4|2,0:0|0:0,0:0:0:0:
172,296,24604,1,0,0:0:0:0:
256,136,25247,1,0,0:0:0:0:
364,84,25676,6,0,P|384:140|392:200,1,120,4|8,0:0|0:0,0:0:0:0:
276,236,26533,2,0,P|250:289|213:337,1,120,2|8,0:0|0:0,0:0:0:0:
172,296,27176,2,0,B|144:240|144:240|88:224,2,120,8|2|4,0:0|0:0|0:0,0:0:0:0:
108,128,28676,1,8,0:0:0:0:
224,100,29104,5,2,0:0:0:0:
324,168,29533,1,2,0:0:0:0:
348,224,29747,2,0,P|348:284|324:340,1,120,2|2,0:0|0:0,0:0:0:0:
204,352,30604,2,0,B|160:324|164:256|164:256|200:264|232:236,1,180,2|8,0:0|0:0,0:0:0:0:
280,204,31461,2,0,P|220:144|132:156,1,180,2|8,0:0|0:0,0:0:0:0:
256,192,32533,12,2,34033,0:0:0:0:
268,120,34890,6,0,B|268:188|268:188|244:232|244:232|244:296,1,180,2|8,0:0|0:0,0:0:0:0:
348,352,35961,6,0,P|336:292|348:232,1,120,2|0,0:0|0:0,0:0:0:0:
396,200,36604,1,0,0:0:0:0:
380,80,37033,1,0,0:0:0:0:
268,120,37461,2,0,P|216:144|152:136,1,120,2|0,0:0|0:0,0:0:0:0:
120,88,38104,2,0,L|140:32,1,60,0|0,0:0|0:0,0:0:0:0:
28,80,38747,2,0,L|12:20,2,60
48,136,39390,6,0,P|68:192|60:252,1,120,2|0,0:0|0:0,0:0:0:0:
28,300,40033,1,0,0:0:0:0:
144,276,40461,1,0,0:0:0:0:
260,308,40890,2,0,P|308:336|372:328,1,120,2|0,0:0|0:0,0:0:0:0:
412,284,41533,2,0,L|440:336,1,60,0|2,0:0|0:0,0:0:0:0:
484,224,42176,2,0,L|512:172,2,60,0|8|0,0:0|0:0|0:0,0:0:0:0:
424,216,42819,5,8,0:0:0:0:
424,216,43033,2,0,L|300:200,1,120,8|2,0:0|0:0,0:0:0:0:
216,120,43890,1,0,0:0:0:0:
192,236,44318,2,0,B|176:272|116:288|116:288|104:264,1,120,2|0,0:0|0:0,0:0:0:0:
60,228,44961,2,0,L|80:168,1,60,0|2,0:0|0:0,0:0:0:0:
172,80,45604,2,0,L|112:68,2,60,0|0|0,0:0|0:0|0:0,0:0:0:0:
216,120,46247,5,8,0:0:0:0:
252,168,46461,2,0,B|272:224|272:224|272:284,1,120,8|2,0:0|0:0,0:0:0:0:
200,380,47318,1,0,0:0:0:0:
320,364,47747,2,0,P|376:352|440:360,1,120,2|2,0:0|0:0,0:0:0:0:
496,376,48390,2,0,L|512:316,1,60,2|0,0:0|0:0,0:0:0:0:
436,224,49033,2,0,L|452:164,1,60,8|8,0:0|0:0,0:0:0:0:
356,92,49676,6,0,B|316:108|316:108|236:104,1,120,4|8,0:0|0:0,0:0:0:0:
176,204,50533,2,0,B|216:188|216:188|296:192,1,120,0|8,0:0|0:0,0:0:0:0:
408,228,51390,2,0,L|436:280,2,60,0|0|8,0:0|0:0|0:0,0:0:0:0:
316,304,52247,2,0,L|288:356,2,60,0|8|8,0:0|0:0|0:0,0:0:0:0:
200,336,53104,6,0,P|164:292|152:232,1,120,0|8,0:0|0:0,0:0:0:0:
272,204,53961,2,0,P|308:160|320:100,1,120,0|8,0:0|0:0,0:0:0:0:
212,48,54818,2,0,B|124:80|124:20|36:48,2,180,8|8|4,0:0|0:0|0:0,0:0:0:0:
320,100,56533,6,0,B|300:132|300:132|308:216,1,120,2|8,0:0|0:0,0:0:0:0:
408,148,57390,2,0,B|428:116|428:116|420:32,1,120,2|8,0:0|0:0,0:0:0:0:
320,100,58247,2,0,L|260:92,2,60,2|0|8,0:0|0:0|0:0,0:0:0:0:
236,184,59104,2,0,L|176:192,2,60,2|8|8,0:0|0:0|0:0,0:0:0:0:
252,304,59961,6,0,P|296:344|356:352,1,120,2|8,0:0|0:0,0:0:0:0:
348,232,60818,2,0,P|388:188|396:128,1,120,2|8,0:0|0:0,0:0:0:0:
344,100,61461,2,0,B|308:120|292:160|292:160|256:120|200:124,1,180,2|8,0:0|0:0,0:0:0:0:
212,244,62533,6,0,P|228:304|208:364,1,120,2|8,0:0|0:0,0:0:0:0:
128,272,63390,2,0,B|116:224|140:192|140:192|112:168,2,120,2|8|2,0:0|0:0|0:0,0:0:0:0:
104,328,64461,2,0,L|44:328,1,60,8|8,0:0|0:0,0:0:0:0:
24,208,65104,6,0,L|12:88,1,120,4|8,0:0|0:0,0:0:0:0:
128,52,65961,2,0,L|113:171,1,120,2|8,0:0|0:0,0:0:0:0:
152,216,66604,2,0,P|204:236|272:232,2,120,2|2|2,0:0|0:0|0:0,0:0:0:0:
252,148,67890,2,0,L|240:88,1,60,0|8,0:0|0:0,0:0:0:0:
360,84,68533,6,0,B|372:144|372:144|400:152|420:180,1,120,2|8,0:0|0:0,0:0:0:0:
360,284,69390,2,0,B|328:272|308:236|308:236|288:260|260:256,1,120,2|8,0:0|0:0,0:0:0:0:
220,292,70033,2,0,P|192:216|252:148,1,180,2|8,0:0|0:0,0:0:0:0:
372,164,71104,1,0,0:0:0:0:
360,284,71533,1,8,0:0:0:0:
240,292,71961,6,0,L|120:300,1,120,4|8,0:0|0:0,0:0:0:0:
52,200,72818,2,0,B|140:192|140:192|172:204,1,120,2|8,0:0|0:0,0:0:0:0:
228,212,73461,2,0,B|220:124|220:124|232:92,2,120,0|2|4,0:0|0:0|0:0,0:0:0:0:
292,312,74747,2,0,P|316:328|352:332,2,60,0|8|0,0:0|0:0|0:0,0:0:0:0:
368,220,75604,6,0,P|340:172|348:108,2,120,0|0|2,0:0|0:0|0:0,0:0:0:0:
248,232,76890,2,0,B|208:200|160:216|160:216|180:260|160:300,1,180,2|8,0:0|0:0,0:0:0:0:
52,248,77961,2,0,P|28:224|16:196,2,60,2|0|8,0:0|0:0|0:0,0:0:0:0:
88,132,78818,5,4,0:0:0:0:
192,72,79247,1,8,0:0:0:0:
256,172,79676,2,0,B|248:232|248:232|260:296,1,120,0|8,0:0|0:0,0:0:0:0:
372,248,80533,1,0,0:0:0:0:
368,128,80961,1,8,0:0:0:0:
256,172,81390,2,0,L|192:164,2,60,0|2|10,0:0|0:0|0:0,0:0:0:0:
260,292,82247,5,0,0:0:0:0:
140,312,82676,1,8,0:0:0:0:
20,328,83104,2,0,P|8:276|16:208,1,120,2|8,0:0|0:0,0:0:0:0:
92,116,83961,1,2,0:0:0:0:
184,196,84390,1,8,0:0:0:0:
300,164,84818,2,0,P|296:132|288:100,2,60,0|2|10,0:0|0:0|0:0,0:0:0:0:
292,284,85676,6,0,P|260:336|204:360,1,120,4|8,0:0|0:0,0:0:0:0:
92,332,86533,1,2,0:0:0:0:
128,216,86961,1,8,0:0:0:0:
184,196,87176,2,0,L|300:164,1,120,2|2,0:0|0:0,0:0:0:0:
360,168,87818,2,0,L|352:228,1,60,8|2,0:0|0:0,0:0:0:0:
464,184,88461,2,0,L|456:124,1,60,2|8,0:0|0:0,0:0:0:0:
360,56,89104,6,0,B|308:80|308:80|280:64|244:68,1,120,2|8,0:0|0:0,0:0:0:0:
192,96,89747,1,2,0:0:0:0:
200,216,90176,1,2,0:0:0:0:
84,192,90604,2,0,B|52:248|76:304|76:304|108:296|144:312,1,180,2|4,0:0|0:0,0:0:0:0:
200,312,91461,6,0,L|228:368,1,60,2|2,0:0|0:0,0:0:0:0:
285,365,91890,2,0,L|312:312,2,60,0|0|4,0:0|0:0|0:0,0:0:0:0:
256,192,92426,12,2,94890,0:0:0:0:
