osu file format v12

[General]
AudioFilename: yb.mp3
AudioLeadIn: 1000
PreviewTime: 64354
Countdown: 0
SampleSet: Soft
StackLeniency: 0.7
Mode: 0
LetterboxInBreaks: 0

[Editor]
DistanceSpacing: 1.4
BeatDivisor: 4
GridSize: 4

[Metadata]
Title:Yumekai Biyori (Short Ver.)
TitleUnicode:夢飼い日和 (Short Ver.)
Artist:Nishizawa Hagumi
ArtistUnicode:西沢はぐみ
Creator:MiLu
Version:Insane
Source:Daitoshokan no Hitsujikai
Tags:august opening
BeatmapID:220021
BeatmapSetID:78701

[Difficulty]
HPDrainRate:6
CircleSize:4
OverallDifficulty:8
ApproachRate:8
SliderMultiplier:1.9
SliderTickRate:2

[Events]
//Background and Video events
0,0,"BG.jpg",0,0
Video,-700,"Movie.avi"
//Break Periods
//Storyboard Layer 0 (Background)
//Storyboard Layer 1 (Fail)
//Storyboard Layer 2 (Pass)
//Storyboard Layer 3 (Foreground)
//Storyboard Sound Samples
//Background Colour Transformations
3,100,163,162,255

[TimingPoints]
1085,444.444444444444,4,2,1,50,1,0
1196,-133.333333333333,4,2,1,40,0,0
2529,-133.333333333333,4,2,1,50,0,0
2751,-133.333333333333,4,2,1,40,0,0
3418,-133.333333333333,4,2,1,50,0,0
3640,-133.333333333333,4,2,1,40,0,0
4084,-133.333333333333,4,2,1,50,0,0
4751,-133.333333333333,4,2,1,40,0,0
5196,-133.333333333333,4,2,1,50,0,0
5418,-133.333333333333,4,2,1,40,0,0
6307,-133.333333333333,4,2,1,35,0,0
6973,-133.333333333333,4,2,1,50,0,0
7196,-133.333333333333,4,2,1,40,0,0
7640,-133.333333333333,4,2,1,50,0,0
7862,-133.333333333333,4,2,1,40,0,0
8084,-133.333333333333,4,2,1,50,0,0
8307,-133.333333333333,4,2,1,40,0,0
8751,-133.333333333333,4,2,1,50,0,0
8973,-133.333333333333,4,2,1,40,0,0
9640,-133.333333333333,4,2,1,50,0,0
9862,-133.333333333333,4,2,1,40,0,0
10529,-133.333333333333,4,2,1,50,0,0
10751,-133.333333333333,4,2,1,40,0,0
11196,-133.333333333333,4,2,1,35,0,0
11751,-133.333333333333,4,2,1,50,0,0
11862,-133.333333333333,4,2,1,40,0,0
12307,-133.333333333333,4,2,1,50,0,0
12529,-133.333333333333,4,2,1,40,0,0
13196,-133.333333333333,4,2,1,50,0,0
13418,-133.333333333333,4,2,1,40,0,0
14084,-133.333333333333,4,2,1,50,0,0
14307,-133.333333333333,4,2,1,40,0,0
16084,-133.333333333333,4,2,1,30,0,0
16529,-133.333333333333,4,2,1,40,0,0
16862,-133.333333333333,4,2,1,35,0,0
17084,-133.333333333333,4,2,1,40,0,0
17196,-133.333333333333,4,2,1,35,0,0
18084,-133.333333333333,4,2,1,50,0,0
18819,428.571428571429,4,2,1,65,1,0
18926,-100,4,2,1,55,0,0
19783,-100,4,2,1,65,0,0
19997,-100,4,2,1,55,0,0
20211,-100,4,2,1,65,0,0
20426,-100,4,2,1,55,0,0
21069,-100,4,2,1,65,0,0
21283,-100,4,2,1,55,0,0
22140,-100,4,2,1,65,0,0
22354,-100,4,2,1,55,0,0
23211,-100,4,2,1,65,0,0
23426,-100,4,2,1,55,0,0
25140,-100,4,1,1,60,0,0
25354,-100,4,2,1,55,0,0
25569,-100,4,2,1,65,0,0
25783,-100,4,2,1,55,0,0
27069,-100,4,2,1,65,0,0
27283,-100,4,2,1,55,0,0
27604,-100,4,2,1,65,0,0
27676,-100,4,2,1,55,0,0
27926,-100,4,2,1,65,0,0
28140,-100,4,2,1,55,0,0
33711,-100,4,2,1,45,0,0
33926,-133.333333333333,4,2,1,55,0,0
34140,-133.333333333333,4,2,1,45,0,0
34890,-100,4,2,1,55,0,0
35211,-100,4,2,0,50,0,0
35854,-133.333333333333,4,2,1,55,0,0
36069,-133.333333333333,4,2,1,50,0,0
42390,-133.333333333333,4,2,2,60,0,0
42497,-133.333333333333,4,2,1,50,0,0
49676,-100,4,2,1,60,0,0
52676,-100,4,2,2,60,0,0
52783,-100,4,2,1,60,0,0
55247,-100,4,2,1,50,0,0
55354,-100,4,2,1,60,0,0
55997,-100,4,2,1,50,0,0
56211,-100,4,2,1,60,0,0
56533,-100,4,2,1,50,0,0
56640,-100,4,2,1,60,0,0
57069,-100,4,2,1,50,0,0
57283,-100,4,2,1,60,0,0
57604,-100,4,2,1,50,0,0
57711,-100,4,2,1,60,0,0
58247,-100,4,2,1,50,0,0
58354,-100,4,2,1,60,0,0
63283,-100,4,2,1,40,0,0
63819,-100,4,2,1,50,0,0
64247,-100,4,2,1,60,0,0
64354,-100,4,2,0,60,0,0
64569,-100,4,2,0,70,0,0
65104,-100,4,2,1,70,0,1
73783,-100,4,2,1,60,0,1
73997,-100,4,2,1,70,0,1
75390,-100,4,2,1,10,0,1
75497,-100,4,2,1,50,0,1
75711,-100,4,2,1,70,0,1
75926,-100,4,2,1,50,0,1
76140,-100,4,2,1,70,0,1
76783,-100,4,2,1,60,0,1
76997,-100,4,2,1,70,0,1
78819,-100,4,2,1,60,0,0
85569,-100,4,2,1,70,0,0
85783,-100,4,2,1,60,0,0
86533,-100,4,2,1,70,0,0
86640,-100,4,2,1,60,0,0
87069,-100,4,2,1,70,0,0
87283,-100,4,2,1,60,0,0
87604,-100,4,2,1,70,0,0
87711,-100,4,2,1,60,0,0
89104,-100,4,2,1,70,0,0
89211,-100,4,2,1,60,0,0
89640,-100,4,2,1,70,0,0
89854,-100,4,2,1,60,0,0
90069,-100,4,2,1,70,0,0
90283,-100,4,2,1,60,0,0
90497,-100,4,2,1,70,0,0
90711,-100,4,2,1,60,0,0
91140,-100,4,2,1,80,0,0
91354,-100,4,2,1,60,0,0
92319,-100,4,1,1,50,0,0
92426,-100,4,2,1,20,0,0

[Colours]
Combo1 : 255,255,45
Combo2 : 255,158,62
Combo3 : 170,170,255
Combo4 : 255,91,91

[HitObjects]
396,352,1084,1,2,0:0:0:0:
416,268,1307,1,0,0:0:0:0:
332,248,1529,1,0,0:0:0:0:
312,332,1751,2,0,B|284:352|244:348|244:348,1,71.2500027179719,2|0,0:0|0:0,0:0:0:0:
208,268,2196,1,0,0:0:0:0:
124,288,2418,1,2,0:0:0:0:
56,340,2640,2,0,L|32:196,1,142.500005435944,2|0,0:0|0:0,0:0:0:0:
68,120,3307,1,0,0:0:0:0:
136,172,3529,2,0,P|196:200|272:188,1,142.500005435944,2|0,0:0|0:0,0:0:0:0:
372,64,4196,1,2,0:0:0:0:
372,64,4640,6,0,B|356:96|364:136|364:136,1,71.2500027179719,2|0,0:0|0:0,0:0:0:0:
440,168,5084,1,0,0:0:0:0:
472,248,5307,2,0,P|480:316|448:380,2,142.500005435944,2|2|2,0:0|0:0|0:0,0:0:0:0:
396,288,6418,2,0,B|364:312|328:308|328:308,1,71.2500027179719,0|0,0:0|0:0,0:0:0:0:
268,248,6862,1,2,0:0:0:0:
208,188,7085,2,0,P|160:236|168:308,1,142.500005435944,2|0,0:0|0:0,0:0:0:0:
96,356,7751,2,0,P|80:328|68:292,1,71.2500027179719,2|0,0:0|0:0,0:0:0:0:
24,108,8196,5,2,0:0:0:0:
68,180,8418,1,0,0:0:0:0:
140,136,8640,1,0,0:0:0:0:
208,188,8862,2,0,B|244:196|280:176|280:176,1,71.2500027179719,2|0,0:0|0:0,0:0:0:0:
268,92,9307,2,0,B|304:84|340:104|340:104,1,71.2500027179719
368,184,9751,2,0,P|352:252|364:324,1,142.500005435944,2|0,0:0|0:0,0:0:0:0:
440,284,10418,1,2,0:0:0:0:
508,232,10640,2,0,P|524:164|512:92,1,142.500005435944,2|0,0:0|0:0,0:0:0:0:
436,52,11307,5,2,0:0:0:0:
404,68,11418,1,0,0:0:0:0:
368,72,11529,1,0,0:0:0:0:
332,68,11640,1,0,0:0:0:0:
300,52,11751,2,0,P|264:44|228:48,1,71.2500027179719,2|0,0:0|0:0,0:0:0:0:
248,132,12196,1,0,0:0:0:0:
292,204,12418,2,0,P|316:272|300:340,1,142.500005435944,2|0,0:0|0:0,0:0:0:0:
216,344,13085,1,0,0:0:0:0:
132,324,13307,6,0,B|120:288|132:252|132:252,1,71.2500027179719,2|0,0:0|0:0,0:0:0:0:
208,180,13751,2,0,B|220:216|208:252|208:252,1,71.2500027179719
52,352,14196,2,0,P|40:284|52:212,1,142.500005435944,2|2,0:0|0:0,0:0:0:0:
124,164,14862,1,0,0:0:0:0:
208,180,15085,1,2,0:0:0:0:
292,196,15307,6,0,B|308:164|304:124|304:124,1,71.2500027179719,0|0,0:0|0:0,0:0:0:0:
376,212,15751,2,0,B|360:244|364:284|364:284,1,71.2500027179719,0|0,0:0|0:0,0:0:0:0:
448,264,16196,1,2,0:0:0:0:
472,180,16418,1,2,0:0:0:0:
492,96,16640,2,0,P|440:80|388:80,1,106.875004076958
356,108,17085,2,0,L|280:104,1,71.2500027179719,2|0,0:0|0:0,0:0:0:0:
208,180,17529,2,0,L|132:176,2,71.2500027179719,0|0|0,0:0|0:0|0:0,0:0:0:0:
388,80,18196,5,2,0:0:0:0:
137,177,18418,1,0,0:0:0:0:
388,272,18640,1,2,0:0:0:0:
136,368,18819,6,0,P|48:344|32:256,1,190,4|0,0:0|0:0,0:0:0:0:
124,272,19461,1,2,0:0:0:0:
196,212,19676,1,0,0:0:0:0:
144,132,19890,2,0,B|100:108|48:120|48:120,1,95,4|0,0:0|0:0,0:0:0:0:
276,264,20319,2,0,B|300:220|288:168|288:168,1,95,4|0,0:0|0:0,0:0:0:0:
176,44,20747,2,0,B|202:86|253:102|253:102,1,95,2|0,0:0|0:0,0:0:0:0:
420,68,21176,2,0,B|369:69|330:105|330:105,1,95,4|0,0:0|0:0,0:0:0:0:
372,280,21604,5,2,0:0:0:0:
456,232,21819,1,0,0:0:0:0:
392,160,22033,1,2,0:0:0:0:
308,208,22247,2,0,B|260:228|212:216|212:216,1,95,4|0,0:0|0:0,0:0:0:0:
160,140,22676,1,0,0:0:0:0:
84,80,22890,2,0,B|42:111|29:159|29:159,1,95,2|0,0:0|0:0,0:0:0:0:
104,216,23319,1,4,0:0:0:0:
176,276,23533,2,0,P|160:348|100:376,1,142.5,2|0,0:0|0:0,0:0:0:0:
60,356,23961,5,4,0:0:0:0:
248,336,24176,1,0,0:0:0:0:
24,268,24390,1,2,0:0:0:0:
236,200,24604,2,0,B|256:156|244:104|244:104,1,95,2|0,0:0|0:0,0:0:0:0:
180,36,25033,1,0,0:0:0:0:
176,276,25247,1,0,0:0:0:0:
388,160,25461,1,0,0:0:0:0:
244,108,25676,6,0,B|224:152|236:204|236:204,1,95,4|0,0:0|0:0,0:0:0:0:
268,292,26104,1,8,0:0:0:0:
352,252,26319,1,0,0:0:0:0:
388,160,26533,2,0,B|408:116|396:64|396:64,1,95,0|0,0:0|0:0,0:0:0:0:
308,36,26961,1,8,0:0:0:0:
244,108,27176,2,0,P|176:128|112:104,1,142.5,2|0,0:0|0:0,0:0:0:0:
92,60,27604,2,0,L|104:28,3,31.6666666666667,2|0|0|8,0:0|0:0|0:0|0:0,0:0:0:0:
168,200,28033,2,0,P|184:292|132:368,1,190,2|0,0:0|0:0,0:0:0:0:
40,344,28676,2,0,P|44:296|52:248,1,95,8|0,0:0|0:0,0:0:0:0:
92,60,29104,5,2,0:0:0:0:
408,40,29533,1,8,0:0:0:0:
320,76,29747,2,0,B|292:116|300:168|300:168,1,95,2|0,0:0|0:0,0:0:0:0:
384,272,30176,1,2,0:0:0:0:
312,332,30390,1,8,0:0:0:0:
220,308,30604,2,0,B|172:292|124:304|124:304,1,95,2|0,0:0|0:0,0:0:0:0:
40,344,31033,1,0,0:0:0:0:
40,344,31140,1,0,0:0:0:0:
40,344,31247,1,8,0:0:0:0:
104,228,31461,6,0,B|116:184|108:132|108:132,1,95,2|0,0:0|0:0,0:0:0:0:
24,176,31890,1,0,0:0:0:0:
200,132,32104,2,0,P|240:116|292:104,1,95,8|0,0:0|0:0,0:0:0:0:
324,108,32426,1,0,0:0:0:0:
356,116,32533,2,0,B|380:160|372:208|372:208,1,95,4|0,0:0|0:0,0:0:0:0:
220,352,32961,1,8,0:0:0:0:
120,320,33176,2,0,B|96:276|104:228|104:228,1,95,0|0,0:0|0:0,0:0:0:0:
136,68,33604,1,0,0:0:0:0:
204,152,33819,1,8,0:0:0:0:
280,76,34033,6,0,P|332:120|352:192,1,142.500005435944,4|0,0:0|0:0,0:0:0:0:
288,248,34676,2,0,L|300:324,1,71.2500027179719,0|2,0:0|0:0,0:0:0:0:
40,340,35319,5,8,0:0:0:0:
152,328,35533,1,8,0:0:0:0:
140,296,35640,1,0,0:0:0:0:
128,264,35747,1,0,0:0:0:0:
44,208,35961,2,0,P|96:168|172:176,1,142.500005435944,2|0,0:0|0:0,0:0:0:0:
216,248,36604,2,0,P|282:217|307:156,1,142.500005435944,2|0,0:0|0:0,0:0:0:0:
240,100,37247,1,0,0:0:0:0:
377,51,37461,2,0,P|340:44|308:48,1,71.2500027179719,2|0,0:0|0:0,0:0:0:0:
380,136,37890,2,0,P|418:138|448:150,1,71.2500027179719
384,220,38319,2,0,P|348:224|314:216,1,71.2500027179719,2|0,0:0|0:0,0:0:0:0:
236,184,38747,5,0,0:0:0:0:
240,100,38961,1,0,0:0:0:0:
160,68,39176,1,2,0:0:0:0:
125,218,39390,2,0,P|140:192|144:152,1,71.2500027179719,2|0,0:0|0:0,0:0:0:0:
60,168,39819,1,0,0:0:0:0:
36,252,40033,2,0,P|48:320|96:376,1,142.500005435944,2|2,0:0|0:0,0:0:0:0:
172,336,40676,1,0,0:0:0:0:
252,304,40890,2,0,P|320:296|392:324,1,142.500005435944,2|0,0:0|0:0,0:0:0:0:
472,348,41533,2,0,P|468:312|456:280,1,71.2500027179719,0|2,0:0|0:0,0:0:0:0:
364,32,42176,6,0,P|368:68|380:100,1,71.2500027179719,0|8,0:0|0:0,0:0:0:0:
460,132,42604,1,0,0:0:0:0:
440,216,42819,2,0,P|404:220|368:216,1,71.2500027179719,8|8,0:0|0:0,0:0:0:0:
376,376,43247,1,0,0:0:0:0:
320,312,43461,2,0,P|292:248|276:176,1,142.500005435944,2|0,0:0|0:0,0:0:0:0:
320,104,44104,1,0,0:0:0:0:
216,28,44318,2,0,P|232:60|236:96,1,71.2500027179719,2|0,0:0|0:0,0:0:0:0:
168,148,44747,2,0,P|148:177|119:199,1,71.2500027179719,0|2,0:0|0:0,0:0:0:0:
40,168,45176,2,0,P|36:204|44:240,1,71.2500027179719,2|0,0:0|0:0,0:0:0:0:
108,348,45604,5,0,0:0:0:0:
152,276,45818,1,0,0:0:0:0:
119,198,46033,1,2,0:0:0:0:
40,168,46247,2,0,P|36:204|44:240,1,71.2500027179719,8|8,0:0|0:0,0:0:0:0:
192,348,46676,1,0,0:0:0:0:
236,276,46890,2,0,P|229:236|213:207,1,71.2500027179719,2|0,0:0|0:0,0:0:0:0:
288,168,47318,2,0,P|263:137|234:119,1,71.2500027179719,0|0,0:0|0:0,0:0:0:0:
100,56,47747,2,0,P|172:60|240:36,1,142.500005435944,2|2,0:0|0:0,0:0:0:0:
324,40,48390,1,2,0:0:0:0:
392,92,48604,2,0,P|388:128|372:160,1,71.2500027179719,0|0,0:0|0:0,0:0:0:0:
288,168,49033,5,8,0:0:0:0:
267,201,49140,1,2,0:0:0:0:
258,239,49247,1,8,0:0:0:0:
259,278,49354,1,2,0:0:0:0:
268,316,49461,1,0,0:0:0:0:
268,316,49568,1,0,0:0:0:0:
268,316,49676,6,0,P|228:343|182:351,1,95,4|0,0:0|0:0,0:0:0:0:
176,256,50104,2,0,P|132:240|84:244,1,95,8|0,0:0|0:0,0:0:0:0:
36,208,50426,2,0,P|104:200|164:160,1,142.5
216,76,50961,1,8,0:0:0:0:
76,120,51176,5,0,0:0:0:0:
176,256,51390,1,0,0:0:0:0:
368,180,51604,1,0,0:0:0:0:
268,316,51818,1,8,0:0:0:0:
104,232,52033,1,0,0:0:0:0:
104,232,52140,2,0,B|120:192|164:160,1,95
192,216,52461,2,0,B|180:296|216:344|248:344|248:344|268:316,1,190,8|0,0:0|0:0,0:0:0:0:
300,188,53104,1,0,0:0:0:0:
216,252,53318,6,0,B|196:296|200:348|200:348,1,95,0|8,0:0|0:0,0:0:0:0:
332,368,53747,1,0,0:0:0:0:
332,368,53854,2,0,P|384:328|460:332,1,142.5
484,200,54390,2,0,B|544:152|512:72,1,142.5,8|0,0:0|0:0,0:0:0:0:
452,100,54818,2,0,P|416:68|404:24,1,95,8|0,0:0|0:0,0:0:0:0:
404,24,55140,1,0,0:0:0:0:
404,24,55247,1,8,0:0:0:0:
272,40,55461,2,0,P|176:60|84:88,1,190,8|8,0:0|0:0,0:0:0:0:
68,188,56104,1,4,0:0:0:0:
148,256,56318,5,0,0:0:0:0:
148,256,56426,1,0,0:0:0:0:
148,256,56533,2,0,B|172:292|180:344|180:344,1,95,8|0,0:0|0:0,0:0:0:0:
76,356,56961,1,8,0:0:0:0:
248,288,57176,1,8,0:0:0:0:
248,288,57283,2,0,B|268:276|268:276|304:332|372:328,1,142.5,0|8,0:0|0:0,0:0:0:0:
448,256,57818,1,8,0:0:0:0:
344,240,58033,2,0,P|336:192|336:144,1,95,0|8,0:0|0:0,0:0:0:0:
500,52,58461,2,0,P|508:100|508:148,1,95,0|8,0:0|0:0,0:0:0:0:
368,328,58890,1,0,0:0:0:0:
368,328,58997,2,0,P|304:312|260:252,1,142.5,0|8,0:0|0:0,0:0:0:0:
368,216,59533,5,10,0:0:0:0:
390,191,59640,1,0,0:0:0:0:
398,158,59747,1,2,0:0:0:0:
391,125,59854,1,0,0:0:0:0:
376,96,59961,2,0,L|280:108,1,95,0|0,0:0|0:0,0:0:0:0:
68,188,60390,2,0,L|162:199,1,95,8|0,0:0|0:0,0:0:0:0:
462,316,60818,2,0,L|368:328,1,95,0|0,0:0|0:0,0:0:0:0:
80,340,61247,1,8,0:0:0:0:
220,316,61461,6,0,B|276:292|284:220|284:220|256:196|240:168,1,190,4|2,0:0|0:0,0:0:0:0:
340,80,62104,1,8,0:0:0:0:
364,212,62318,1,2,0:0:0:0:
240,168,62533,1,0,0:0:0:0:
216,36,62747,1,2,0:0:0:0:
116,124,62961,1,8,0:0:0:0:
140,256,63176,1,2,0:0:0:0:
292,356,63390,6,0,L|312:376,7,23.75
292,316,63818,2,0,L|319:323,7,23.75
268,288,64247,1,0,0:0:0:0:
140,256,64461,1,8,0:0:0:0:
116,124,64676,1,8,0:0:0:0:
272,192,64890,5,0,0:0:0:0:
272,192,64997,1,0,0:0:0:0:
272,192,65104,2,0,P|312:212|364:216,1,95,4|0,0:0|0:0,0:0:0:0:
488,64,65533,2,0,P|448:44|396:40,1,95,8|0,0:0|0:0,0:0:0:0:
368,136,65961,1,0,0:0:0:0:
308,320,66176,1,0,0:0:0:0:
184,180,66390,1,8,0:0:0:0:
360,216,66604,6,0,P|384:260|388:304,1,95,0|0,0:0|0:0,0:0:0:0:
272,192,67033,1,0,0:0:0:0:
152,96,67247,1,8,0:0:0:0:
120,244,67461,2,0,B|116:280|132:316|132:316|156:324,1,95,0|0,0:0|0:0,0:0:0:0:
308,320,67890,5,2,0:0:0:0:
344,297,67997,1,0,0:0:0:0:
364,259,68104,1,10,0:0:0:0:
360,216,68211,1,0,0:0:0:0:
345,175,68318,1,2,0:0:0:0:
304,160,68426,1,0,0:0:0:0:
272,192,68533,6,0,P|260:144|240:100,1,95,0|0,0:0|0:0,0:0:0:0:
40,136,68961,1,8,0:0:0:0:
0,312,69176,1,0,0:0:0:0:
150,333,69390,2,0,P|138:285|120:244,1,95
40,136,69818,1,8,0:0:0:0:
119,243,70033,2,0,P|188:240|264:236,1,142.5
272,192,70461,2,0,P|268:144|272:96,1,95,0|8,0:0|0:0,0:0:0:0:
472,240,70890,5,2,0:0:0:0:
429,243,70997,1,0,0:0:0:0:
390,224,71104,1,2,0:0:0:0:
365,189,71211,1,0,0:0:0:0:
359,146,71318,1,2,0:0:0:0:
456,72,71533,1,10,0:0:0:0:
296,44,71747,5,0,0:0:0:0:
296,44,71854,1,0,0:0:0:0:
296,44,71961,2,4,P|251:51|207:71,1,95,4|0,0:0|0:0,0:0:0:0:
24,152,72390,2,4,P|69:159|113:179,1,95,8|0,0:0|0:0,0:0:0:0:
216,352,72818,1,0,0:0:0:0:
300,252,73033,1,0,0:0:0:0:
228,140,73247,1,8,0:0:0:0:
340,340,73461,2,0,P|376:312|396:268,1,95
132,264,73890,5,4,0:0:0:0:
340,340,74104,1,8,0:0:0:0:
484,172,74318,2,0,B|428:92|428:92|336:80,1,190,4|2,0:0|0:0,0:0:0:0:
343,122,74854,1,0,0:0:0:0:
311,151,74961,1,8,0:0:0:0:
268,156,75068,1,0,0:0:0:0:
228,140,75176,2,0,L|216:236,1,95,0|0,0:0|0:0,0:0:0:0:
216,234,75604,6,0,P|228:278|224:330,1,95,4|8,0:0|0:0,0:0:0:0:
76,288,76033,2,0,P|43:255|21:208,1,95,4|0,0:0|0:0,0:0:0:0:
124,88,76461,1,0,0:0:0:0:
228,140,76676,1,8,0:0:0:0:
304,56,76890,2,0,P|384:96|384:188,1,190,4|0,0:0|0:0,0:0:0:0:
344,200,77426,1,0,0:0:0:0:
308,224,77533,2,0,P|312:272|324:320,1,95,8|0,0:0|0:0,0:0:0:0:
436,336,77961,1,0,0:0:0:0:
208,331,78176,1,0,0:0:0:0:
384,188,78390,5,8,0:0:0:0:
400,144,78497,1,0,0:0:0:0:
384,100,78604,1,0,0:0:0:0:
352,64,78711,1,0,0:0:0:0:
304,56,78818,2,0,P|256:68|208:68,1,95,4|0,0:0|0:0,0:0:0:0:
48,144,79247,2,0,P|96:132|144:132,1,95,8|0,0:0|0:0,0:0:0:0:
240,168,79676,1,2,0:0:0:0:
248,200,79783,1,0,0:0:0:0:
256,232,79890,1,2,0:0:0:0:
232,332,80104,1,8,0:0:0:0:
128,352,80318,6,0,B|80:360|80:360|40:336,1,95,2|0,0:0|0:0,0:0:0:0:
124,244,80747,2,0,B|120:196|120:196|104:152,1,95,0|8,0:0|0:0,0:0:0:0:
48,40,81176,2,0,B|72:52|72:52|156:32|156:32|184:44,1,142.5,2|0,0:0|0:0,0:0:0:0:
216,68,81604,1,2,0:0:0:0:
240,168,81818,1,8,0:0:0:0:
264,268,82033,1,2,0:0:0:0:
400,356,82247,5,2,0:0:0:0:
380,329,82354,1,0,0:0:0:0:
370,297,82461,1,0,0:0:0:0:
367,263,82568,1,0,0:0:0:0:
385,235,82676,1,10,0:0:0:0:
416,224,82783,1,0,0:0:0:0:
440,248,82890,2,0,P|364:236|300:248,1,142.5,2|0,0:0|0:0,0:0:0:0:
264,268,83318,1,2,0:0:0:0:
240,168,83533,1,8,0:0:0:0:
216,68,83747,1,2,0:0:0:0:
140,140,83961,6,0,P|132:188|108:228,1,95,0|0,0:0|0:0,0:0:0:0:
24,56,84390,2,0,P|64:40|116:39,1,95,8|2,0:0|0:0,0:0:0:0:
240,168,84818,1,0,0:0:0:0:
316,96,85033,1,2,0:0:0:0:
264,268,85247,2,0,P|272:312|288:360,1,95,8|0,0:0|0:0,0:0:0:0:
414,321,85676,5,4,0:0:0:0:
381,323,85783,1,0,0:0:0:0:
353,303,85890,1,0,0:0:0:0:
344,272,85997,1,0,0:0:0:0:
352,240,86104,2,0,B|380:232|404:248|404:248|430:217,1,95,8|0,0:0|0:0,0:0:0:0:
484,128,86533,1,2,0:0:0:0:
394,73,86747,2,0,B|366:81|342:65|342:65|316:96,1,95,0|8,0:0|0:0,0:0:0:0:
264,268,87176,6,0,P|184:240|168:144,1,190,2|2,0:0|0:0,0:0:0:0:
220,52,87818,1,8,0:0:0:0:
176,344,88033,1,4,0:0:0:0:
176,344,88461,2,0,P|180:300|168:252,1,95,2|8,0:0|0:0,0:0:0:0:
96,140,88890,5,0,0:0:0:0:
88,172,88997,1,0,0:0:0:0:
80,204,89104,1,2,0:0:0:0:
52,304,89318,1,0,0:0:0:0:
176,344,89533,1,8,0:0:0:0:
256,176,89747,6,0,P|252:220|264:268,1,95,2|0,0:0|0:0,0:0:0:0:
356,316,90176,1,2,0:0:0:0:
168,232,90390,1,8,0:0:0:0:
380,220,90604,2,0,P|391:177|388:128,1,95,2|0,0:0|0:0,0:0:0:0:
348,32,91033,1,0,0:0:0:0:
256,176,91247,1,4,0:0:0:0:
356,316,91461,6,0,L|344:364,1,47.5,2|0,0:0|0:0,0:0:0:0:
236,352,91676,2,0,L|247:305,1,47.5,2|0,0:0|0:0,0:0:0:0:
168,232,91890,2,0,L|156:280,1,47.5,0|0,0:0|0:0,0:0:0:0:
48,268,92104,2,0,L|59:221,1,47.5,0|0,0:0|0:0,0:0:0:0:
88,116,92318,1,4,0:0:0:0:
256,192,92426,12,2,94890,0:0:0:0:
