osu file format v9

[General]
AudioFilename: Sakura no Kasumi.mp3
AudioLeadIn: 500
PreviewTime: 57488
Countdown: 0
SampleSet: Soft
StackLeniency: 0.5
Mode: 0
LetterboxInBreaks: 0

[Editor]
DistanceSpacing: 0.8
BeatDivisor: 4
GridSize: 4

[Metadata]
Title:Sakura no Kasumi (Short Ver.)
Artist:Nishizawa Hagumi
Creator:Kitsuneko
Version:Normal
Source:Hanafubuki
Tags:silverbullet Sennen no Koi wo Shimashita

[Difficulty]
HPDrainRate:4
CircleSize:3
OverallDifficulty:4
ApproachRate:5
SliderMultiplier:1.28
SliderTickRate:1

[Events]
//Background and Video events
Video,-1100,"Sakura no Kasumi.avi"
0,0,"hanafubuki.jpg"
//Break Periods
//Storyboard Layer 0 (Background)
//Storyboard Layer 1 (Fail)
//Storyboard Layer 2 (Pass)
//Storyboard Layer 3 (Foreground)
//Storyboard Sound Samples
//Background Colour Transformations
3,100,163,162,255

[TimingPoints]
2405.25782342801,468.75,4,2,1,60,1,0
10842,-100,4,2,1,65,0,0
10959,-100,4,2,1,60,0,0
11780,-100,4,2,1,70,0,0
11897,-100,4,2,1,60,0,0
12717,-100,4,2,1,70,0,0
12834,-100,4,2,1,60,0,0
13655,-100,4,2,1,70,0,0
13772,-100,4,2,1,60,0,0
14592,-100,4,2,1,70,0,0
14709,-100,4,2,1,60,0,0
15530,-100,4,2,1,70,0,0
15647,-100,4,2,1,60,0,0
16467,-100,4,2,1,70,0,0
16584,-100,4,2,1,60,0,0
17405,-100,4,2,1,70,0,0
17522,-100,4,2,1,60,0,0
21155,-100,4,2,1,50,0,0
49280,-100,4,2,1,52,0,0
50217,-100,4,2,1,56,0,0
51155,-100,4,2,1,60,0,0
54905,-100,4,2,1,64,0,0
56194,-100,4,2,1,50,0,0
57717,468.75,4,2,1,68,1,1
69435,-100,4,2,1,70,0,1
70373,-100,4,2,1,74,0,1
71779,-100,4,2,1,78,0,1
72482,-100,4,2,1,68,0,1
84904,-100,4,2,1,72,0,1
85373,-100,4,2,1,74,0,1
85842,-100,4,2,1,80,0,0
86545,-100,4,2,1,70,0,0
93576,-100,4,2,1,80,0,0
93693,-100,4,2,1,70,0,0

[Colours]
Combo1 : 170,255,238
Combo2 : 255,170,253
Combo3 : 255,189,170
Combo4 : 232,255,170

[HitObjects]
256,88,2405,1,4
348,132,2874,2,0,B|424:148|476:108,2,128,2|0|2
280,208,4280,1,0
280,208,4514,2,0,B|272:280,1,64,0|2
192,332,5217,2,0,B|124:352|64:312,1,128,0|2
20,224,6155,5,4
44,124,6624,1,2
124,188,7092,1,0
124,188,7561,1,2
228,168,8030,2,0,B|288:200|360:180,2,128,0|2|0
208,120,9202,1,2
220,72,9436,1,2
320,52,9905,6,0,B|404:52|404:52|436:80,1,128,4|2
476,176,10842,2,0,B|484:244|452:304,1,128,0|2
368,356,11780,1,0
368,356,12249,1,2
280,296,12717,2,0,B|204:312,2,64,2|2|2
356,216,13655,6,0,B|404:168|392:96,1,128,4|2
292,76,14592,2,0,B|244:124|256:196,1,128,2|2
256,296,15530,5,4
256,296,15764,1,0
256,296,15999,2,0,B|116:316,2,128,2|0|2
256,192,17405,1,4
256,192,17522,12,2,21155
256,192,22092,5,2
256,88,22561,1,2
348,136,23030,6,0,B|376:200|336:264,1,128,4|2
252,312,23967,2,0,B|116:280,1,128,0|2
24,268,24905,2,0,B|16:308|16:308|32:332,2,64,0|0|2
40,168,25842,2,0,B|112:180|168:144,1,128,0|2
232,68,26780,6,0,B|304:48|360:84,1,128,0|2
456,56,27717,2,0,B|476:128|440:184,1,128,0|2
340,192,28655,1,0
340,192,28889,2,0,B|264:204,1,64,0|2
256,100,29592,1,2
256,100,29827,2,0,B|180:84,1,64,0|2
92,72,30530,6,0,B|56:100|56:100|68:188,1,128,4|2
84,284,31467,1,0
164,220,31936,1,2
264,236,32405,6,0,B|336:248|396:212,1,128,0|2
384,116,33342,1,0
384,116,33577,2,0,B|348:116|348:116|332:88,1,64,0|2
232,104,34280,6,0,B|208:112|208:112|180:176|232:200,1,128,0|2
276,292,35217,2,0,B|400:252,1,128,0|2
460,172,36155,6,0,B|420:140|364:152,1,96,2|2
320,92,36858,2,0,B|288:132|300:188,1,96,2|2
364,224,37561,2,0,B|360:304,1,64,2|2
356,340,38030,6,0,B|256:372|164:324,1,192,4|0
108,244,39202,1,2
108,244,39436,1,2
128,128,39905,6,0,B|260:112,1,128,0|2
336,64,40842,2,0,B|408:56,2,64,0|0|2
352,168,41780,6,0,B|424:152|476:228|448:300,1,192,4|0
356,336,42952,1,2
356,336,43186,1,2
256,300,43655,6,0,B|200:332|120:328,1,128,0|2
36,292,44592,2,0,B|4:236|8:156,1,128,0|2
68,84,45530,6,0,B|196:64|196:64|256:92,1,192,4|0
348,56,46702,1,2
348,56,46936,1,2
420,128,47405,6,0,B|448:192|416:260,1,128,0|2
340,316,48342,2,0,B|288:304|288:304|264:312|264:312|212:296,1,128,0|2
120,264,49280,6,0,B|88:288|88:288|20:288,2,96,4|2|2
120,212,50217,2,0,B|60:212|60:212|32:192,2,96,4|2|2
120,160,51155,6,0,B|184:136|248:160,1,128,4|2
324,92,52092,1,4
324,92,52327,1,0
324,92,52561,2,0,B|452:116,2,128,2|4|2
224,76,53967,1,4
124,100,54436,5,2
124,100,54670,1,0
124,100,54905,2,0,B|160:156|136:224,1,128,4|2
40,244,55842,2,0,B|20:344,1,96,4|2
336,312,57483,5,0
336,312,57717,2,0,B|392:352|464:324,1,128,12|2
468,224,58654,2,0,B|416:220|416:220|400:196|400:196|344:192,1,128,8|2
288,112,59592,5,8
252,148,59826,1,0
204,168,60060,2,0,B|140:188|76:156,2,128,2|8|2
288,112,61467,6,0,B|424:132,1,128,8|2
460,156,62170,1,0
484,200,62404,2,0,B|476:272|416:304,1,128,8|2
320,296,63342,6,0,B|252:280|252:280|196:304,1,128,8|2
96,284,64279,2,0,B|84:316|84:316|48:328,2,64,8|8|8
108,232,64982,1,2
116,180,65217,6,0,B|184:168|212:100,1,128,8|2
300,52,66154,2,0,B|388:64|388:64|416:92,1,128,8|2
376,184,67092,2,0,B|348:228|360:284,1,96,8|0
364,300,67560,2,0,B|452:288|452:288|488:308,2,128,2|8|2
264,312,68967,5,8
264,312,69201,2,0,B|192:288,1,64,2|4
112,340,69904,1,8
112,340,70138,2,0,B|96:265,1,64,2|4
80,176,70842,1,8
80,176,71076,1,8
80,176,71310,1,8
80,176,71545,1,8
80,176,71779,2,0,B|136:128|200:156,1,128,8|4
240,184,72482,5,2
288,176,72717,2,0,B|352:160|352:160|392:104,1,128,12|2
488,136,73654,1,8
492,240,74123,1,2
468,284,74357,1,0
432,320,74592,6,0,B|380:364|304:352,1,128,8|2
212,332,75529,2,0,B|140:352,1,64,8|2
176,304,75998,2,0,B|100:296,1,64,8|8
148,260,76467,6,0,B|100:212|112:140,1,128,8|2
236,56,77404,2,0,B|280:104|272:176,1,128,8|2
256,276,78342,1,8
332,344,78810,1,2
432,324,79279,2,0,B|496:308,2,64,8|8|8
420,276,79982,1,2
408,228,80217,6,0,B|440:164|408:100,1,128,8|2
328,44,81154,2,0,B|324:112|268:156,1,128,8|2
272,256,82092,2,0,B|180:220,1,96,8|0
160,212,82560,2,0,B|188:272|160:340,2,128,2|8|2
136,112,83967,5,8
136,112,84201,1,0
136,112,84435,2,0,B|200:100,1,64,8|2
240,72,84904,2,0,B|276:68|296:100,1,64,8|10
344,112,85373,2,0,B|348:148|316:168,2,64,8|10|4
256,308,86545,5,2
256,308,86779,2,0,B|184:324,2,64,8|8|8
352,328,87717,6,0,B|428:328|444:256,1,128,4|2
344,224,88654,1,0
408,144,89123,2,0,B|448:156,2,32,2|0|2
392,96,89592,6,0,B|328:84|328:84|260:116,1,128,4|2
176,68,90529,1,0
76,92,90998,2,0,B|28:80,2,32,2|0|2
64,140,91467,6,0,B|20:196|56:264,1,128,4|2
124,332,92404,1,0
156,236,92873,2,0,B|256:224,2,96,2|2|4
256,192,93693,12,4,97092
