osu file format v9

[General]
AudioFilename: Sakura no Kasumi.mp3
AudioLeadIn: 500
PreviewTime: 57488
Countdown: 0
SampleSet: Soft
StackLeniency: 0.5
Mode: 0
LetterboxInBreaks: 0

[Editor]
DistanceSpacing: 1
BeatDivisor: 4
GridSize: 4

[Metadata]
Title:Sakura no Kasumi (Short Ver.)
Artist:Nishizawa Hagumi
Creator:Kitsuneko
Version:Hard
Source:Hanafubuki
Tags:silverbullet Sennen no Koi wo Shimashita

[Difficulty]
HPDrainRate:6
CircleSize:4
OverallDifficulty:7
ApproachRate:8
SliderMultiplier:1.64
SliderTickRate:1

[Events]
//Background and Video events
Video,-1100,"Sakura no Kasumi.avi"
0,0,"hanafubuki.jpg"
//Break Periods
//Storyboard Layer 0 (Background)
//Storyboard Layer 1 (Fail)
//Storyboard Layer 2 (Pass)
//Storyboard Layer 3 (Foreground)
//Storyboard Sound Samples
//Background Colour Transformations
3,100,163,162,255

[TimingPoints]
2405.25782342801,468.75,4,2,1,66,1,0
22092,-100,4,2,1,50,0,0
23030,-100,4,2,1,60,0,0
53030,-100,4,2,1,64,0,0
54905,-100,4,2,1,70,0,0
56780,-100,4,2,1,50,0,0
56838,-100,4,2,1,45,0,0
56897,-100,4,2,1,40,0,0
56956,-100,4,2,1,35,0,0
57014,-100,4,2,1,30,0,0
57073,-100,4,2,1,25,0,0
57131,-100,4,2,1,20,0,0
57190,-100,4,2,1,15,0,0
57249,-100,4,2,1,10,0,0
57483,-100,4,2,1,50,0,0
57717,468.75,4,2,1,70,1,1
85842,-100,4,2,1,70,0,0
93576,-100,4,2,1,80,0,0
93693,-100,4,2,1,70,0,0

[Colours]
Combo1 : 170,255,238
Combo2 : 255,170,253
Combo3 : 255,189,170
Combo4 : 232,255,170

[HitObjects]
488,100,2405,6,0,B|408:64|328:112,1,164,4|2
168,132,3342,2,0,B|196:128|196:128|268:172|240:244,2,164,0|2|0
148,136,4397,1,0
128,140,4514,1,0
108,144,4631,1,0
88,148,4749,1,2
32,220,4983,5,0
120,232,5217,1,0
68,304,5452,1,2
156,316,5686,2,0,B|198:324|198:324|232:304,1,82,0|2
320,328,6155,6,0,B|408:272|408:272|408:204,1,164,0|2
408,132,6858,1,0
480,172,7092,2,0,B|420:236|308:196,1,164,0|2
248,172,7795,1,0
212,96,8030,5,0
192,88,8147,1,0
172,88,8264,1,0
152,92,8381,1,0
136,104,8499,1,2
104,188,8733,1,0
28,228,8967,5,0
72,344,9202,1,2
192,312,9436,1,2
276,320,9670,5,2
276,320,9788,1,0
276,320,9905,2,0,B|316:340|360:324,1,82,0|0
456,256,10374,2,0,B|476:216|460:172,1,82,2|0
364,104,10842,2,0,B|324:84|280:100,1,82,0|0
192,176,11311,2,0,B|172:212|176:236,2,41,2|0|0
284,144,11780,6,0,B|323:129|363:149,1,82,0|0
352,304,12249,2,0,B|312:318|272:298,1,82,2|0
180,280,12717,1,0
164,292,12834,1,0
144,300,12952,1,0
124,304,13069,1,0
104,304,13186,1,2
56,208,13420,5,0
60,188,13538,1,0
64,168,13655,2,0,B|68:152|68:152|132:104|212:132,1,164,0|2
312,96,14358,1,0
332,88,14475,1,0
352,80,14592,2,0,B|372:72|372:72|420:100|416:160|360:184,1,164,0|2
256,220,15295,5,0
256,220,15413,1,0
256,220,15530,2,0,B|158:202,1,82
160,288,15999,2,0,B|80:312,1,82,2|0
36,244,16467,2,0,B|10:154|60:88,1,164,0|2
256,192,17405,12,4,19280
256,192,19397,12,2,21155
256,192,22092,5,2
328,232,22561,1,2
404,140,22795,5,0
404,140,22913,1,0
404,140,23030,2,0,B|364:164|316:148,1,82,0|0
316,68,23499,2,0,B|232:80,1,82,2|0
152,92,23967,2,0,B|116:64|72:76,1,82
16,132,24436,1,2
92,220,24670,5,0
92,220,24788,1,0
92,220,24905,2,0,B|172:232,1,82
140,332,25374,2,0,B|220:344,1,82,2|0
292,304,25842,2,0,B|356:324|416:304,2,123,0|2|0
196,236,26780,6,0,B|152:224|132:184,1,82
208,88,27249,2,0,B|252:96|272:140,1,82,2|0
244,256,27717,6,0,B|200:232|195:189,1,82
293,116,28186,2,0,B|332:136|341:182,1,82,2|0
292,276,28655,6,0,B|360:220|452:244,1,164,0|2
446,242,29358,1,0
400,312,29592,1,0
368,288,29709,1,0
356,248,29827,1,0
364,208,29944,1,0
388,176,30061,1,2
492,132,30295,5,0
492,132,30413,1,0
492,132,30530,2,0,B|404:144|328:88,1,164,0|2
256,108,31233,1,0
188,52,31467,2,0,B|88:72,1,82
32,104,31936,2,0,B|60:140|40:184,1,82,2|0
20,260,32405,5,0
20,260,32639,1,0
92,328,32874,1,2
92,328,33108,2,0,B|128:300|176:312,1,82,0|0
252,324,33577,1,0
272,328,33694,1,0
292,336,33811,2,0,B|336:348|376:328,1,82,2|0
404,136,34280,6,0,B|448:124|488:152,1,82
364,176,34749,2,0,B|403:154|449:170,1,82,2|0
328,224,35217,2,0,B|360:192|408:196,1,82
376,312,35686,2,0,B|327:351|259:343,1,123,2|2
236,339,36155,1,2
215,330,36272,1,2
132,344,36506,5,2
121,328,36624,1,2
40,312,36858,37,2
44,292,36975,1,2
16,216,37209,5,2
28,200,37326,1,2
88,140,37561,5,2
108,132,37678,1,0
128,132,37795,1,0
148,136,37913,1,0
168,140,38030,2,0,B|232:148|296:124,1,123,2|0
292,108,38499,2,0,B|333:92|378:99,1,82,2|0
456,84,38967,1,2
420,184,39202,1,0
508,244,39436,1,2
444,300,39670,5,0
444,300,39788,1,0
444,300,39905,2,0,B|428:340|376:344,1,82,2|0
316,292,40374,2,0,B|224:280,1,82,2|0
164,328,40842,1,2
164,328,40959,1,0
164,328,41077,2,0,B|116:344|84:316,2,82,0|2|0
64,228,41780,5,0
224,132,42131,1,2
72,88,42483,1,2
136,144,42717,5,0
136,164,42834,1,0
136,184,42952,1,0
139,203,43069,1,0
143,222,43186,2,0,B|151:266|187:302,1,82,2|0
268,328,43655,6,0,B|308:304|356:316,1,82
368,320,44006,1,0
388,324,44124,1,2
432,244,44358,5,0
452,244,44475,1,0
472,240,44592,1,2
412,156,44827,37,0
432,152,44944,1,0
452,144,45061,2,0,B|408:128|392:84,1,82,2|0
304,80,45530,6,0,B|164:96,1,123,0|2
88,244,46233,1,2
216,148,46467,2,0,B|236:104|208:64,1,82,0|0
108,56,46936,2,0,B|88:100|116:140,1,82,2|0
108,156,47288,1,0
104,176,47405,5,0
64,332,47756,1,2
220,268,48108,1,2
268,200,48342,5,0
340,240,48577,1,0
420,220,48811,1,2
460,148,49045,1,0
416,80,49280,6,0,B|316:56,1,82
316,59,49631,1,0
296,56,49749,1,2
224,100,49983,1,0
204,96,50100,1,0
184,92,50217,1,2
104,76,50452,1,0
104,76,50569,1,2
20,192,50920,5,0
20,192,51038,1,0
20,192,51155,2,0,B|64:184|100:208,1,82,2|0
124,284,51624,2,0,B|160:260|212:272,1,82,2|2
252,336,52092,2,0,B|268:344|268:344|348:328,1,82,0|2
412,316,52561,1,2
456,236,52795,5,0
452,216,52913,1,0
448,196,53030,2,0,B|440:148|404:116,1,82,2|0
340,160,53499,2,0,B|309:122|261:112,1,82,2|0
256,128,53850,1,0
240,140,53967,2,0,B|194:122|148:138,1,82,2|0
139,138,54319,1,0
119,145,54436,1,2
101,155,54553,1,0
86,169,54670,1,0
75,186,54788,1,0
68,205,54905,6,0,B|52:244|60:296,1,82,2|0
152,280,55374,2,0,B|148:328|180:352,1,82,2|0
256,300,55842,2,0,B|280:336|340:328,1,82,2|0
348,320,56194,1,0
364,308,56311,1,0
384,300,56428,1,0
404,296,56545,1,0
424,296,56663,1,0
444,300,56780,2,0,B|476:308,8,20.5,0|0|0|0|0|0|0|0|0
460,128,57483,5,0
440,132,57600,1,0
420,136,57717,2,0,B|384:112|332:128,1,82,4|2
264,60,58185,2,0,B|276:104|240:136,1,82,8|2
296,212,58654,2,0,B|236:152|144:176,1,164,0|8
56,248,59357,5,2
68,232,59474,1,0
72,212,59592,1,0
28,140,59826,1,2
56,249,60060,2,0,B|100:257|136:225,1,82,8|2
145,209,60412,2,0,B|209:233|273:197,1,123,0|2
281,189,60881,1,0
289,169,60998,1,8
316,88,61232,5,2
316,88,61349,1,0
316,88,61467,2,0,B|352:68|400:76,1,82,0|2
484,196,61935,2,0,B|448:216|400:208,1,82,8|2
284,64,62404,6,0,B|320:44|368:52,1,82,0|2
404,208,62872,2,0,B|368:228|320:220,1,82,8|2
224,180,63342,2,0,B|212:112|140:96,2,123,0|2|0
208,260,64279,2,0,B|164:264,1,41,8|2
176,304,64513,2,0,B|135:285,1,41,8|2
120,324,64748,2,0,B|94:287,3,41,8|2|8|2
96,290,65217,6,0,B|144:212|108:132,1,164,0|8
40,84,65920,1,2
36,168,66154,2,0,B|128:184|188:112,1,164,0|8
264,136,66857,1,2
296,60,67092,6,0,B|244:52|244:52|228:40|228:40|172:32,2,123,0|2|2
376,40,68029,1,2
396,36,68146,1,0
416,40,68263,1,2
480,92,68498,2,0,B|472:172,1,82,8|2
460,256,68967,6,0,B|420:280|376:264,1,82,0|2
308,228,69435,2,0,B|328:184|304:148,1,82,4|0
52,128,69904,6,0,B|92:104|136:120,1,82,0|2
204,156,70372,2,0,B|184:200|208:236,1,82,4|0
280,328,70842,5,8
336,264,71076,1,8
296,188,71310,1,8
332,112,71544,1,8
408,76,71779,2,0,B|452:76,3,41,8|8|8|8
428,115,72248,2,0,B|468:127,3,41,8|8|8|8
460,164,72717,6,0,B|496:252|440:320,1,164,4|8
360,336,73420,1,2
280,312,73654,2,0,B|196:280|120:336,1,164,0|8
52,292,74357,1,2
100,224,74592,6,0,B|192:200,2,82,0|2|8
32,172,75295,1,2
32,172,75412,1,0
31,172,75529,2,0,B|63:140|55:96,1,82,0|2
124,48,75998,1,8
204,72,76232,5,8
224,68,76349,1,8
244,64,76467,2,0,B|264:60|264:60|328:108|304:192,1,164,8|8
280,264,77170,1,2
228,200,77404,2,0,B|280:160|356:192|360:248,2,164,0|8|2
72,164,78693,5,2
108,320,79045,1,2
280,264,79279,1,0
220,320,79513,1,2
204,240,79748,1,8
188,160,79982,5,8
172,148,80099,1,8
152,140,80217,2,0,B|220:144|244:120,1,82,8|2
288,68,80685,2,0,B|332:52|368:80,1,82,8|2
448,88,81154,2,0,B|439:134|397:151,1,82,0|2
352,216,81623,2,0,B|316:185|322:140,1,82,8|2
320,144,82092,6,0,B|300:184|248:188,1,82,0|2
256,268,82560,2,0,B|172:292,1,82,8|2
96,308,83029,2,0,B|156:228|100:148,1,164,0|8
48,96,83732,5,2
48,96,83849,1,0
48,96,83967,2,0,B|132:80,1,82,0|2
200,40,84435,2,0,B|232:60|232:60|280:52,1,82,8|2
332,116,84904,2,0,B|260:132|256:208,2,123,0|2|2
412,100,85842,1,4
256,316,86545,5,2
256,316,86662,1,0
256,316,86779,2,0,B|220:344|168:332,1,82,8|8
136,248,87248,2,0,B|184:268|224:248,1,82,8|8
232,240,87599,1,8
244,224,87717,6,0,B|292:232|328:200,1,82,4|0
364,136,88185,2,0,B|372:88|340:52,1,82,2|0
264,40,88654,1,0
264,40,88771,1,0
264,40,88888,1,0
192,84,89123,2,0,B|144:76|115:102,1,82,2|0
76,172,89592,6,0,B|16:184,4,41,0|0|0|0|2
116,244,90295,1,0
164,308,90529,2,0,B|244:292,1,82
256,212,90998,2,0,B|336:196,1,82,2|0
392,132,91467,6,0,B|452:144,4,41,0|0|0|0|2
332,72,92170,1,0
252,48,92404,2,0,B|192:36,3,41,2|0|0|0
212,80,92873,2,0,B|152:88,3,41,2|0|0|2
256,220,93576,37,4
256,192,93693,12,4,97092
